<?xml version="1.0" standalone="no"?>
<!DOCTYPE svg PUBLIC "-//W3C//DTD SVG 1.1//EN" "http://www.w3.org/Graphics/SVG/1.1/DTD/svg11.dtd" >
<svg>
<metadata>
Created by FontForge 20110222 at Sat Jun 28 09:45:03 2014
 By Orthosie Webhosting
Copyright (c) 2014, Cooper Hewitt Smithsonian Design Museum (cooperhewitt.org)
</metadata>
<defs>
<font id="CooperHewitt-Semibold" horiz-adv-x="300" >
  <font-face 
    font-family="Cooper Hewitt"
    font-weight="709"
    font-stretch="normal"
    units-per-em="1000"
    panose-1="0 0 0 0 0 0 0 0 0 0"
    ascent="750"
    descent="-250"
    x-height="530"
    cap-height="780"
    bbox="-240 -223 1383 966"
    underline-thickness="50"
    underline-position="-50"
    unicode-range="U+0020-F222"
  />
<missing-glyph horiz-adv-x="964" 
d="M92 0v780h780v-780h-780zM482 345l-279 -279h558zM203 714l279 -279l279 279h-558zM437 390l-275 275v-550zM527 390l275 -275v550z" />
    <glyph glyph-name=".notdef" horiz-adv-x="964" 
d="M92 0v780h780v-780h-780zM482 345l-279 -279h558zM203 714l279 -279l279 279h-558zM437 390l-275 275v-550zM527 390l275 -275v550z" />
    <glyph glyph-name=".null" horiz-adv-x="0" 
 />
    <glyph glyph-name="nonmarkingreturn" horiz-adv-x="333" 
 />
    <glyph glyph-name="space" unicode=" " horiz-adv-x="200" 
 />
    <glyph glyph-name="exclam" unicode="!" horiz-adv-x="250" 
d="M44 780h162l-36 -564h-90zM196 141v-141h-142v141h142z" />
    <glyph glyph-name="quotedbl" unicode="&#x22;" horiz-adv-x="413" 
d="M54 780h130l-9 -306h-100zM229 780h130l-22 -306h-99z" />
    <glyph glyph-name="numbersign" unicode="#" horiz-adv-x="600" 
d="M75 459v115h94l41 206h115l-40 -206h102l40 206h116l-41 -206h72v-115h-94l-27 -138h72v-115h-95l-40 -206h-115l40 206h-102l-40 -206h-116l40 206h-71v115h94l27 138h-72zM262 459l-27 -138h102l27 138h-102z" />
    <glyph glyph-name="dollar" unicode="$" horiz-adv-x="600" 
d="M459 840l-32 -131q118 -48 118 -202v-14h-131q0 51 -18 83l-33 -138q95 -16 141.5 -57t46.5 -120v-9q0 -95 -64 -148t-183 -53q-23 0 -33 1l-27 -112h-102l32 133q-125 50 -125 200v6h132q0 -49 23 -80l36 151q-96 17 -140 58t-44 117v9q0 93 66 144.5t178 51.5
q5 0 15 -0.5t15 -0.5l27 111h102zM306 160q50 0 80.5 23t30.5 63v5q0 63 -79 83l-41 -174h9zM188 535q0 -32 17.5 -51.5t59.5 -29.5l40 167h-9q-46 0 -77 -22t-31 -59v-5z" />
    <glyph glyph-name="percent" unicode="%" horiz-adv-x="963" 
d="M377 0h-116l272 655q-50 -10 -84 -10q-33 0 -56 4q3 -19 3 -40v-11q0 -87 -51 -135t-132 -48t-131.5 48t-50.5 135v11q0 87 50.5 135.5t131.5 48.5q46 0 86 -17q68 -25 172 -25q57 0 117 10.5t87 21.5v-67zM567 182q0 87 50.5 135t131.5 48t132 -48t51 -135v-11
q0 -87 -51 -135.5t-132 -48.5t-131.5 48.5t-50.5 135.5v11zM666 169q0 -38 22 -60t58 -22h6q36 0 58.5 22t22.5 60v14q0 38 -22.5 60.5t-58.5 22.5h-6q-36 0 -58 -22.5t-22 -60.5v-14zM297 611q0 38 -22.5 60t-58.5 22h-6q-36 0 -58 -22t-22 -60v-14q0 -38 22 -60.5
t58 -22.5h6q36 0 58.5 22.5t22.5 60.5v14z" />
    <glyph glyph-name="ampersand" unicode="&#x26;" horiz-adv-x="681" 
d="M255 -13q-107 0 -168 60t-61 161v11q0 125 115 207q-39 48 -57 87.5t-18 94.5v11q0 76 52 125t155 49q102 0 154 -49t52 -125v-11q0 -38 -12.5 -69.5t-38.5 -56.5t-48.5 -41t-59.5 -38l151 -173q33 71 33 162v3h137v-3q0 -152 -84 -262l113 -130h-159l-42 47
q-92 -60 -214 -60zM274 101h5q65 0 114 34l-175 202q-58 -48 -58 -111v-7q0 -55 29 -86.5t85 -31.5zM198 614v-7q0 -57 47 -118q50 30 76 56t26 62v7q0 30 -19 49.5t-52 19.5h-7q-33 0 -52 -19.5t-19 -49.5z" />
    <glyph glyph-name="quotesingle" unicode="'" horiz-adv-x="250" 
d="M54 780h142l-21 -306h-100z" />
    <glyph glyph-name="parenleft" unicode="(" horiz-adv-x="350" 
d="M42 350v20q0 158 37.5 262t110.5 208h136q-74 -110 -113.5 -218.5t-39.5 -251.5v-20q0 -143 39.5 -251.5t113.5 -218.5h-136q-73 104 -110.5 208t-37.5 262z" />
    <glyph glyph-name="parenright" unicode=")" horiz-adv-x="350" 
d="M308 370v-20q0 -158 -37.5 -262t-110.5 -208h-136q74 109 113.5 218t39.5 252v20q0 143 -39.5 252t-113.5 218h136q73 -104 110.5 -208t37.5 -262z" />
    <glyph glyph-name="asterisk" unicode="*" horiz-adv-x="405" 
d="M164 800h77l-5 -137h-67zM6 629l25 74l129 -47l-21 -64zM120 426l-63 46l85 108l55 -40zM374 703l25 -74l-133 -37l-21 64zM348 472l-63 -46l-77 114l55 40z" />
    <glyph glyph-name="plus" unicode="+" horiz-adv-x="600" 
d="M241 646h118v-197h197v-118h-197v-197h-118v197h-197v118h197v197z" />
    <glyph glyph-name="comma" unicode="," horiz-adv-x="250" 
d="M196 141v-111q0 -165 -153 -165v68q71 0 83 67h-72v141h142z" />
    <glyph glyph-name="hyphen" unicode="-" horiz-adv-x="345" 
d="M40 293v114h265v-114h-265z" />
    <glyph glyph-name="period" unicode="." horiz-adv-x="250" 
d="M196 141v-141h-142v141h142z" />
    <glyph glyph-name="slash" unicode="/" horiz-adv-x="388" 
d="M373 840l-230 -960h-128l230 960h128z" />
    <glyph glyph-name="zero" unicode="0" horiz-adv-x="600" 
d="M550 222q0 -106 -63.5 -170.5t-186.5 -64.5t-186.5 64.5t-63.5 170.5v336q0 106 63.5 170.5t186.5 64.5t186.5 -64.5t63.5 -170.5v-336zM417 554q0 122 -115 122h-4q-115 0 -115 -122v-328q0 -122 115 -122h4q115 0 115 122v328z" />
    <glyph glyph-name="one" unicode="1" horiz-adv-x="600" 
d="M558 0h-496v117h182v498l-142 -96l-65 97l243 166h96v-665h182v-117z" />
    <glyph glyph-name="two" unicode="2" horiz-adv-x="600" 
d="M309 117h244v-117h-506v83l313 340q33 35 46.5 61.5t13.5 60.5v10q0 58 -32 89.5t-84 31.5h-8q-58 0 -87.5 -36.5t-29.5 -119.5h-132v21q0 252 253 252q126 0 189.5 -62t63.5 -152v-17q0 -63 -20 -105.5t-69 -95.5l-225 -245z" />
    <glyph glyph-name="three" unicode="3" horiz-adv-x="600" 
d="M174 250q0 -146 121 -146h10q51 0 85.5 29t34.5 86v12q0 53 -31.5 81t-84.5 28h-109v116h106q53 0 83.5 26t30.5 78v9q0 48 -32 77.5t-83 29.5h-10q-58 0 -87 -36.5t-29 -119.5h-132v21q0 252 253 252q126 0 189.5 -61.5t63.5 -146.5v-18q0 -118 -99 -169
q104 -51 104 -174v-18q0 -88 -67.5 -153.5t-190.5 -65.5q-128 0 -193 65t-65 185v13h132z" />
    <glyph glyph-name="four" unicode="4" horiz-adv-x="600" 
d="M472 0h-132v182h-311v91l318 507h125v-482h99v-116h-99v-182zM342 568l-172 -271l62 1h108v199z" />
    <glyph glyph-name="five" unicode="5" horiz-adv-x="600" 
d="M42 250h132q0 -146 121 -146h10q52 0 86 33t34 101v14q0 68 -35 101t-91 33h-7q-41 0 -77.5 -19.5t-53.5 -55.5l-113 38l19 431h481v-117h-369l-9 -194q62 34 136 34q117 0 184.5 -66.5t67.5 -183.5v-16q0 -117 -68.5 -183.5t-189.5 -66.5q-128 0 -193 65t-65 185v13z
" />
    <glyph glyph-name="six" unicode="6" horiz-adv-x="600" 
d="M521 793v-119q-178 0 -264 -107q-41 -53 -61 -123q60 47 140 47q101 0 162 -64.5t61 -180.5v-10q0 -119 -67 -184t-190 -65q-120 0 -189 76.5t-69 206.5v13q0 211 110 358q114 152 367 152zM304 375q-40 0 -74 -20t-54 -56v-39q0 -73 35 -114.5t88 -41.5h6q54 0 88 34
t34 93v19q0 62 -32 93.5t-86 31.5h-5z" />
    <glyph glyph-name="seven" unicode="7" horiz-adv-x="600" 
d="M43 500v280h518v-82l-284 -698h-141l276 665l-100 -2h-152v-163h-117z" />
    <glyph glyph-name="eight" unicode="8" horiz-adv-x="600" 
d="M300 -13q-123 0 -190.5 65t-67.5 153v18q0 122 104 175q-99 52 -99 170v18q0 85 63.5 146t189.5 61t189.5 -61t63.5 -146v-18q0 -117 -99 -170q104 -54 104 -175v-18q0 -88 -67.5 -153t-190.5 -65zM291 340q-53 0 -84.5 -28.5t-31.5 -81.5v-12q0 -57 34.5 -85.5
t85.5 -28.5h10q51 0 85.5 28.5t34.5 85.5v12q0 53 -31.5 81.5t-84.5 28.5h-18zM305 676h-10q-51 0 -83 -29t-32 -77v-8q0 -52 30.5 -79t83.5 -27h12q53 0 83.5 27t30.5 79v8q0 48 -32 77t-83 29z" />
    <glyph glyph-name="nine" unicode="9" horiz-adv-x="600" 
d="M79 -13v119q178 0 264 107q39 49 60 123q-59 -47 -139 -47q-101 0 -162 64.5t-61 180.5v10q0 119 67 184t190 65q120 0 189 -76.5t69 -206.5v-13q0 -211 -110 -358q-114 -152 -367 -152zM296 405q40 0 74 20t53 55q1 10 1 30v10q0 73 -35 114.5t-88 41.5h-6
q-54 0 -88 -34t-34 -93v-19q0 -62 32 -93.5t86 -31.5h5z" />
    <glyph glyph-name="colon" unicode=":" horiz-adv-x="250" 
d="M196 461v-142h-142v142h142zM196 141v-141h-142v141h142z" />
    <glyph glyph-name="semicolon" unicode=";" horiz-adv-x="250" 
d="M196 141v-111q0 -165 -153 -165v68q71 0 83 67h-72v141h142zM196 461v-142h-142v142h142z" />
    <glyph glyph-name="less" unicode="&#x3c;" horiz-adv-x="600" 
d="M44 454l512 215v-130l-372 -149l372 -149v-130l-512 215v128z" />
    <glyph glyph-name="equal" unicode="=" horiz-adv-x="600" 
d="M44 437v118h512v-118h-512zM44 225v118h512v-118h-512z" />
    <glyph glyph-name="greater" unicode="&#x3e;" horiz-adv-x="600" 
d="M556 454v-128l-512 -215v130l372 149l-372 149v130z" />
    <glyph glyph-name="question" unicode="?" horiz-adv-x="484" 
d="M246 677q-51 0 -71.5 -39.5t-20.5 -124.5h-131v15q0 130 51 197.5t172 67.5q115 0 166 -56.5t51 -147.5q0 -55 -17 -96t-42.5 -67.5t-51 -52t-45 -65t-23.5 -92.5h-90q-4 54 9 101t33.5 80.5t41.5 62.5t36.5 59.5t15.5 58.5q0 49 -19 74t-65 25zM310 141v-141h-142v141
h142z" />
    <glyph glyph-name="at" unicode="@" horiz-adv-x="981" 
d="M510 -124h6q184 0 329 107l51 -69q-161 -127 -383 -127q-217 0 -350.5 128t-133.5 355v40q0 227 132.5 355t346.5 128q92 0 170.5 -23.5t141 -70.5t98 -125t35.5 -179v-30q0 -87 -20 -148.5t-58.5 -94.5t-85 -47.5t-108.5 -14.5h-86l-11 63q-48 -76 -143 -76
q-93 0 -141 64.5t-48 168.5v30q0 104 48 168.5t141 64.5q96 0 143 -77l11 64h102l-8 -140v-243q93 4 132 49.5t39 168.5v30q0 69 -19.5 123t-52.5 88.5t-79 57t-94.5 31.5t-103.5 9h-6q-174 0 -280 -102.5t-106 -291.5v-40q0 -191 106.5 -292.5t284.5 -101.5zM574 208v174
q-36 58 -100 58q-51 0 -76 -34.5t-25 -95.5v-30q0 -61 25 -95.5t76 -34.5q64 0 100 58z" />
    <glyph glyph-name="A" unicode="A" horiz-adv-x="631" 
d="M223 784h185l205 -784h-144l-43 178h-220l-43 -178h-145zM316 631l-82 -336h163z" />
    <glyph glyph-name="B" unicode="B" horiz-adv-x="617" 
d="M61 780h239q246 0 246 -210v-20q0 -104 -87 -148q107 -46 107 -163v-20q0 -219 -256 -219h-249v780zM315 341h-120v-224h120q49 0 82 25t33 81v11q0 56 -33 81.5t-82 25.5zM300 663h-105v-205h105q110 0 110 96v13q0 96 -110 96z" />
    <glyph glyph-name="C" unicode="C" horiz-adv-x="640" 
d="M181 370q0 -137 33 -201.5t114 -64.5h9q126 0 126 159h135v-10q0 -137 -66.5 -201.5t-202.5 -64.5q-147 0 -216 91t-69 292v40q0 201 69 292t216 91q136 0 202.5 -65.5t66.5 -206.5v-34h-135q0 97 -28.5 143t-97.5 46h-9q-81 0 -114 -64.5t-33 -201.5v-40z" />
    <glyph glyph-name="D" unicode="D" horiz-adv-x="655" 
d="M611 370q0 -199 -76.5 -284.5t-243.5 -85.5h-230v780h230q167 0 243.5 -85.5t76.5 -284.5v-40zM195 117h88q103 0 147 59.5t44 193.5v40q0 134 -44 193.5t-147 59.5h-88v-546z" />
    <glyph glyph-name="E" unicode="E" horiz-adv-x="565" 
d="M61 780h464v-117h-330v-207h280v-116h-280v-223h330v-117h-464v780z" />
    <glyph glyph-name="F" unicode="F" horiz-adv-x="538" 
d="M61 780h457v-117h-323v-207h273v-116h-273v-340h-134v780z" />
    <glyph glyph-name="G" unicode="G" horiz-adv-x="664" 
d="M346 -13q-155 0 -228.5 91t-73.5 292v40q0 200 72 291.5t220 91.5q136 0 204 -66t68 -206v-34h-134q0 97 -29.5 143t-100.5 46h-9q-84 0 -119 -64.5t-35 -201.5v-40q0 -138 36 -202t125 -64h9q75 0 123 39v151h-113v116h247v-332q-103 -91 -262 -91z" />
    <glyph glyph-name="H" unicode="H" horiz-adv-x="655" 
d="M460 780h134v-780h-134v340h-265v-340h-134v780h134v-324h265v324z" />
    <glyph glyph-name="I" unicode="I" horiz-adv-x="266" 
d="M200 780v-780h-134v780h134z" />
    <glyph glyph-name="J" unicode="J" horiz-adv-x="524" 
d="M334 780h134v-541q0 -252 -222 -252q-119 0 -170 63.5t-51 189.5v23h127q0 -83 20.5 -121t70.5 -38q49 0 70 37t21 115v524z" />
    <glyph glyph-name="K" unicode="K" horiz-adv-x="606" 
d="M195 780v-345l224 345h162l-222 -317l222 -463h-149l-158 342l-79 -112v-230h-134v780h134z" />
    <glyph glyph-name="L" unicode="L" horiz-adv-x="511" 
d="M496 0h-435v780h134v-663h301v-117z" />
    <glyph glyph-name="M" unicode="M" horiz-adv-x="849" 
d="M658 547l-167 -547h-134l-166 547l4 -161v-386h-134v780h197l166 -548l167 548h197v-780h-134v386z" />
    <glyph glyph-name="N" unicode="N" horiz-adv-x="675" 
d="M614 780v-780h-142l-288 538l4 -165v-373h-127v780h142l288 -538l-4 165v373h127z" />
    <glyph glyph-name="O" unicode="O" horiz-adv-x="665" 
d="M333 -13q-148 0 -218.5 91t-70.5 292v40q0 201 70.5 292t218.5 91t218 -91.5t70 -291.5v-40q0 -200 -70 -291.5t-218 -91.5zM328 104h9q80 0 113.5 65t33.5 201v40q0 136 -33.5 201t-113.5 65h-9q-80 0 -113.5 -65t-33.5 -201v-40q0 -136 33.5 -201t113.5 -65z" />
    <glyph glyph-name="P" unicode="P" horiz-adv-x="598" 
d="M195 291v-291h-134v780h244q261 0 261 -234v-20q0 -235 -261 -235h-110zM195 408h115q120 0 120 122v11q0 122 -120 122h-115v-255z" />
    <glyph glyph-name="Q" unicode="Q" horiz-adv-x="665" 
d="M333 -13q-148 0 -218.5 91t-70.5 292v40q0 201 70.5 292t218.5 91t218 -91.5t70 -291.5v-40q0 -286 -150 -357l45 -113h-107l-34 89q-28 -2 -42 -2zM378 251l46 -117q60 56 60 236v40q0 136 -33.5 201t-113.5 65h-9q-80 0 -113.5 -65t-33.5 -201v-40q0 -136 33.5 -201
t113.5 -65h3l-56 147h103z" />
    <glyph glyph-name="R" unicode="R" horiz-adv-x="611" 
d="M195 291v-291h-134v780h244q261 0 261 -234v-20q0 -164 -127 -214l127 -312h-145l-112 291h-114zM195 408h115q120 0 120 122v11q0 122 -120 122h-115v-255z" />
    <glyph glyph-name="S" unicode="S" horiz-adv-x="621" 
d="M290 340q-128 17 -187 69t-59 148v10q0 104 70.5 165t196.5 61q137 0 201.5 -65t64.5 -198v-23h-134q0 88 -31 128.5t-100 40.5h-9q-55 0 -88.5 -28t-33.5 -74v-6q0 -51 32 -78t120 -39q130 -18 190.5 -69t60.5 -152v-11q0 -110 -71.5 -171t-201.5 -61q-274 0 -274 266
v10h134q0 -159 135 -159h9q62 0 97 30t35 80v6q0 52 -35 80t-122 40z" />
    <glyph glyph-name="T" unicode="T" horiz-adv-x="544" 
d="M339 663v-663h-134v663h-186v117h506v-117h-186z" />
    <glyph glyph-name="U" unicode="U" horiz-adv-x="655" 
d="M328 -13q-146 0 -209 62t-63 196v535h134v-530q0 -78 31.5 -112t106.5 -34q74 0 105.5 34t31.5 112v530h134v-535q0 -134 -63 -196t-208 -62z" />
    <glyph glyph-name="V" unicode="V" horiz-adv-x="631" 
d="M408 -4h-185l-205 784h144l154 -631l153 631h144z" />
    <glyph glyph-name="W" unicode="W" horiz-adv-x="924" 
d="M590 -4l-128 632l-129 -632h-173l-134 784h140l89 -604l122 604h169l123 -604l89 604h140l-134 -784h-174z" />
    <glyph glyph-name="X" unicode="X" horiz-adv-x="638" 
d="M22 0l201 405l-201 375h156l141 -281l140 281h156l-201 -374l201 -406h-149l-148 312l-146 -312h-150z" />
    <glyph glyph-name="Y" unicode="Y" horiz-adv-x="610" 
d="M372 238v-238h-134v238l-226 542h146l147 -377l147 377h146z" />
    <glyph glyph-name="Z" unicode="Z" horiz-adv-x="587" 
d="M40 92l333 574l-137 -3h-186v117h487v-92l-333 -574l137 3h206v-117h-507v92z" />
    <glyph glyph-name="bracketleft" unicode="[" horiz-adv-x="350" 
d="M61 840h254v-115h-124v-730h124v-115h-254v960z" />
    <glyph glyph-name="backslash" unicode="\" horiz-adv-x="386" 
d="M245 -120l-230 960h128l230 -960h-128z" />
    <glyph glyph-name="bracketright" unicode="]" horiz-adv-x="350" 
d="M290 -120h-254v115h123v730h-123v115h254v-960z" />
    <glyph glyph-name="asciicircum" unicode="^" horiz-adv-x="600" 
d="M364 780l215 -513h-130l-149 373l-149 -373h-130l215 513h128z" />
    <glyph glyph-name="underscore" unicode="_" horiz-adv-x="320" 
d="M44 -169v114h232v-114h-232z" />
    <glyph glyph-name="grave" unicode="`" horiz-adv-x="500" 
d="M82 780h142l91 -179h-130z" />
    <glyph glyph-name="a" unicode="a" horiz-adv-x="538" 
d="M377 0l-10 61q-64 -74 -173 -74q-80 0 -120 44t-40 112v10q0 80 48.5 116.5t136.5 49.5l135 21v2q0 52 -19.5 76t-68.5 24q-88 0 -88 -87h-124v9q0 77 49.5 128t165.5 51q118 0 166.5 -51t48.5 -150v-192l8 -150h-115zM239 94q74 0 115 55v112l-111 -18q-79 -13 -79 -76
v-8q0 -27 19 -46t56 -19z" />
    <glyph glyph-name="b" unicode="b" horiz-adv-x="563" 
d="M187 800v-319q52 62 141 62q198 0 198 -262v-32q0 -121 -47.5 -191.5t-150.5 -70.5q-102 0 -153 79l-11 -66h-115l8 150v650h130zM187 369v-208q38 -60 104 -60q105 0 105 148v32q0 149 -105 149q-65 0 -104 -61z" />
    <glyph glyph-name="c" unicode="c" horiz-adv-x="525" 
d="M166 249q0 -148 107 -148q47 0 70.5 25.5t23.5 66.5h123v-21q0 -81 -56.5 -133t-163.5 -52q-117 0 -175.5 71.5t-58.5 190.5v32q0 120 58.5 191t175.5 71q108 0 164 -54t56 -139v-22h-123q0 48 -23.5 75t-70.5 27q-107 0 -107 -149v-32z" />
    <glyph glyph-name="d" unicode="d" horiz-adv-x="569" 
d="M241 543q88 0 140 -62v319h130v-650l8 -150h-115l-11 66q-51 -79 -152 -79q-103 0 -151 70.5t-48 191.5v32q0 122 47.5 192t151.5 70zM381 161v208q-37 61 -104 61q-105 0 -105 -149v-32q0 -148 105 -148q68 0 104 60z" />
    <glyph glyph-name="e" unicode="e" horiz-adv-x="553" 
d="M516 217h-350q7 -129 119 -129q50 0 79 24.5t29 57.5h123v-4q0 -75 -61.5 -127t-170.5 -52q-123 0 -185.5 73t-62.5 192v26q0 119 62 192t181 73q117 0 177 -73t60 -192v-61zM276 442q-102 0 -110 -129h219q-6 129 -109 129z" />
    <glyph glyph-name="f" unicode="f" horiz-adv-x="401" 
d="M234 613v-83h127v-114h-127v-416h-130v416h-81v114h81v98q0 185 185 185q56 0 82 -13v-108q-16 8 -51 8q-44 0 -65 -18.5t-21 -68.5z" />
    <glyph glyph-name="g" unicode="g" horiz-adv-x="563" 
d="M376 8v74q-51 -61 -141 -61q-102 0 -150.5 66t-48.5 182v26q0 112 49 180t150 68q103 0 153 -78l11 65h115l-8 -150v-374q0 -219 -233 -219q-120 0 -173.5 53t-53.5 141v19h123q0 -52 23 -79t78 -27q56 0 81 27t25 87zM376 194v175q-39 61 -105 61q-51 0 -78 -36.5
t-27 -98.5v-26q0 -135 105 -135q65 0 105 60z" />
    <glyph glyph-name="h" unicode="h" horiz-adv-x="563" 
d="M188 800v-324q57 67 160 67q82 0 122.5 -51t40.5 -129v-363h-129v342q0 40 -21 64t-63 24q-73 0 -110 -61v-369h-130v800h130z" />
    <glyph glyph-name="i" unicode="i" horiz-adv-x="250" 
d="M60 0v530h130v-530h-130zM196 763v-141h-142v141h142z" />
    <glyph glyph-name="j" unicode="j" horiz-adv-x="252" 
d="M60 -13v543h130v-558q0 -185 -185 -185q-56 0 -82 13v108q19 -8 51 -8q44 0 65 18.5t21 68.5zM196 763v-141h-142v141h142z" />
    <glyph glyph-name="k" unicode="k" horiz-adv-x="543" 
d="M54 0v800h130v-484l181 214h157l-178 -201l178 -329h-151l-116 228l-71 -81v-147h-130z" />
    <glyph glyph-name="l" unicode="l" horiz-adv-x="250" 
d="M60 0v800h130v-800h-130z" />
    <glyph glyph-name="m" unicode="m" horiz-adv-x="844" 
d="M793 0h-130v351q0 79 -75 79q-60 0 -98 -57v-373h-129v351q0 79 -76 79q-61 0 -97 -57v-373h-130v380l-9 150h115l11 -66q56 79 161 79q101 0 137 -84q54 84 165 84q77 0 116 -47t39 -125v-371z" />
    <glyph glyph-name="n" unicode="n" horiz-adv-x="563" 
d="M511 0h-129v342q0 40 -21 64t-63 24q-73 0 -110 -61v-369h-130v380l-9 150h115l12 -70q57 83 172 83q82 0 122.5 -51t40.5 -129v-363z" />
    <glyph glyph-name="o" unicode="o" horiz-adv-x="553" 
d="M276 -13q-120 0 -180 71.5t-60 190.5v32q0 120 60 191t180 71t180 -71t60 -191v-32q0 -119 -60 -190.5t-180 -71.5zM276 101q110 0 110 148v32q0 149 -110 149t-110 -149v-32q0 -148 110 -148z" />
    <glyph glyph-name="p" unicode="p" horiz-adv-x="563" 
d="M328 -13q-91 0 -141 62v-249h-130v580l-8 150h115l11 -66q51 79 153 79q198 0 198 -262v-32q0 -121 -47.5 -191.5t-150.5 -70.5zM187 369v-208q38 -60 104 -60q105 0 105 148v32q0 149 -105 149q-65 0 -104 -61z" />
    <glyph glyph-name="q" unicode="q" horiz-adv-x="568" 
d="M378 -200v250q-51 -63 -141 -63q-103 0 -151 70.5t-48 191.5v32q0 122 47.5 192t151.5 70q103 0 153 -80l11 67h115l-8 -150v-580h-130zM378 161v208q-39 61 -105 61q-105 0 -105 -149v-32q0 -148 105 -148q67 0 105 60z" />
    <glyph glyph-name="r" unicode="r" horiz-adv-x="368" 
d="M318 543q3 0 8.5 -0.5t6.5 -0.5v-126h-22q-86 0 -123 -56v-360h-130v380l-9 150h115l11 -64q53 77 143 77z" />
    <glyph glyph-name="s" unicode="s" horiz-adv-x="526" 
d="M263 88q45 0 68 18t23 48q0 34 -22 48.5t-79 19.5q-110 9 -157 42.5t-47 103.5v8q0 82 58.5 124.5t155.5 42.5q215 0 215 -181v-5h-127q0 85 -88 85q-41 0 -63.5 -17t-22.5 -46q0 -31 20.5 -45.5t76.5 -18.5q108 -9 159 -41t51 -108v-7q0 -80 -56.5 -126t-164.5 -46
q-109 0 -165 49t-56 126v4h129q0 -78 92 -78z" />
    <glyph glyph-name="t" unicode="t" horiz-adv-x="421" 
d="M234 530h147v-114h-147v-229q0 -50 21 -68t65 -18q37 0 51 7v-108q-26 -13 -82 -13q-185 0 -185 186v243h-81v114h81v150h130v-150z" />
    <glyph glyph-name="u" unicode="u" horiz-adv-x="563" 
d="M52 530h129v-342q0 -87 85 -87q72 0 110 60v369h130v-380l8 -150h-115l-12 70q-57 -83 -172 -83q-82 0 -122.5 51t-40.5 130v362z" />
    <glyph glyph-name="v" unicode="v" horiz-adv-x="538" 
d="M179 0l-165 530h136l119 -422l119 422h135l-164 -530h-180z" />
    <glyph glyph-name="w" unicode="w" horiz-adv-x="750" 
d="M375 393l-89 -393h-165l-98 530h127l57 -390l90 390h156l90 -390l57 390h128l-99 -530h-165z" />
    <glyph glyph-name="x" unicode="x" horiz-adv-x="535" 
d="M19 530h151l98 -191l97 191h151l-144 -259l144 -271h-148l-101 204l-100 -204h-148l144 271z" />
    <glyph glyph-name="y" unicode="y" horiz-adv-x="530" 
d="M268 162l117 368h140l-187 -504l-70 -226h-154l84 226l-187 504h141z" />
    <glyph glyph-name="z" unicode="z" horiz-adv-x="489" 
d="M28 89l253 330l-113 -3h-130v114h413v-89l-253 -330l113 3h150v-114h-433v89z" />
    <glyph glyph-name="braceleft" unicode="{" horiz-adv-x="350" 
d="M315 840v-115q-42 0 -62 -21t-20 -70v-162q0 -80 -59 -112q59 -33 59 -112v-162q0 -49 20 -70t62 -21v-115h-25q-188 0 -188 166v180q-1 42 -20 59t-58 17v116q41 0 59.5 18.5t18.5 64.5v173q0 166 188 166h25z" />
    <glyph glyph-name="bar" unicode="|" horiz-adv-x="243" 
d="M57 -120v960h128v-960h-128z" />
    <glyph glyph-name="braceright" unicode="}" horiz-adv-x="350" 
d="M36 -120v115q41 0 61 21t20 70v162q0 79 58 112q-58 31 -58 112v162q0 49 -20 70t-61 21v115h24q188 0 188 -166v-180q1 -42 19.5 -59t58.5 -17v-116q-39 0 -58 -17t-20 -59v-180q0 -166 -188 -166h-24z" />
    <glyph glyph-name="asciitilde" unicode="~" horiz-adv-x="600" 
d="M182 473q55 0 126 -34t106 -34q49 0 92 51l63 -64q-59 -89 -151 -89q-55 0 -126 34t-106 34q-49 0 -92 -51l-63 64q59 89 151 89z" />
    <glyph glyph-name="nbspace" unicode="&#xa0;" horiz-adv-x="200" 
 />
    <glyph glyph-name="exclamdown" unicode="&#xa1;" horiz-adv-x="250" 
d="M206 -200h-162l36 514h90zM54 389v141h142v-141h-142z" />
    <glyph glyph-name="cent" unicode="&#xa2;" horiz-adv-x="600" 
d="M454 840l-31 -128q131 -48 131 -215v-27h-130q0 80 -31 114l-100 -417h21q110 0 110 124h130v-16q0 -108 -61.5 -165.5t-183.5 -57.5q-15 0 -43 2l-27 -114h-102l34 143q-125 68 -125 290v34q0 323 263 323h16l27 110h102zM180 373q0 -99 25 -146l93 386
q-62 -4 -90 -55.5t-28 -150.5v-34z" />
    <glyph glyph-name="sterling" unicode="&#xa3;" horiz-adv-x="600" 
d="M324 677q-92 0 -92 -107q0 -53 23 -141h183v-115h-152q28 -113 33 -198h234v-116h-506v116h157q-9 79 -49 198h-108v115h73q-20 78 -20 152q0 92 54 152t170 60q123 0 176.5 -70t53.5 -207v-16h-131q0 177 -99 177z" />
    <glyph glyph-name="yen" unicode="&#xa5;" horiz-adv-x="600" 
d="M42 365v115h99l-131 300h147l143 -368l143 368h147l-131 -300h99v-115h-149l-37 -85h186v-115h-191v-165h-134v165h-191v115h186l-37 85h-149z" />
    <glyph glyph-name="brokenbar" unicode="&#xa6;" horiz-adv-x="243" 
d="M57 387v453h128v-453h-128zM57 -120v453h128v-453h-128z" />
    <glyph glyph-name="section" unicode="&#xa7;" horiz-adv-x="538" 
d="M503 392q0 -89 -75 -127q42 -38 42 -103v-8q0 -82 -58.5 -124.5t-155.5 -42.5q-215 0 -215 182v4h127q0 -85 88 -85q41 0 63.5 17t22.5 46q0 32 -21 49t-76 21q-107 9 -159 44t-52 115v8q0 88 75 126q-42 38 -42 104v8q0 82 58.5 124.5t156.5 42.5q215 0 215 -182v-4
h-128q0 85 -87 85q-41 0 -63.5 -17t-22.5 -46q0 -32 21 -49t76 -21q107 -9 158.5 -44t51.5 -115v-8zM372 390q0 38 -24.5 55.5t-80.5 20.5h-2q-49 0 -74.5 -20.5t-25.5 -55.5q0 -38 24.5 -55.5t81.5 -20.5h2q49 0 74 20.5t25 55.5z" />
    <glyph glyph-name="dieresis" unicode="&#xa8;" horiz-adv-x="500" 
d="M221 763v-141h-142v141h142zM421 763v-141h-142v141h142z" />
    <glyph glyph-name="copyright" unicode="&#xa9;" horiz-adv-x="920" 
d="M57 390q0 166 118.5 284.5t284.5 118.5t284.5 -118.5t118.5 -284.5t-118.5 -284.5t-284.5 -118.5t-284.5 118.5t-118.5 284.5zM109 390q0 -146 102.5 -248.5t248.5 -102.5t248.5 102.5t102.5 248.5t-102.5 248.5t-248.5 102.5t-248.5 -102.5t-102.5 -248.5zM463 246
q44 0 65 22t21 54h112v-18q0 -68 -51 -115t-150 -47q-108 0 -161 65.5t-53 167.5v30q0 102 53 167.5t161 65.5q99 0 150 -48.5t51 -121.5v-19h-112q0 38 -21 61.5t-65 23.5q-51 0 -74.5 -35.5t-23.5 -93.5v-30q0 -58 23.5 -93.5t74.5 -35.5z" />
    <glyph glyph-name="ordfeminine" unicode="&#xaa;" horiz-adv-x="416" 
d="M285 387l-8 44q-46 -53 -124 -53q-62 0 -92 33t-30 85v7q0 60 36.5 88t105.5 39l93 14q-1 33 -13 47.5t-43 14.5q-56 0 -56 -54h-108v7q0 58 39 96t128 38q92 0 129.5 -38t37.5 -113v-143l7 -112h-102zM385 191h-343v99h343v-99zM193 470q43 0 73 32v75l-71 -11
q-50 -9 -50 -49v-5q0 -42 48 -42z" />
    <glyph glyph-name="guillemotleft" unicode="&#xab;" horiz-adv-x="550" 
d="M263 551v-117l-122 -94l122 -94v-117l-213 149v124zM500 551v-117l-122 -94l122 -94v-117l-212 149v124z" />
    <glyph glyph-name="logicalnot" unicode="&#xac;" horiz-adv-x="600" 
d="M44 452v118h512v-370h-117v252h-395z" />
    <glyph glyph-name="uni00AD" unicode="&#xad;" horiz-adv-x="345" 
d="M40 293v114h265v-114h-265z" />
    <glyph glyph-name="registered" unicode="&#xae;" horiz-adv-x="330" 
d="M17 665q0 61 43.5 104.5t104.5 43.5t104.5 -43.5t43.5 -104.5t-43.5 -104.5t-104.5 -43.5t-104.5 43.5t-43.5 104.5zM41 665q0 -51 36.5 -87.5t87.5 -36.5t87.5 36.5t36.5 87.5t-36.5 87.5t-87.5 36.5t-87.5 -36.5t-36.5 -87.5zM238 690q0 -36 -29 -50l29 -61h-51l-23 56
h-23v-56h-49v172h86q60 0 60 -55v-6zM189 694q0 20 -22 20h-26v-42h26q22 0 22 20v2z" />
    <glyph glyph-name="macron" unicode="&#xaf;" horiz-adv-x="500" 
d="M111 633v115h278v-115h-278z" />
    <glyph glyph-name="degree" unicode="&#xb0;" horiz-adv-x="400" 
d="M277 629v6q0 34 -21.5 54t-53.5 20h-4q-32 0 -53.5 -20t-21.5 -54v-6q0 -34 21.5 -54t53.5 -20h4q32 0 53.5 20t21.5 54zM359 634v-4q0 -72 -44.5 -115t-114.5 -43t-114.5 43t-44.5 115v4q0 72 44.5 115.5t114.5 43.5t114.5 -43.5t44.5 -115.5z" />
    <glyph glyph-name="plusminus" unicode="&#xb1;" horiz-adv-x="600" 
d="M241 665h118v-117h197v-118h-197v-117h-118v117h-197v118h197v117zM44 144v117h512v-117h-512z" />
    <glyph glyph-name="twosuperior" unicode="&#xb2;" 
d="M281 476v-86h-262v63l142 159q20 22 20 41v5q0 42 -29 42h-5q-28 0 -28 -50h-100v9q0 128 131 128q69 0 100 -33.5t31 -76.5v-11q0 -33 -10 -54t-33 -47l-81 -89h124z" />
    <glyph glyph-name="threesuperior" unicode="&#xb3;" 
d="M116 515q0 -46 31 -46h5q14 0 23 10t9 29v5q0 32 -32 32h-52v88h51q30 0 30 32v6q0 13 -8.5 21t-20.5 8h-5q-28 0 -28 -50h-100v9q0 128 131 128q69 0 100 -33t31 -72v-10q0 -54 -41 -83q43 -29 43 -83v-10q0 -41 -32 -77.5t-101 -36.5q-66 0 -100 32t-34 93v8h100z" />
    <glyph glyph-name="acute" unicode="&#xb4;" horiz-adv-x="500" 
d="M276 780h142l-103 -179h-130z" />
    <glyph glyph-name="paragraph" unicode="&#xb6;" horiz-adv-x="538" 
d="M236 0v293q-209 21 -209 233v20q0 234 261 234h192v-780h-134v663h-46v-663h-64zM163 530q0 -95 73 -116v242q-73 -21 -73 -115v-11z" />
    <glyph glyph-name="periodcentered" unicode="&#xb7;" horiz-adv-x="250" 
d="M196 421v-142h-142v142h142z" />
    <glyph glyph-name="cedilla" unicode="&#xb8;" horiz-adv-x="602" 
d="M150 -190l20 59q27 -16 71 -16q51 0 51 25t-53 25l-34 -4l-17 26l29 75h66l-17 -45q43 -2 71.5 -23t28.5 -61q0 -85 -114 -85q-67 0 -102 24z" />
    <glyph glyph-name="onesuperior" unicode="&#xb9;" 
d="M287 390h-257v86h79v182l-48 -32l-50 71l122 82h76v-303h78v-86z" />
    <glyph glyph-name="ordmasculine" unicode="&#xba;" horiz-adv-x="435" 
d="M401 572q0 -89 -46 -141.5t-137 -52.5q-92 0 -138 52.5t-46 141.5v27q0 89 46 141.5t138 52.5q91 0 137 -52.5t46 -141.5v-27zM43 191v99h350v-99h-350zM148 572q0 -96 70 -96q69 0 69 96v27q0 95 -69 95q-70 0 -70 -95v-27z" />
    <glyph glyph-name="guillemotright" unicode="&#xbb;" horiz-adv-x="550" 
d="M50 434v117l213 -149v-124l-213 -149v117l122 94zM288 434v117l212 -149v-124l-212 -149v117l121 94z" />
    <glyph glyph-name="onequarter" unicode="&#xbc;" horiz-adv-x="800" 
d="M164 0h-104l576 780h104zM755 0h-100v76h-143v71l149 243h94v-226h32v-88h-32v-76zM287 390h-257v86h79v182l-48 -32l-50 71l122 82h76v-303h78v-86zM656 232l-43 -70l18 2h24v50z" />
    <glyph glyph-name="onehalf" unicode="&#xbd;" horiz-adv-x="800" 
d="M164 0h-104l576 780h104zM781 86v-86h-262v63l142 159q20 22 20 41v5q0 42 -29 42h-5q-28 0 -28 -50h-100v9q0 128 131 128q69 0 100 -33.5t31 -76.5v-11q0 -33 -10 -54t-33 -47l-81 -89h124zM287 390h-257v86h79v182l-48 -32l-50 71l122 82h76v-303h78v-86z" />
    <glyph glyph-name="threequarters" unicode="&#xbe;" horiz-adv-x="800" 
d="M164 0h-104l576 780h104zM116 515q0 -46 31 -46h5q14 0 23 10t9 29v5q0 32 -32 32h-52v88h51q30 0 30 32v6q0 13 -8.5 21t-20.5 8h-5q-28 0 -28 -50h-100v9q0 128 131 128q69 0 100 -33t31 -72v-10q0 -54 -41 -83q43 -29 43 -83v-10q0 -41 -32 -77.5t-101 -36.5
q-66 0 -100 32t-34 93v8h100zM755 0h-100v76h-143v71l149 243h94v-226h32v-88h-32v-76zM656 232l-43 -70l18 2h24v50z" />
    <glyph glyph-name="questiondown" unicode="&#xbf;" horiz-adv-x="484" 
d="M238 -97q51 0 71 37t20 120h132v-16q0 -126 -51 -191.5t-172 -65.5q-113 0 -165 52.5t-52 133.5q0 54 17.5 94t42.5 65t51 48t45.5 56.5t22.5 77.5h90q4 -54 -16.5 -105t-47 -83t-49.5 -71t-23 -71q0 -81 84 -81zM174 389v141h142v-141h-142z" />
    <glyph glyph-name="Agrave" unicode="&#xc0;" horiz-adv-x="631" 
d="M223 784h185l205 -784h-144l-43 178h-220l-43 -178h-145zM316 631l-82 -336h163zM188 950h137l56 -110h-130z" />
    <glyph glyph-name="Aacute" unicode="&#xc1;" horiz-adv-x="631" 
d="M223 784h185l205 -784h-144l-43 178h-220l-43 -178h-145zM316 631l-82 -336h163zM307 950h137l-63 -110h-130z" />
    <glyph glyph-name="Acircumflex" unicode="&#xc2;" horiz-adv-x="631" 
d="M223 784h185l205 -784h-144l-43 178h-220l-43 -178h-145zM316 631l-82 -336h163zM252 840h-120l119 110h130l119 -110h-120l-64 50z" />
    <glyph glyph-name="Atilde" unicode="&#xc3;" horiz-adv-x="631" 
d="M223 784h185l205 -784h-144l-43 178h-220l-43 -178h-145zM417 943h73q0 -57 -26 -83.5t-69 -26.5q-35 0 -82 25t-63 25q-35 0 -35 -36h-73q0 57 26 83.5t69 26.5q35 0 82 -25t63 -25q35 0 35 36zM316 631l-82 -336h163z" />
    <glyph glyph-name="Adieresis" unicode="&#xc4;" horiz-adv-x="631" 
d="M223 784h185l205 -784h-144l-43 178h-220l-43 -178h-145zM316 631l-82 -336h163zM290 941v-92h-117v92h117zM459 941v-92h-117v92h117z" />
    <glyph glyph-name="Aring" unicode="&#xc5;" horiz-adv-x="631" 
d="M214 861q0 42 30 72t72 30t72 -30t30 -72q0 -48 -36 -77h26l205 -784h-144l-43 178h-220l-43 -178h-145l205 784h26q-35 30 -35 77zM316 631l-82 -336h163zM264 861q0 -22 15 -37.5t37 -15.5t37 15.5t15 37.5q0 21 -15 36.5t-37 15.5t-37 -15.5t-15 -36.5z" />
    <glyph glyph-name="AE" unicode="&#xc6;" horiz-adv-x="870" 
d="M289 780h541v-117h-340l29 -207h261v-116h-245l31 -223h264v-117h-390l-22 182h-202l-61 -182h-144zM365 628l-110 -330h149z" />
    <glyph glyph-name="Ccedilla" unicode="&#xc7;" horiz-adv-x="640" 
d="M237 -190l20 59q27 -16 71 -16q51 0 51 25t-53 25l-34 -4l-17 26l24 63q-131 8 -193 99.5t-62 282.5v40q0 201 69 292t216 91q136 0 202.5 -65.5t66.5 -206.5v-34h-135q0 97 -28.5 143t-97.5 46h-9q-81 0 -114 -64.5t-33 -201.5v-40q0 -137 33 -201.5t114 -64.5h9
q126 0 126 159h135v-10q0 -127 -58 -191.5t-175 -72.5l-12 -34q43 -2 71.5 -23t28.5 -61q0 -85 -114 -85q-67 0 -102 24z" />
    <glyph glyph-name="Egrave" unicode="&#xc8;" horiz-adv-x="565" 
d="M61 780h464v-117h-330v-207h280v-116h-280v-223h330v-117h-464v780zM169 950h137l56 -110h-130z" />
    <glyph glyph-name="Eacute" unicode="&#xc9;" horiz-adv-x="565" 
d="M61 780h464v-117h-330v-207h280v-116h-280v-223h330v-117h-464v780zM288 950h137l-63 -110h-130z" />
    <glyph glyph-name="Ecircumflex" unicode="&#xca;" horiz-adv-x="565" 
d="M61 780h464v-117h-330v-207h280v-116h-280v-223h330v-117h-464v780zM233 840h-120l119 110h130l119 -110h-120l-64 50z" />
    <glyph glyph-name="Edieresis" unicode="&#xcb;" horiz-adv-x="565" 
d="M61 780h464v-117h-330v-207h280v-116h-280v-223h330v-117h-464v780zM271 941v-92h-117v92h117zM440 941v-92h-117v92h117z" />
    <glyph glyph-name="Igrave" unicode="&#xcc;" horiz-adv-x="266" 
d="M200 780v-780h-134v780h134zM5 950h137l56 -110h-130z" />
    <glyph glyph-name="Iacute" unicode="&#xcd;" horiz-adv-x="266" 
d="M200 780v-780h-134v780h134zM124 950h137l-63 -110h-130z" />
    <glyph glyph-name="Icircumflex" unicode="&#xce;" horiz-adv-x="266" 
d="M200 780v-780h-134v780h134zM69 840h-120l119 110h130l119 -110h-120l-64 50z" />
    <glyph glyph-name="Idieresis" unicode="&#xcf;" horiz-adv-x="266" 
d="M200 780v-780h-134v780h134zM276 941v-92h-117v92h117zM107 941v-92h-117v92h117z" />
    <glyph glyph-name="Eth" unicode="&#xd0;" horiz-adv-x="715" 
d="M14 348v102h107v330h230q167 0 243.5 -85.5t76.5 -284.5v-40q0 -199 -76.5 -284.5t-243.5 -85.5h-230v348h-107zM255 663v-213h180v-102h-180v-231h88q103 0 147 59.5t44 193.5v40q0 134 -44 193.5t-147 59.5h-88z" />
    <glyph glyph-name="Ntilde" unicode="&#xd1;" horiz-adv-x="675" 
d="M614 780v-780h-142l-288 538l4 -165v-373h-127v780h142l288 -538l-4 165v373h127zM439 943h73q0 -57 -26 -83.5t-69 -26.5q-35 0 -82 25t-63 25q-35 0 -35 -36h-73q0 57 26 83.5t69 26.5q35 0 82 -25t63 -25q35 0 35 36z" />
    <glyph glyph-name="Ograve" unicode="&#xd2;" horiz-adv-x="665" 
d="M333 -13q-148 0 -218.5 91t-70.5 292v40q0 201 70.5 292t218.5 91t218 -91.5t70 -291.5v-40q0 -200 -70 -291.5t-218 -91.5zM328 104h9q80 0 113.5 65t33.5 201v40q0 136 -33.5 201t-113.5 65h-9q-80 0 -113.5 -65t-33.5 -201v-40q0 -136 33.5 -201t113.5 -65zM205 950
h137l56 -110h-130z" />
    <glyph glyph-name="Oacute" unicode="&#xd3;" horiz-adv-x="665" 
d="M333 -13q-148 0 -218.5 91t-70.5 292v40q0 201 70.5 292t218.5 91t218 -91.5t70 -291.5v-40q0 -200 -70 -291.5t-218 -91.5zM328 104h9q80 0 113.5 65t33.5 201v40q0 136 -33.5 201t-113.5 65h-9q-80 0 -113.5 -65t-33.5 -201v-40q0 -136 33.5 -201t113.5 -65zM324 950
h137l-63 -110h-130z" />
    <glyph glyph-name="Ocircumflex" unicode="&#xd4;" horiz-adv-x="665" 
d="M333 -13q-148 0 -218.5 91t-70.5 292v40q0 201 70.5 292t218.5 91t218 -91.5t70 -291.5v-40q0 -200 -70 -291.5t-218 -91.5zM328 104h9q80 0 113.5 65t33.5 201v40q0 136 -33.5 201t-113.5 65h-9q-80 0 -113.5 -65t-33.5 -201v-40q0 -136 33.5 -201t113.5 -65zM269 840
h-120l119 110h130l119 -110h-120l-64 50z" />
    <glyph glyph-name="Otilde" unicode="&#xd5;" horiz-adv-x="665" 
d="M333 -13q-148 0 -218.5 91t-70.5 292v40q0 201 70.5 292t218.5 91t218 -91.5t70 -291.5v-40q0 -200 -70 -291.5t-218 -91.5zM328 104h9q80 0 113.5 65t33.5 201v40q0 136 -33.5 201t-113.5 65h-9q-80 0 -113.5 -65t-33.5 -201v-40q0 -136 33.5 -201t113.5 -65zM434 943
h73q0 -57 -26 -83.5t-69 -26.5q-35 0 -82 25t-63 25q-35 0 -35 -36h-73q0 57 26 83.5t69 26.5q35 0 82 -25t63 -25q35 0 35 36z" />
    <glyph glyph-name="Odieresis" unicode="&#xd6;" horiz-adv-x="665" 
d="M333 -13q-148 0 -218.5 91t-70.5 292v40q0 201 70.5 292t218.5 91t218 -91.5t70 -291.5v-40q0 -200 -70 -291.5t-218 -91.5zM328 104h9q80 0 113.5 65t33.5 201v40q0 136 -33.5 201t-113.5 65h-9q-80 0 -113.5 -65t-33.5 -201v-40q0 -136 33.5 -201t113.5 -65zM307 941
v-92h-117v92h117zM476 941v-92h-117v92h117z" />
    <glyph glyph-name="multiply" unicode="&#xd7;" horiz-adv-x="600" 
d="M115 121l-84 84l185 185l-185 185l84 84l185 -185l185 185l84 -84l-185 -185l185 -185l-84 -84l-185 185z" />
    <glyph glyph-name="Oslash" unicode="&#xd8;" horiz-adv-x="660" 
d="M44 410q0 201 70.5 292t218.5 91q111 0 177 -50l23 37h85l-58 -92q61 -92 61 -278v-40q0 -200 -70 -291.5t-218 -91.5q-115 0 -181 52l-24 -39h-85l59 95q-58 92 -58 275v40zM484 410q0 81 -12 138l-248 -395q34 -49 104 -49h9q80 0 113.5 65t33.5 201v40zM181 370
q0 -80 10 -133l247 392q-35 47 -101 47h-9q-80 0 -113.5 -65t-33.5 -201v-40z" />
    <glyph glyph-name="Ugrave" unicode="&#xd9;" horiz-adv-x="655" 
d="M328 -13q-146 0 -209 62t-63 196v535h134v-530q0 -78 31.5 -112t106.5 -34q74 0 105.5 34t31.5 112v530h134v-535q0 -134 -63 -196t-208 -62zM200 950h137l56 -110h-130z" />
    <glyph glyph-name="Uacute" unicode="&#xda;" horiz-adv-x="655" 
d="M328 -13q-146 0 -209 62t-63 196v535h134v-530q0 -78 31.5 -112t106.5 -34q74 0 105.5 34t31.5 112v530h134v-535q0 -134 -63 -196t-208 -62zM319 950h137l-63 -110h-130z" />
    <glyph glyph-name="Ucircumflex" unicode="&#xdb;" horiz-adv-x="655" 
d="M328 -13q-146 0 -209 62t-63 196v535h134v-530q0 -78 31.5 -112t106.5 -34q74 0 105.5 34t31.5 112v530h134v-535q0 -134 -63 -196t-208 -62zM264 840h-120l119 110h130l119 -110h-120l-64 50z" />
    <glyph glyph-name="Udieresis" unicode="&#xdc;" horiz-adv-x="655" 
d="M328 -13q-146 0 -209 62t-63 196v535h134v-530q0 -78 31.5 -112t106.5 -34q74 0 105.5 34t31.5 112v530h134v-535q0 -134 -63 -196t-208 -62zM302 941v-92h-117v92h117zM471 941v-92h-117v92h117z" />
    <glyph glyph-name="Yacute" unicode="&#xdd;" horiz-adv-x="610" 
d="M372 238v-238h-134v238l-226 542h146l147 -377l147 377h146zM296 950h137l-63 -110h-130z" />
    <glyph glyph-name="Thorn" unicode="&#xde;" horiz-adv-x="598" 
d="M195 780v-146h110q261 0 261 -234v-20q0 -234 -261 -234h-110v-146h-134v780h134zM195 263h115q120 0 120 122v10q0 122 -120 122h-115v-254z" />
    <glyph glyph-name="germandbls" unicode="&#xdf;" horiz-adv-x="613" 
d="M278 346v82q116 64 116 157q0 114 -105 114q-53 0 -79 -30.5t-26 -77.5v-591h-130v598q0 98 57 156.5t178 58.5q116 0 175.5 -60.5t59.5 -153.5v-9q0 -63 -27 -108.5t-83 -84.5l32 -21q73 -48 108.5 -97.5t35.5 -108.5v-7q0 -76 -45 -126t-150 -50q-94 0 -130 45t-36 127
v7h114q0 -78 55 -78q38 0 50 19.5t12 54.5q0 63 -95 124z" />
    <glyph glyph-name="agrave" unicode="&#xe0;" horiz-adv-x="538" 
d="M377 0l-10 61q-64 -74 -173 -74q-80 0 -120 44t-40 112v10q0 80 48.5 116.5t136.5 49.5l135 21v2q0 52 -19.5 76t-68.5 24q-88 0 -88 -87h-124v9q0 77 49.5 128t165.5 51q118 0 166.5 -51t48.5 -150v-192l8 -150h-115zM239 94q74 0 115 55v112l-111 -18q-79 -13 -79 -76
v-8q0 -27 19 -46t56 -19zM101 780h142l91 -179h-130z" />
    <glyph glyph-name="aacute" unicode="&#xe1;" horiz-adv-x="538" 
d="M377 0l-10 61q-64 -74 -173 -74q-80 0 -120 44t-40 112v10q0 80 48.5 116.5t136.5 49.5l135 21v2q0 52 -19.5 76t-68.5 24q-88 0 -88 -87h-124v9q0 77 49.5 128t165.5 51q118 0 166.5 -51t48.5 -150v-192l8 -150h-115zM239 94q74 0 115 55v112l-111 -18q-79 -13 -79 -76
v-8q0 -27 19 -46t56 -19zM295 780h142l-103 -179h-130z" />
    <glyph glyph-name="acircumflex" unicode="&#xe2;" horiz-adv-x="538" 
d="M377 0l-10 61q-64 -74 -173 -74q-80 0 -120 44t-40 112v10q0 80 48.5 116.5t136.5 49.5l135 21v2q0 52 -19.5 76t-68.5 24q-88 0 -88 -87h-124v9q0 77 49.5 128t165.5 51q118 0 166.5 -51t48.5 -150v-192l8 -150h-115zM191 601h-117l133 179h124l133 -179h-117l-78 92z
M239 94q74 0 115 55v112l-111 -18q-79 -13 -79 -76v-8q0 -27 19 -46t56 -19z" />
    <glyph glyph-name="atilde" unicode="&#xe3;" horiz-adv-x="538" 
d="M377 0l-10 61q-64 -74 -173 -74q-80 0 -120 44t-40 112v10q0 80 48.5 116.5t136.5 49.5l135 21v2q0 52 -19.5 76t-68.5 24q-88 0 -88 -87h-124v9q0 77 49.5 128t165.5 51q118 0 166.5 -51t48.5 -150v-192l8 -150h-115zM367 764h89q0 -72 -28 -107t-73 -35
q-35 0 -84.5 26.5t-66.5 26.5q-33 0 -33 -39h-89q0 72 28 107t73 35q35 0 84.5 -26.5t66.5 -26.5q33 0 33 39zM239 94q74 0 115 55v112l-111 -18q-79 -13 -79 -76v-8q0 -27 19 -46t56 -19z" />
    <glyph glyph-name="adieresis" unicode="&#xe4;" horiz-adv-x="538" 
d="M377 0l-10 61q-64 -74 -173 -74q-80 0 -120 44t-40 112v10q0 80 48.5 116.5t136.5 49.5l135 21v2q0 52 -19.5 76t-68.5 24q-88 0 -88 -87h-124v9q0 77 49.5 128t165.5 51q118 0 166.5 -51t48.5 -150v-192l8 -150h-115zM239 94q74 0 115 55v112l-111 -18q-79 -13 -79 -76
v-8q0 -27 19 -46t56 -19zM240 763v-141h-142v141h142zM440 763v-141h-142v141h142z" />
    <glyph glyph-name="aring" unicode="&#xe5;" horiz-adv-x="538" 
d="M377 0l-10 61q-64 -74 -173 -74q-80 0 -120 44t-40 112v10q0 80 48.5 116.5t136.5 49.5l135 21v2q0 52 -19.5 76t-68.5 24q-88 0 -88 -87h-124v9q0 77 49.5 128t165.5 51q118 0 166.5 -51t48.5 -150v-192l8 -150h-115zM167 691q0 42 30 72t72 30t72 -30t30 -72
q0 -43 -30 -72.5t-72 -29.5t-72 29.5t-30 72.5zM239 94q74 0 115 55v112l-111 -18q-79 -13 -79 -76v-8q0 -27 19 -46t56 -19zM217 691q0 -22 15 -37.5t37 -15.5t37 15.5t15 37.5q0 21 -15 36.5t-37 15.5t-37 -15.5t-15 -36.5z" />
    <glyph glyph-name="ae" unicode="&#xe6;" horiz-adv-x="863" 
d="M834 217h-350q7 -129 119 -129q50 0 79 24.5t29 57.5h123v-4q0 -75 -61.5 -127t-170.5 -52q-129 0 -193 82q-84 -82 -206 -82q-84 0 -126.5 44t-42.5 112v10q0 80 49.5 116.5t137.5 49.5l133 21v2q0 52 -19.5 76t-68.5 24q-88 0 -88 -87h-124v9q0 77 49.5 128t165.5 51
q122 0 165 -69q58 69 162 69q118 0 178 -73t60 -192v-61zM360 155l5 4q-11 44 -11 93v6l-110 -18q-80 -15 -80 -76v-8q0 -27 19 -46t56 -19q46 0 76.5 20.5t44.5 43.5zM594 442q-102 0 -110 -129h219q-6 129 -109 129z" />
    <glyph glyph-name="ccedilla" unicode="&#xe7;" horiz-adv-x="525" 
d="M173 -190l20 59q27 -16 71 -16q51 0 51 25t-53 25l-34 -4l-17 26l24 64q-100 11 -149.5 80.5t-49.5 179.5v32q0 120 58.5 191t175.5 71q108 0 164 -54t56 -139v-22h-123q0 48 -23.5 75t-70.5 27q-107 0 -107 -149v-32q0 -148 107 -148q47 0 70.5 25.5t23.5 66.5h123v-21
q0 -74 -48 -124.5t-141 -58.5l-12 -34q43 -2 71.5 -23t28.5 -61q0 -85 -114 -85q-67 0 -102 24z" />
    <glyph glyph-name="egrave" unicode="&#xe8;" horiz-adv-x="553" 
d="M516 217h-350q7 -129 119 -129q50 0 79 24.5t29 57.5h123v-4q0 -75 -61.5 -127t-170.5 -52q-123 0 -185.5 73t-62.5 192v26q0 119 62 192t181 73q117 0 177 -73t60 -192v-61zM111 780h142l91 -179h-130zM276 442q-102 0 -110 -129h219q-6 129 -109 129z" />
    <glyph glyph-name="eacute" unicode="&#xe9;" horiz-adv-x="553" 
d="M516 217h-350q7 -129 119 -129q50 0 79 24.5t29 57.5h123v-4q0 -75 -61.5 -127t-170.5 -52q-123 0 -185.5 73t-62.5 192v26q0 119 62 192t181 73q117 0 177 -73t60 -192v-61zM305 780h142l-103 -179h-130zM276 442q-102 0 -110 -129h219q-6 129 -109 129z" />
    <glyph glyph-name="ecircumflex" unicode="&#xea;" horiz-adv-x="553" 
d="M516 217h-350q7 -129 119 -129q50 0 79 24.5t29 57.5h123v-4q0 -75 -61.5 -127t-170.5 -52q-123 0 -185.5 73t-62.5 192v26q0 119 62 192t181 73q117 0 177 -73t60 -192v-61zM201 601h-117l133 179h124l133 -179h-117l-78 92zM276 442q-102 0 -110 -129h219
q-6 129 -109 129z" />
    <glyph glyph-name="edieresis" unicode="&#xeb;" horiz-adv-x="553" 
d="M516 217h-350q7 -129 119 -129q50 0 79 24.5t29 57.5h123v-4q0 -75 -61.5 -127t-170.5 -52q-123 0 -185.5 73t-62.5 192v26q0 119 62 192t181 73q117 0 177 -73t60 -192v-61zM276 442q-102 0 -110 -129h219q-6 129 -109 129zM450 763v-141h-142v141h142zM250 763v-141
h-142v141h142z" />
    <glyph glyph-name="igrave" unicode="&#xec;" horiz-adv-x="250" 
d="M60 0v530h130v-530h-130zM-43 780h142l91 -179h-130z" />
    <glyph glyph-name="iacute" unicode="&#xed;" horiz-adv-x="250" 
d="M60 0v530h130v-530h-130zM151 780h142l-103 -179h-130z" />
    <glyph glyph-name="icircumflex" unicode="&#xee;" horiz-adv-x="250" 
d="M60 0v530h130v-530h-130zM47 601h-117l133 179h124l133 -179h-117l-78 92z" />
    <glyph glyph-name="idieresis" unicode="&#xef;" horiz-adv-x="250" 
d="M60 0v530h130v-530h-130zM96 763v-141h-142v141h142zM296 763v-141h-142v141h142z" />
    <glyph glyph-name="eth" unicode="&#xf0;" horiz-adv-x="553" 
d="M36 696v117q164 -12 264 -67l120 67v-79l-57 -32q20 -17 44 -45q109 -133 109 -376v-32q0 -119 -60 -190.5t-180 -71.5t-180 71.5t-60 190.5v32q0 118 57 190t165 72q48 0 88 -17q-15 29 -40 57t-63 51l-175 -98v79l97 55q-53 18 -129 26zM276 101q110 0 110 148v32
q0 149 -110 149t-110 -149v-32q0 -148 110 -148z" />
    <glyph glyph-name="ntilde" unicode="&#xf1;" horiz-adv-x="563" 
d="M511 0h-129v342q0 40 -21 64t-63 24q-73 0 -110 -61v-369h-130v380l-9 150h115l12 -70q57 83 172 83q82 0 122.5 -51t40.5 -129v-363zM383 764h89q0 -72 -28 -107t-73 -35q-35 0 -84.5 26.5t-66.5 26.5q-33 0 -33 -39h-89q0 72 28 107t73 35q35 0 84.5 -26.5t66.5 -26.5
q33 0 33 39z" />
    <glyph glyph-name="ograve" unicode="&#xf2;" horiz-adv-x="553" 
d="M276 -13q-120 0 -180 71.5t-60 190.5v32q0 120 60 191t180 71t180 -71t60 -191v-32q0 -119 -60 -190.5t-180 -71.5zM276 101q110 0 110 148v32q0 149 -110 149t-110 -149v-32q0 -148 110 -148zM108 780h142l91 -179h-130z" />
    <glyph glyph-name="oacute" unicode="&#xf3;" horiz-adv-x="553" 
d="M276 -13q-120 0 -180 71.5t-60 190.5v32q0 120 60 191t180 71t180 -71t60 -191v-32q0 -119 -60 -190.5t-180 -71.5zM276 101q110 0 110 148v32q0 149 -110 149t-110 -149v-32q0 -148 110 -148zM302 780h142l-103 -179h-130z" />
    <glyph glyph-name="ocircumflex" unicode="&#xf4;" horiz-adv-x="553" 
d="M276 -13q-120 0 -180 71.5t-60 190.5v32q0 120 60 191t180 71t180 -71t60 -191v-32q0 -119 -60 -190.5t-180 -71.5zM276 101q110 0 110 148v32q0 149 -110 149t-110 -149v-32q0 -148 110 -148zM198 601h-117l133 179h124l133 -179h-117l-78 92z" />
    <glyph glyph-name="otilde" unicode="&#xf5;" horiz-adv-x="553" 
d="M276 -13q-120 0 -180 71.5t-60 190.5v32q0 120 60 191t180 71t180 -71t60 -191v-32q0 -119 -60 -190.5t-180 -71.5zM276 101q110 0 110 148v32q0 149 -110 149t-110 -149v-32q0 -148 110 -148zM374 764h89q0 -72 -28 -107t-73 -35q-35 0 -84.5 26.5t-66.5 26.5
q-33 0 -33 -39h-89q0 72 28 107t73 35q35 0 84.5 -26.5t66.5 -26.5q33 0 33 39z" />
    <glyph glyph-name="odieresis" unicode="&#xf6;" horiz-adv-x="553" 
d="M276 -13q-120 0 -180 71.5t-60 190.5v32q0 120 60 191t180 71t180 -71t60 -191v-32q0 -119 -60 -190.5t-180 -71.5zM276 101q110 0 110 148v32q0 149 -110 149t-110 -149v-32q0 -148 110 -148zM247 763v-141h-142v141h142zM447 763v-141h-142v141h142z" />
    <glyph glyph-name="divide" unicode="&#xf7;" horiz-adv-x="600" 
d="M44 331v118h512v-118h-512zM371 250v-141h-142v141h142zM371 671v-141h-142v141h142z" />
    <glyph glyph-name="oslash" unicode="&#xf8;" horiz-adv-x="553" 
d="M516 530l-52 -68q52 -68 52 -181v-32q0 -119 -60 -190.5t-180 -71.5q-91 0 -147 41l-21 -28h-72l52 68q-52 68 -52 181v32q0 120 60 191t180 71q88 0 146 -41l22 28h72zM166 249q0 -37 8 -69l173 224q-28 26 -71 26q-110 0 -110 -149v-32zM386 281q0 39 -9 69l-172 -224
q27 -25 71 -25q110 0 110 148v32z" />
    <glyph glyph-name="ugrave" unicode="&#xf9;" horiz-adv-x="563" 
d="M52 530h129v-342q0 -87 85 -87q72 0 110 60v369h130v-380l8 -150h-115l-12 70q-57 -83 -172 -83q-82 0 -122.5 51t-40.5 130v362zM110 780h142l91 -179h-130z" />
    <glyph glyph-name="uacute" unicode="&#xfa;" horiz-adv-x="563" 
d="M52 530h129v-342q0 -87 85 -87q72 0 110 60v369h130v-380l8 -150h-115l-12 70q-57 -83 -172 -83q-82 0 -122.5 51t-40.5 130v362zM304 780h142l-103 -179h-130z" />
    <glyph glyph-name="ucircumflex" unicode="&#xfb;" horiz-adv-x="563" 
d="M52 530h129v-342q0 -87 85 -87q72 0 110 60v369h130v-380l8 -150h-115l-12 70q-57 -83 -172 -83q-82 0 -122.5 51t-40.5 130v362zM200 601h-117l133 179h124l133 -179h-117l-78 92z" />
    <glyph glyph-name="udieresis" unicode="&#xfc;" horiz-adv-x="563" 
d="M52 530h129v-342q0 -87 85 -87q72 0 110 60v369h130v-380l8 -150h-115l-12 70q-57 -83 -172 -83q-82 0 -122.5 51t-40.5 130v362zM449 763v-141h-142v141h142zM249 763v-141h-142v141h142z" />
    <glyph glyph-name="yacute" unicode="&#xfd;" horiz-adv-x="530" 
d="M268 162l117 368h140l-187 -504l-70 -226h-154l84 226l-187 504h141zM294 780h142l-103 -179h-130z" />
    <glyph glyph-name="thorn" unicode="&#xfe;" horiz-adv-x="563" 
d="M56 800h130v-321q51 64 142 64q198 0 198 -262v-32q0 -121 -47.5 -191.5t-150.5 -70.5q-91 0 -142 63v-250h-130v1000zM187 161q38 -60 104 -60q105 0 105 148v32q0 149 -105 149q-65 0 -104 -61v-208z" />
    <glyph glyph-name="ydieresis" unicode="&#xff;" horiz-adv-x="530" 
d="M268 162l117 368h140l-187 -504l-70 -226h-154l84 226l-187 504h141zM439 763v-141h-142v141h142zM239 763v-141h-142v141h142z" />
    <glyph glyph-name="Amacron" unicode="&#x100;" horiz-adv-x="631" 
d="M223 784h185l205 -784h-144l-43 178h-220l-43 -178h-145zM316 631l-82 -336h163zM178 853v84h276v-84h-276z" />
    <glyph glyph-name="amacron" unicode="&#x101;" horiz-adv-x="538" 
d="M377 0l-10 61q-64 -74 -173 -74q-80 0 -120 44t-40 112v10q0 80 48.5 116.5t136.5 49.5l135 21v2q0 52 -19.5 76t-68.5 24q-88 0 -88 -87h-124v9q0 77 49.5 128t165.5 51q118 0 166.5 -51t48.5 -150v-192l8 -150h-115zM130 633v115h278v-115h-278zM239 94q74 0 115 55
v112l-111 -18q-79 -13 -79 -76v-8q0 -27 19 -46t56 -19z" />
    <glyph glyph-name="Abreve" unicode="&#x102;" horiz-adv-x="631" 
d="M223 784h185l205 -784h-144l-43 178h-220l-43 -178h-145zM316 826q-171 0 -171 124h92q0 -49 79 -49t79 49h92q0 -124 -171 -124zM316 631l-82 -336h163z" />
    <glyph glyph-name="abreve" unicode="&#x103;" horiz-adv-x="538" 
d="M377 0l-10 61q-64 -74 -173 -74q-80 0 -120 44t-40 112v10q0 80 48.5 116.5t136.5 49.5l135 21v2q0 52 -19.5 76t-68.5 24q-88 0 -88 -87h-124v9q0 77 49.5 128t165.5 51q118 0 166.5 -51t48.5 -150v-192l8 -150h-115zM269 589q-94 0 -137.5 51t-41.5 140h96
q0 -91 83 -91t83 91h96q2 -89 -41.5 -140t-137.5 -51zM239 94q74 0 115 55v112l-111 -18q-79 -13 -79 -76v-8q0 -27 19 -46t56 -19z" />
    <glyph glyph-name="Aogonek" unicode="&#x104;" horiz-adv-x="631" 
d="M545 -79q0 -18 12.5 -29.5t34.5 -11.5q28 0 48 12l31 -82q-39 -24 -99 -24q-59 0 -93 26.5t-34 78.5q0 49 29 89l-48 198h-220l-43 -178h-145l205 784h185l205 -784q-68 -30 -68 -79zM316 631l-82 -336h163z" />
    <glyph glyph-name="aogonek" unicode="&#x105;" horiz-adv-x="538" 
d="M239 94q74 0 115 55v112l-111 -18q-79 -13 -79 -76v-8q0 -27 19 -46t56 -19zM424 -79q0 -18 12.5 -29.5t34.5 -11.5q28 0 48 12l31 -82q-39 -24 -99 -24q-59 0 -93 26.5t-34 78.5q0 67 52 114l-9 56q-64 -74 -173 -74q-80 0 -120 44t-40 112v10q0 80 48.5 116.5
t136.5 49.5l135 21v2q0 52 -19.5 76t-68.5 24q-88 0 -88 -87h-124v9q0 77 49.5 128t165.5 51q118 0 166.5 -51t48.5 -150v-192l8 -150q-68 -30 -68 -79z" />
    <glyph glyph-name="Cacute" unicode="&#x106;" horiz-adv-x="640" 
d="M181 370q0 -137 33 -201.5t114 -64.5h9q126 0 126 159h135v-10q0 -137 -66.5 -201.5t-202.5 -64.5q-147 0 -216 91t-69 292v40q0 201 69 292t216 91q136 0 202.5 -65.5t66.5 -206.5v-34h-135q0 97 -28.5 143t-97.5 46h-9q-81 0 -114 -64.5t-33 -201.5v-40zM320 950h137
l-63 -110h-130z" />
    <glyph glyph-name="cacute" unicode="&#x107;" horiz-adv-x="525" 
d="M166 249q0 -148 107 -148q47 0 70.5 25.5t23.5 66.5h123v-21q0 -81 -56.5 -133t-163.5 -52q-117 0 -175.5 71.5t-58.5 190.5v32q0 120 58.5 191t175.5 71q108 0 164 -54t56 -139v-22h-123q0 48 -23.5 75t-70.5 27q-107 0 -107 -149v-32zM296 780h142l-103 -179h-130z" />
    <glyph glyph-name="Ccircumflex" unicode="&#x108;" horiz-adv-x="640" 
d="M181 370q0 -137 33 -201.5t114 -64.5h9q126 0 126 159h135v-10q0 -137 -66.5 -201.5t-202.5 -64.5q-147 0 -216 91t-69 292v40q0 201 69 292t216 91q136 0 202.5 -65.5t66.5 -206.5v-34h-135q0 97 -28.5 143t-97.5 46h-9q-81 0 -114 -64.5t-33 -201.5v-40zM265 840h-120
l119 110h130l119 -110h-120l-64 50z" />
    <glyph glyph-name="ccircumflex" unicode="&#x109;" horiz-adv-x="525" 
d="M166 249q0 -148 107 -148q47 0 70.5 25.5t23.5 66.5h123v-21q0 -81 -56.5 -133t-163.5 -52q-117 0 -175.5 71.5t-58.5 190.5v32q0 120 58.5 191t175.5 71q108 0 164 -54t56 -139v-22h-123q0 48 -23.5 75t-70.5 27q-107 0 -107 -149v-32zM192 601h-117l133 179h124
l133 -179h-117l-78 92z" />
    <glyph glyph-name="Cdotaccent" unicode="&#x10a;" horiz-adv-x="640" 
d="M181 370q0 -137 33 -201.5t114 -64.5h9q126 0 126 159h135v-10q0 -137 -66.5 -201.5t-202.5 -64.5q-147 0 -216 91t-69 292v40q0 201 69 292t216 91q136 0 202.5 -65.5t66.5 -206.5v-34h-135q0 97 -28.5 143t-97.5 46h-9q-81 0 -114 -64.5t-33 -201.5v-40zM387 941v-92
h-116v92h116z" />
    <glyph glyph-name="cdotaccent" unicode="&#x10b;" horiz-adv-x="525" 
d="M166 249q0 -148 107 -148q47 0 70.5 25.5t23.5 66.5h123v-21q0 -81 -56.5 -133t-163.5 -52q-117 0 -175.5 71.5t-58.5 190.5v32q0 120 58.5 191t175.5 71q108 0 164 -54t56 -139v-22h-123q0 48 -23.5 75t-70.5 27q-107 0 -107 -149v-32zM341 763v-141h-142v141h142z" />
    <glyph glyph-name="Ccaron" unicode="&#x10c;" horiz-adv-x="640" 
d="M181 370q0 -137 33 -201.5t114 -64.5h9q126 0 126 159h135v-10q0 -137 -66.5 -201.5t-202.5 -64.5q-147 0 -216 91t-69 292v40q0 201 69 292t216 91q136 0 202.5 -65.5t66.5 -206.5v-34h-135q0 97 -28.5 143t-97.5 46h-9q-81 0 -114 -64.5t-33 -201.5v-40zM145 950h120
l64 -51l64 51h120l-119 -110h-130z" />
    <glyph glyph-name="ccaron" unicode="&#x10d;" horiz-adv-x="525" 
d="M166 249q0 -148 107 -148q47 0 70.5 25.5t23.5 66.5h123v-21q0 -81 -56.5 -133t-163.5 -52q-117 0 -175.5 71.5t-58.5 190.5v32q0 120 58.5 191t175.5 71q108 0 164 -54t56 -139v-22h-123q0 48 -23.5 75t-70.5 27q-107 0 -107 -149v-32zM75 780h117l78 -92l78 92h117
l-133 -179h-124z" />
    <glyph glyph-name="Dcaron" unicode="&#x10e;" horiz-adv-x="655" 
d="M611 370q0 -199 -76.5 -284.5t-243.5 -85.5h-230v780h230q167 0 243.5 -85.5t76.5 -284.5v-40zM195 117h88q103 0 147 59.5t44 193.5v40q0 134 -44 193.5t-147 59.5h-88v-546zM123 950h120l64 -51l64 51h120l-119 -110h-130z" />
    <glyph glyph-name="dcaron" unicode="&#x10f;" horiz-adv-x="569" 
d="M241 543q88 0 140 -62v319h130v-650l8 -150h-115l-11 66q-51 -79 -152 -79q-103 0 -151 70.5t-48 191.5v32q0 122 47.5 192t151.5 70zM381 369q-37 61 -104 61q-105 0 -105 -149v-32q0 -148 105 -148q68 0 104 60v208zM572 800h85l-23 -199h-62v199z" />
    <glyph glyph-name="Dcroat" unicode="&#x110;" horiz-adv-x="715" 
d="M14 348v102h107v330h230q167 0 243.5 -85.5t76.5 -284.5v-40q0 -199 -76.5 -284.5t-243.5 -85.5h-230v348h-107zM255 663v-213h180v-102h-180v-231h88q103 0 147 59.5t44 193.5v40q0 134 -44 193.5t-147 59.5h-88z" />
    <glyph glyph-name="dcroat" unicode="&#x111;" horiz-adv-x="569" 
d="M586 713v-96h-75v-467l8 -150h-115l-11 66q-51 -79 -152 -79q-103 0 -151 70.5t-48 191.5v32q0 122 47.5 192t151.5 70q88 0 140 -62v136h-119v96h119v87h130v-87h75zM381 369q-37 61 -104 61q-105 0 -105 -149v-32q0 -148 105 -148q68 0 104 60v208z" />
    <glyph glyph-name="Emacron" unicode="&#x112;" horiz-adv-x="565" 
d="M61 780h464v-117h-330v-207h280v-116h-280v-223h330v-117h-464v780zM159 853v84h276v-84h-276z" />
    <glyph glyph-name="emacron" unicode="&#x113;" horiz-adv-x="553" 
d="M516 217h-350q7 -129 119 -129q50 0 79 24.5t29 57.5h123v-4q0 -75 -61.5 -127t-170.5 -52q-123 0 -185.5 73t-62.5 192v26q0 119 62 192t181 73q117 0 177 -73t60 -192v-61zM140 633v115h278v-115h-278zM276 442q-102 0 -110 -129h219q-6 129 -109 129z" />
    <glyph glyph-name="Ebreve" unicode="&#x114;" horiz-adv-x="565" 
d="M297 826q-171 0 -171 124h92q0 -49 79 -49t79 49h92q0 -124 -171 -124zM61 780h464v-117h-330v-207h280v-116h-280v-223h330v-117h-464v780z" />
    <glyph glyph-name="ebreve" unicode="&#x115;" horiz-adv-x="553" 
d="M516 217h-350q7 -129 119 -129q50 0 79 24.5t29 57.5h123v-4q0 -75 -61.5 -127t-170.5 -52q-123 0 -185.5 73t-62.5 192v26q0 119 62 192t181 73q117 0 177 -73t60 -192v-61zM279 589q-94 0 -137.5 51t-41.5 140h96q0 -91 83 -91t83 91h96q2 -89 -41.5 -140t-137.5 -51z
M276 442q-102 0 -110 -129h219q-6 129 -109 129z" />
    <glyph glyph-name="Edotaccent" unicode="&#x116;" horiz-adv-x="565" 
d="M61 780h464v-117h-330v-207h280v-116h-280v-223h330v-117h-464v780zM355 941v-92h-116v92h116z" />
    <glyph glyph-name="edotaccent" unicode="&#x117;" horiz-adv-x="553" 
d="M516 217h-350q7 -129 119 -129q50 0 79 24.5t29 57.5h123v-4q0 -75 -61.5 -127t-170.5 -52q-123 0 -185.5 73t-62.5 192v26q0 119 62 192t181 73q117 0 177 -73t60 -192v-61zM276 442q-102 0 -110 -129h219q-6 129 -109 129zM350 763v-141h-142v141h142z" />
    <glyph glyph-name="Eogonek" unicode="&#x118;" horiz-adv-x="565" 
d="M61 780h464v-117h-330v-207h280v-116h-280v-223h330v-117q-68 -30 -68 -79q0 -18 12.5 -29.5t34.5 -11.5q28 0 48 12l31 -82q-39 -24 -99 -24q-59 0 -93 26.5t-34 78.5q0 61 46 109h-342v780z" />
    <glyph glyph-name="eogonek" unicode="&#x119;" horiz-adv-x="553" 
d="M516 217h-350q7 -129 119 -129q50 0 79 24.5t29 57.5h123v-4q0 -57 -36 -101.5t-101 -64.5q-32 -10 -50.5 -31t-18.5 -48q0 -18 12.5 -29.5t34.5 -11.5q28 0 48 12l31 -82q-39 -24 -99 -24q-59 0 -93 26.5t-34 78.5q0 55 36 98q-105 11 -157.5 82t-52.5 181v26
q0 119 62 192t181 73q117 0 177 -73t60 -192v-61zM276 442q-102 0 -110 -129h219q-6 129 -109 129z" />
    <glyph glyph-name="Ecaron" unicode="&#x11a;" horiz-adv-x="565" 
d="M61 780h464v-117h-330v-207h280v-116h-280v-223h330v-117h-464v780zM113 950h120l64 -51l64 51h120l-119 -110h-130z" />
    <glyph glyph-name="ecaron" unicode="&#x11b;" horiz-adv-x="553" 
d="M516 217h-350q7 -129 119 -129q50 0 79 24.5t29 57.5h123v-4q0 -75 -61.5 -127t-170.5 -52q-123 0 -185.5 73t-62.5 192v26q0 119 62 192t181 73q117 0 177 -73t60 -192v-61zM84 780h117l78 -92l78 92h117l-133 -179h-124zM276 442q-102 0 -110 -129h219q-6 129 -109 129
z" />
    <glyph glyph-name="Gcircumflex" unicode="&#x11c;" horiz-adv-x="664" 
d="M346 -13q-155 0 -228.5 91t-73.5 292v40q0 200 72 291.5t220 91.5q136 0 204 -66t68 -206v-34h-134q0 97 -29.5 143t-100.5 46h-9q-84 0 -119 -64.5t-35 -201.5v-40q0 -138 36 -202t125 -64h9q75 0 123 39v151h-113v116h247v-332q-103 -91 -262 -91zM272 840h-120
l119 110h130l119 -110h-120l-64 50z" />
    <glyph glyph-name="gcircumflex" unicode="&#x11d;" horiz-adv-x="563" 
d="M376 8v74q-51 -61 -141 -61q-102 0 -150.5 66t-48.5 182v26q0 112 49 180t150 68q103 0 153 -78l11 65h115l-8 -150v-374q0 -219 -233 -219q-120 0 -173.5 53t-53.5 141v19h123q0 -52 23 -79t78 -27q56 0 81 27t25 87zM376 194v175q-39 61 -105 61q-51 0 -78 -36.5
t-27 -98.5v-26q0 -135 105 -135q65 0 105 60zM198 601h-117l133 179h124l133 -179h-117l-78 92z" />
    <glyph glyph-name="Gbreve" unicode="&#x11e;" horiz-adv-x="664" 
d="M346 -13q-155 0 -228.5 91t-73.5 292v40q0 200 72 291.5t220 91.5q136 0 204 -66t68 -206v-34h-134q0 97 -29.5 143t-100.5 46h-9q-84 0 -119 -64.5t-35 -201.5v-40q0 -138 36 -202t125 -64h9q75 0 123 39v151h-113v116h247v-332q-103 -91 -262 -91zM336 826
q-171 0 -171 124h92q0 -49 79 -49t79 49h92q0 -124 -171 -124z" />
    <glyph glyph-name="gbreve" unicode="&#x11f;" horiz-adv-x="563" 
d="M376 8v74q-51 -61 -141 -61q-102 0 -150.5 66t-48.5 182v26q0 112 49 180t150 68q103 0 153 -78l11 65h115l-8 -150v-374q0 -219 -233 -219q-120 0 -173.5 53t-53.5 141v19h123q0 -52 23 -79t78 -27q56 0 81 27t25 87zM376 369q-39 61 -105 61q-51 0 -78 -36.5t-27 -98.5
v-26q0 -135 105 -135q65 0 105 60v175zM276 589q-94 0 -137.5 51t-41.5 140h96q0 -91 83 -91t83 91h96q2 -89 -41.5 -140t-137.5 -51z" />
    <glyph glyph-name="Gdotaccent" unicode="&#x120;" horiz-adv-x="664" 
d="M346 -13q-155 0 -228.5 91t-73.5 292v40q0 200 72 291.5t220 91.5q136 0 204 -66t68 -206v-34h-134q0 97 -29.5 143t-100.5 46h-9q-84 0 -119 -64.5t-35 -201.5v-40q0 -138 36 -202t125 -64h9q75 0 123 39v151h-113v116h247v-332q-103 -91 -262 -91zM394 941v-92h-116v92
h116z" />
    <glyph glyph-name="gdotaccent" unicode="&#x121;" horiz-adv-x="563" 
d="M376 8v74q-51 -61 -141 -61q-102 0 -150.5 66t-48.5 182v26q0 112 49 180t150 68q103 0 153 -78l11 65h115l-8 -150v-374q0 -219 -233 -219q-120 0 -173.5 53t-53.5 141v19h123q0 -52 23 -79t78 -27q56 0 81 27t25 87zM376 369q-39 61 -105 61q-51 0 -78 -36.5t-27 -98.5
v-26q0 -135 105 -135q65 0 105 60v175zM344 763v-141h-142v141h142z" />
    <glyph glyph-name="Gcommaaccent" unicode="&#x122;" horiz-adv-x="664" 
d="M346 -13q-155 0 -228.5 91t-73.5 292v40q0 200 72 291.5t220 91.5q136 0 204 -66t68 -206v-34h-134q0 97 -29.5 143t-100.5 46h-9q-84 0 -119 -64.5t-35 -201.5v-40q0 -138 36 -202t125 -64h9q75 0 123 39v151h-113v116h247v-332q-103 -91 -262 -91zM407 -47v-56
q0 -62 -33 -91t-101 -29v49q66 0 81 41h-69v86h122z" />
    <glyph glyph-name="gcommaaccent" unicode="&#x123;" horiz-adv-x="563" 
d="M376 8v74q-51 -61 -141 -61q-102 0 -150.5 66t-48.5 182v26q0 112 49 180t150 68q103 0 153 -78l11 65h115l-8 -150v-374q0 -219 -233 -219q-120 0 -173.5 53t-53.5 141v19h123q0 -52 23 -79t78 -27q56 0 81 27t25 87zM376 194v175q-39 61 -105 61q-51 0 -78 -36.5
t-27 -98.5v-26q0 -135 105 -135q65 0 105 60zM211 601v62q0 67 32.5 98.5t101.5 31.5v-49q-69 0 -82 -51h71v-92h-123z" />
    <glyph glyph-name="Hcircumflex" unicode="&#x124;" horiz-adv-x="655" 
d="M460 780h134v-780h-134v340h-265v-340h-134v780h134v-324h265v324zM264 840h-120l119 110h130l119 -110h-120l-64 50z" />
    <glyph glyph-name="hcircumflex" unicode="&#x125;" horiz-adv-x="563" 
d="M188 800v-324q57 67 160 67q82 0 122.5 -51t40.5 -129v-363h-129v342q0 40 -21 64t-63 24q-73 0 -110 -61v-369h-130v800h130zM58 840h-120l119 110h130l119 -110h-120l-64 50z" />
    <glyph glyph-name="Hbar" unicode="&#x126;" horiz-adv-x="655" 
d="M460 780h134v-780h-134v340h-265v-340h-134v780h134v-110h265v110zM195 456h265v112h-265v-112z" />
    <glyph glyph-name="hbar" unicode="&#x127;" horiz-adv-x="563" 
d="M188 800v-87h119v-96h-119v-141q57 67 160 67q82 0 122.5 -51t40.5 -129v-363h-129v342q0 40 -21 64t-63 24q-73 0 -110 -61v-369h-130v617h-76v96h76v87h130z" />
    <glyph glyph-name="Itilde" unicode="&#x128;" horiz-adv-x="266" 
d="M200 780v-780h-134v780h134zM234 943h73q0 -57 -26 -83.5t-69 -26.5q-35 0 -82 25t-63 25q-35 0 -35 -36h-73q0 57 26 83.5t69 26.5q35 0 82 -25t63 -25q35 0 35 36z" />
    <glyph glyph-name="itilde" unicode="&#x129;" horiz-adv-x="250" 
d="M60 0v530h130v-530h-130zM223 764h89q0 -72 -28 -107t-73 -35q-35 0 -84.5 26.5t-66.5 26.5q-33 0 -33 -39h-89q0 72 28 107t73 35q35 0 84.5 -26.5t66.5 -26.5q33 0 33 39z" />
    <glyph glyph-name="Imacron" unicode="&#x12a;" horiz-adv-x="266" 
d="M200 780v-780h-134v780h134zM-5 853v84h276v-84h-276z" />
    <glyph glyph-name="imacron" unicode="&#x12b;" horiz-adv-x="250" 
d="M60 0v530h130v-530h-130zM-14 633v115h278v-115h-278z" />
    <glyph glyph-name="Ibreve" unicode="&#x12c;" horiz-adv-x="266" 
d="M200 780v-780h-134v780h134zM133 826q-171 0 -171 124h92q0 -49 79 -49t79 49h92q0 -124 -171 -124z" />
    <glyph glyph-name="ibreve" unicode="&#x12d;" horiz-adv-x="250" 
d="M60 0v530h130v-530h-130zM125 589q-94 0 -137.5 51t-41.5 140h96q0 -91 83 -91t83 91h96q2 -89 -41.5 -140t-137.5 -51z" />
    <glyph glyph-name="Iogonek" unicode="&#x12e;" horiz-adv-x="266" 
d="M132 -79q0 -18 12.5 -29.5t34.5 -11.5q28 0 48 12l31 -82q-39 -24 -99 -24q-59 0 -93 26.5t-34 78.5q0 54 34 96v793h134v-780q-68 -30 -68 -79z" />
    <glyph glyph-name="iogonek" unicode="&#x12f;" horiz-adv-x="250" 
d="M22 -109q0 56 38 101v538h130v-530q-68 -30 -68 -79q0 -18 12.5 -29.5t34.5 -11.5q28 0 48 12l31 -82q-39 -24 -99 -24q-59 0 -93 26.5t-34 78.5zM196 763v-141h-142v141h142z" />
    <glyph glyph-name="Idotaccent" unicode="&#x130;" horiz-adv-x="266" 
d="M200 780v-780h-134v780h134zM191 941v-92h-116v92h116z" />
    <glyph glyph-name="dotlessi" unicode="&#x131;" horiz-adv-x="250" 
d="M60 0v530h130v-530h-130z" />
    <glyph glyph-name="IJ" unicode="&#x132;" horiz-adv-x="573" 
d="M383 196v584h134v-599q0 -194 -181 -194q-64 0 -88 16v111q20 -10 53 -10q42 0 62 20t20 72zM200 780v-780h-134v780h134z" />
    <glyph glyph-name="ij" unicode="&#x133;" horiz-adv-x="450" 
d="M260 -13v543h130v-558q0 -185 -185 -185q-56 0 -82 13v108q19 -8 51 -8q44 0 65 18.5t21 68.5zM60 0v530h130v-530h-130zM196 763v-141h-142v141h142zM396 763v-141h-142v141h142z" />
    <glyph glyph-name="Jcircumflex" unicode="&#x134;" horiz-adv-x="524" 
d="M334 780h134v-541q0 -252 -222 -252q-119 0 -170 63.5t-51 189.5v23h127q0 -83 20.5 -121t70.5 -38q49 0 70 37t21 115v524zM337 840h-120l119 110h130l119 -110h-120l-64 50z" />
    <glyph glyph-name="jcircumflex" unicode="&#x135;" horiz-adv-x="250" 
d="M60 -13v543h130v-557q0 -186 -185 -186q-56 0 -82 13v108q16 -7 51 -7q44 0 65 18t21 68zM47 601h-117l133 179h124l133 -179h-117l-78 92z" />
    <glyph glyph-name="Kcommaaccent" unicode="&#x136;" horiz-adv-x="606" 
d="M195 780v-345l224 345h162l-222 -317l222 -463h-149l-158 342l-79 -112v-230h-134v780h134zM364 -47v-56q0 -62 -33 -91t-101 -29v49q66 0 81 41h-69v86h122z" />
    <glyph glyph-name="kcommaaccent" unicode="&#x137;" horiz-adv-x="543" 
d="M54 0v800h130v-484l181 214h157l-178 -201l178 -329h-151l-116 228l-71 -81v-147h-130zM332 -47v-56q0 -62 -33 -91t-101 -29v49q66 0 81 41h-69v86h122z" />
    <glyph glyph-name="kgreenlandic" unicode="&#x138;" horiz-adv-x="543" 
d="M54 0v530h130v-214l181 214h157l-178 -201l178 -329h-151l-116 228l-71 -81v-147h-130z" />
    <glyph glyph-name="Lacute" unicode="&#x139;" horiz-adv-x="511" 
d="M496 0h-435v780h134v-663h301v-117zM119 950h137l-63 -110h-130z" />
    <glyph glyph-name="lacute" unicode="&#x13a;" horiz-adv-x="250" 
d="M60 0v800h130v-800h-130zM116 950h137l-63 -110h-130z" />
    <glyph glyph-name="Lcommaaccent" unicode="&#x13b;" horiz-adv-x="511" 
d="M496 0h-435v780h134v-663h301v-117zM340 -47v-56q0 -62 -33 -91t-101 -29v49q66 0 81 41h-69v86h122z" />
    <glyph glyph-name="lcommaaccent" unicode="&#x13c;" horiz-adv-x="250" 
d="M60 0v800h130v-800h-130zM186 -47v-56q0 -62 -33 -91t-101 -29v49q66 0 81 41h-69v86h122z" />
    <glyph glyph-name="Lcaron" unicode="&#x13d;" horiz-adv-x="511" 
d="M496 0h-435v780h134v-663h301v-117zM319 800h85l-23 -199h-62v199z" />
    <glyph glyph-name="lcaron" unicode="&#x13e;" horiz-adv-x="250" 
d="M60 0v800h130v-800h-130zM251 800h85l-23 -199h-62v199z" />
    <glyph glyph-name="Ldot" unicode="&#x13f;" horiz-adv-x="511" 
d="M496 0h-435v780h134v-663h301v-117zM452 469v-142h-142v142h142z" />
    <glyph glyph-name="ldot" unicode="&#x140;" horiz-adv-x="406" 
d="M60 0v800h130v-800h-130zM399 421v-142h-142v142h142z" />
    <glyph glyph-name="Lslash" unicode="&#x141;" horiz-adv-x="571" 
d="M14 212v114l107 53v401h134v-334l193 97v-114l-193 -97v-215h301v-117h-435v265z" />
    <glyph glyph-name="lslash" unicode="&#x142;" horiz-adv-x="366" 
d="M26 213v113l90 60v414h130v-327l105 70v-113l-105 -70v-360h-130v273z" />
    <glyph glyph-name="Nacute" unicode="&#x143;" horiz-adv-x="675" 
d="M614 780v-780h-142l-288 538l4 -165v-373h-127v780h142l288 -538l-4 165v373h127zM329 950h137l-63 -110h-130z" />
    <glyph glyph-name="nacute" unicode="&#x144;" horiz-adv-x="563" 
d="M511 0h-129v342q0 40 -21 64t-63 24q-73 0 -110 -61v-369h-130v380l-9 150h115l12 -70q57 83 172 83q82 0 122.5 -51t40.5 -129v-363zM311 780h142l-103 -179h-130z" />
    <glyph glyph-name="Ncommaaccent" unicode="&#x145;" horiz-adv-x="675" 
d="M614 780v-780h-142l-288 538l4 -165v-373h-127v780h142l288 -538l-4 165v373h127zM399 -47v-56q0 -62 -33 -91t-101 -29v49q66 0 81 41h-69v86h122z" />
    <glyph glyph-name="ncommaaccent" unicode="&#x146;" horiz-adv-x="563" 
d="M511 0h-129v342q0 40 -21 64t-63 24q-73 0 -110 -61v-369h-130v380l-9 150h115l12 -70q57 83 172 83q82 0 122.5 -51t40.5 -129v-363zM346 -47v-56q0 -62 -33 -91t-101 -29v49q66 0 81 41h-69v86h122z" />
    <glyph glyph-name="Ncaron" unicode="&#x147;" horiz-adv-x="675" 
d="M614 780v-780h-142l-288 538l4 -165v-373h-127v780h142l288 -538l-4 165v373h127zM154 950h120l64 -51l64 51h120l-119 -110h-130z" />
    <glyph glyph-name="ncaron" unicode="&#x148;" horiz-adv-x="563" 
d="M511 0h-129v342q0 40 -21 64t-63 24q-73 0 -110 -61v-369h-130v380l-9 150h115l12 -70q57 83 172 83q82 0 122.5 -51t40.5 -129v-363zM90 780h117l78 -92l78 92h117l-133 -179h-124z" />
    <glyph glyph-name="Eng" unicode="&#x14a;" horiz-adv-x="675" 
d="M614 780v-807q0 -186 -185 -186q-56 0 -82 13v108q14 -7 51 -7q42 0 63 16t23 60l-300 561l4 -165v-373h-127v780h142l288 -538l-4 165v373h127z" />
    <glyph glyph-name="eng" unicode="&#x14b;" horiz-adv-x="563" 
d="M381 -13v355q0 88 -83 88q-73 0 -110 -61v-369h-130v380l-9 150h115l12 -70q57 83 172 83q82 0 122.5 -51t40.5 -129v-391q0 -185 -185 -185q-53 0 -82 13v108q19 -8 52 -8q43 0 64 18.5t21 68.5z" />
    <glyph glyph-name="Omacron" unicode="&#x14c;" horiz-adv-x="665" 
d="M333 -13q-148 0 -218.5 91t-70.5 292v40q0 201 70.5 292t218.5 91t218 -91.5t70 -291.5v-40q0 -200 -70 -291.5t-218 -91.5zM328 104h9q80 0 113.5 65t33.5 201v40q0 136 -33.5 201t-113.5 65h-9q-80 0 -113.5 -65t-33.5 -201v-40q0 -136 33.5 -201t113.5 -65zM195 853
v84h276v-84h-276z" />
    <glyph glyph-name="omacron" unicode="&#x14d;" horiz-adv-x="553" 
d="M276 -13q-120 0 -180 71.5t-60 190.5v32q0 120 60 191t180 71t180 -71t60 -191v-32q0 -119 -60 -190.5t-180 -71.5zM276 101q110 0 110 148v32q0 149 -110 149t-110 -149v-32q0 -148 110 -148zM137 633v115h278v-115h-278z" />
    <glyph glyph-name="Obreve" unicode="&#x14e;" horiz-adv-x="665" 
d="M333 -13q-148 0 -218.5 91t-70.5 292v40q0 201 70.5 292t218.5 91t218 -91.5t70 -291.5v-40q0 -200 -70 -291.5t-218 -91.5zM328 104h9q80 0 113.5 65t33.5 201v40q0 136 -33.5 201t-113.5 65h-9q-80 0 -113.5 -65t-33.5 -201v-40q0 -136 33.5 -201t113.5 -65zM333 826
q-171 0 -171 124h92q0 -49 79 -49t79 49h92q0 -124 -171 -124z" />
    <glyph glyph-name="obreve" unicode="&#x14f;" horiz-adv-x="553" 
d="M276 -13q-120 0 -180 71.5t-60 190.5v32q0 120 60 191t180 71t180 -71t60 -191v-32q0 -119 -60 -190.5t-180 -71.5zM276 101q110 0 110 148v32q0 149 -110 149t-110 -149v-32q0 -148 110 -148zM276 589q-94 0 -137.5 51t-41.5 140h96q0 -91 83 -91t83 91h96
q2 -89 -41.5 -140t-137.5 -51z" />
    <glyph glyph-name="Ohungarumlaut" unicode="&#x150;" horiz-adv-x="665" 
d="M333 -13q-148 0 -218.5 91t-70.5 292v40q0 201 70.5 292t218.5 91t218 -91.5t70 -291.5v-40q0 -200 -70 -291.5t-218 -91.5zM328 104h9q80 0 113.5 65t33.5 201v40q0 136 -33.5 201t-113.5 65h-9q-80 0 -113.5 -65t-33.5 -201v-40q0 -136 33.5 -201t113.5 -65zM248 950
h124l-57 -110h-118zM408 950h124l-63 -110h-118z" />
    <glyph glyph-name="ohungarumlaut" unicode="&#x151;" horiz-adv-x="553" 
d="M276 -13q-120 0 -180 71.5t-60 190.5v32q0 120 60 191t180 71t180 -71t60 -191v-32q0 -119 -60 -190.5t-180 -71.5zM276 101q110 0 110 148v32q0 149 -110 149t-110 -149v-32q0 -148 110 -148zM388 780h117l-103 -179h-105zM222 780h117l-85 -179h-105z" />
    <glyph glyph-name="OE" unicode="&#x152;" horiz-adv-x="940" 
d="M44 410q0 199 76.5 284.5t243.5 85.5h536v-117h-330v-207h280v-116h-280v-223h330v-117h-536q-167 0 -243.5 85.5t-76.5 284.5v40zM436 663h-63q-104 0 -148 -59.5t-44 -193.5v-40q0 -134 44 -193.5t148 -59.5h63v546z" />
    <glyph glyph-name="oe" unicode="&#x153;" horiz-adv-x="902" 
d="M866 217h-350q7 -129 119 -129q50 0 79 24.5t29 57.5h123v-4q0 -75 -61.5 -127t-170.5 -52q-120 0 -181 83q-60 -83 -177 -83q-120 0 -180 71.5t-60 190.5v32q0 120 60 191t180 71q117 0 177 -83q60 83 176 83q117 0 177 -73t60 -192v-61zM166 249q0 -148 110 -148
t110 148v32q0 149 -110 149t-110 -149v-32zM626 442q-102 0 -110 -129h219q-6 129 -109 129z" />
    <glyph glyph-name="Racute" unicode="&#x154;" horiz-adv-x="611" 
d="M195 291v-291h-134v780h244q261 0 261 -234v-20q0 -164 -127 -214l127 -312h-145l-112 291h-114zM195 408h115q120 0 120 122v11q0 122 -120 122h-115v-255zM281 950h137l-63 -110h-130z" />
    <glyph glyph-name="racute" unicode="&#x155;" horiz-adv-x="368" 
d="M318 543q3 0 8.5 -0.5t6.5 -0.5v-126h-22q-86 0 -123 -56v-360h-130v380l-9 150h115l11 -64q53 77 143 77zM221 780h142l-103 -179h-130z" />
    <glyph glyph-name="Rcommaaccent" unicode="&#x156;" horiz-adv-x="611" 
d="M195 291v-291h-134v780h244q261 0 261 -234v-20q0 -164 -127 -214l127 -312h-145l-112 291h-114zM195 408h115q120 0 120 122v11q0 122 -120 122h-115v-255zM361 -47v-56q0 -62 -33 -91t-101 -29v49q66 0 81 41h-69v86h122z" />
    <glyph glyph-name="rcommaaccent" unicode="&#x157;" horiz-adv-x="368" 
d="M318 543q3 0 8.5 -0.5t6.5 -0.5v-126h-22q-86 0 -123 -56v-360h-130v380l-9 150h115l11 -64q53 77 143 77zM183 -47v-56q0 -62 -33 -91t-101 -29v49q66 0 81 41h-69v86h122z" />
    <glyph glyph-name="Rcaron" unicode="&#x158;" horiz-adv-x="611" 
d="M195 291v-291h-134v780h244q261 0 261 -234v-20q0 -164 -127 -214l127 -312h-145l-112 291h-114zM195 408h115q120 0 120 122v11q0 122 -120 122h-115v-255zM106 950h120l64 -51l64 51h120l-119 -110h-130z" />
    <glyph glyph-name="rcaron" unicode="&#x159;" horiz-adv-x="368" 
d="M318 543q3 0 8.5 -0.5t6.5 -0.5v-126h-22q-86 0 -123 -56v-360h-130v380l-9 150h115l11 -64q53 77 143 77zM0 780h117l78 -92l78 92h117l-133 -179h-124z" />
    <glyph glyph-name="Sacute" unicode="&#x15a;" horiz-adv-x="621" 
d="M290 340q-128 17 -187 69t-59 148v10q0 104 70.5 165t196.5 61q137 0 201.5 -65t64.5 -198v-23h-134q0 88 -31 128.5t-100 40.5h-9q-55 0 -88.5 -28t-33.5 -74v-6q0 -51 32 -78t120 -39q130 -18 190.5 -69t60.5 -152v-11q0 -110 -71.5 -171t-201.5 -61q-274 0 -274 266
v10h134q0 -159 135 -159h9q62 0 97 30t35 80v6q0 52 -35 80t-122 40zM302 950h137l-63 -110h-130z" />
    <glyph glyph-name="sacute" unicode="&#x15b;" horiz-adv-x="526" 
d="M263 88q45 0 68 18t23 48q0 34 -22 48.5t-79 19.5q-110 9 -157 42.5t-47 103.5v8q0 82 58.5 124.5t155.5 42.5q215 0 215 -181v-5h-127q0 85 -88 85q-41 0 -63.5 -17t-22.5 -46q0 -31 20.5 -45.5t76.5 -18.5q108 -9 159 -41t51 -108v-7q0 -80 -56.5 -126t-164.5 -46
q-109 0 -165 49t-56 126v4h129q0 -78 92 -78zM289 780h142l-103 -179h-130z" />
    <glyph glyph-name="Scircumflex" unicode="&#x15c;" horiz-adv-x="621" 
d="M290 340q-128 17 -187 69t-59 148v10q0 104 70.5 165t196.5 61q137 0 201.5 -65t64.5 -198v-23h-134q0 88 -31 128.5t-100 40.5h-9q-55 0 -88.5 -28t-33.5 -74v-6q0 -51 32 -78t120 -39q130 -18 190.5 -69t60.5 -152v-11q0 -110 -71.5 -171t-201.5 -61q-274 0 -274 266
v10h134q0 -159 135 -159h9q62 0 97 30t35 80v6q0 52 -35 80t-122 40zM247 840h-120l119 110h130l119 -110h-120l-64 50z" />
    <glyph glyph-name="scircumflex" unicode="&#x15d;" horiz-adv-x="526" 
d="M263 88q45 0 68 18t23 48q0 34 -22 48.5t-79 19.5q-110 9 -157 42.5t-47 103.5v8q0 82 58.5 124.5t155.5 42.5q215 0 215 -181v-5h-127q0 85 -88 85q-41 0 -63.5 -17t-22.5 -46q0 -31 20.5 -45.5t76.5 -18.5q108 -9 159 -41t51 -108v-7q0 -80 -56.5 -126t-164.5 -46
q-109 0 -165 49t-56 126v4h129q0 -78 92 -78zM185 601h-117l133 179h124l133 -179h-117l-78 92z" />
    <glyph glyph-name="Scedilla" unicode="&#x15e;" horiz-adv-x="621" 
d="M211 -190l20 59q27 -16 71 -16q51 0 51 25t-53 25l-34 -4l-17 26l24 64q-236 17 -236 264v10h134q0 -159 135 -159h9q62 0 97 30t35 80v6q0 52 -35 80t-122 40q-128 17 -187 69t-59 148v10q0 104 70.5 165t196.5 61q137 0 201.5 -65t64.5 -198v-23h-134q0 88 -31 128.5
t-100 40.5h-9q-55 0 -88.5 -28t-33.5 -74v-6q0 -51 32 -78t120 -39q130 -18 190.5 -69t60.5 -152v-11q0 -104 -63.5 -164t-181.5 -67l-12 -33q43 -2 71.5 -23t28.5 -61q0 -85 -114 -85q-67 0 -102 24z" />
    <glyph glyph-name="scedilla" unicode="&#x15f;" horiz-adv-x="526" 
d="M163 -190l20 59q27 -16 71 -16q51 0 51 25t-53 25l-34 -4l-17 26l24 64q-91 9 -137 56t-46 117v4h129q0 -78 92 -78q45 0 68 18t23 48q0 34 -22 48.5t-79 19.5q-110 9 -157 42.5t-47 103.5v8q0 82 58.5 124.5t155.5 42.5q215 0 215 -181v-5h-127q0 85 -88 85
q-41 0 -63.5 -17t-22.5 -46q0 -31 20.5 -45.5t76.5 -18.5q108 -9 159 -41t51 -108v-7q0 -75 -49.5 -119.5t-143.5 -51.5l-12 -33q43 -2 71.5 -23t28.5 -61q0 -85 -114 -85q-67 0 -102 24z" />
    <glyph glyph-name="Scaron" unicode="&#x160;" horiz-adv-x="621" 
d="M290 340q-128 17 -187 69t-59 148v10q0 104 70.5 165t196.5 61q137 0 201.5 -65t64.5 -198v-23h-134q0 88 -31 128.5t-100 40.5h-9q-55 0 -88.5 -28t-33.5 -74v-6q0 -51 32 -78t120 -39q130 -18 190.5 -69t60.5 -152v-11q0 -110 -71.5 -171t-201.5 -61q-274 0 -274 266
v10h134q0 -159 135 -159h9q62 0 97 30t35 80v6q0 52 -35 80t-122 40zM127 950h120l64 -51l64 51h120l-119 -110h-130z" />
    <glyph glyph-name="scaron" unicode="&#x161;" horiz-adv-x="526" 
d="M263 88q45 0 68 18t23 48q0 34 -22 48.5t-79 19.5q-110 9 -157 42.5t-47 103.5v8q0 82 58.5 124.5t155.5 42.5q215 0 215 -181v-5h-127q0 85 -88 85q-41 0 -63.5 -17t-22.5 -46q0 -31 20.5 -45.5t76.5 -18.5q108 -9 159 -41t51 -108v-7q0 -80 -56.5 -126t-164.5 -46
q-109 0 -165 49t-56 126v4h129q0 -78 92 -78zM68 780h117l78 -92l78 92h117l-133 -179h-124z" />
    <glyph glyph-name="Tcommaaccent" unicode="&#x162;" horiz-adv-x="544" 
d="M339 663v-663h-134v663h-186v117h506v-117h-186zM333 -47v-56q0 -62 -33 -91t-101 -29v49q66 0 81 41h-69v86h122z" />
    <glyph glyph-name="tcommaaccent" unicode="&#x163;" horiz-adv-x="421" 
d="M234 530h147v-114h-147v-229q0 -50 21 -68t65 -18q37 0 51 7v-108q-26 -13 -82 -13q-185 0 -185 186v243h-81v114h81v150h130v-150zM297 -47v-56q0 -62 -33 -91t-101 -29v49q66 0 81 41h-69v86h122z" />
    <glyph glyph-name="Tcaron" unicode="&#x164;" horiz-adv-x="544" 
d="M339 663v-663h-134v663h-186v117h506v-117h-186zM88 950h120l64 -51l64 51h120l-119 -110h-130z" />
    <glyph glyph-name="tcaron" unicode="&#x165;" horiz-adv-x="421" 
d="M234 530h147v-114h-147v-229q0 -50 21 -68t65 -18q37 0 51 7v-108q-26 -13 -82 -13q-185 0 -185 186v243h-81v114h81v150h130v-150zM295 800h85l-23 -199h-62v199z" />
    <glyph glyph-name="Tbar" unicode="&#x166;" horiz-adv-x="544" 
d="M339 663v-213h118v-102h-118v-348h-134v348h-118v102h118v213h-186v117h506v-117h-186z" />
    <glyph glyph-name="tbar" unicode="&#x167;" horiz-adv-x="421" 
d="M234 530h147v-114h-147v-103h107v-96h-107v-30q0 -50 21 -68t65 -18q37 0 51 7v-108q-26 -13 -82 -13q-185 0 -185 186v44h-69v96h69v103h-81v114h81v150h130v-150z" />
    <glyph glyph-name="Utilde" unicode="&#x168;" horiz-adv-x="655" 
d="M429 943h73q0 -57 -26 -83.5t-69 -26.5q-35 0 -82 25t-63 25q-35 0 -35 -36h-73q0 57 26 83.5t69 26.5q35 0 82 -25t63 -25q35 0 35 36zM328 -13q-146 0 -209 62t-63 196v535h134v-530q0 -78 31.5 -112t106.5 -34q74 0 105.5 34t31.5 112v530h134v-535q0 -134 -63 -196
t-208 -62z" />
    <glyph glyph-name="utilde" unicode="&#x169;" horiz-adv-x="563" 
d="M52 530h129v-342q0 -87 85 -87q72 0 110 60v369h130v-380l8 -150h-115l-12 70q-57 -83 -172 -83q-82 0 -122.5 51t-40.5 130v362zM376 764h89q0 -72 -28 -107t-73 -35q-35 0 -84.5 26.5t-66.5 26.5q-33 0 -33 -39h-89q0 72 28 107t73 35q35 0 84.5 -26.5t66.5 -26.5
q33 0 33 39z" />
    <glyph glyph-name="Umacron" unicode="&#x16a;" horiz-adv-x="655" 
d="M328 -13q-146 0 -209 62t-63 196v535h134v-530q0 -78 31.5 -112t106.5 -34q74 0 105.5 34t31.5 112v530h134v-535q0 -134 -63 -196t-208 -62zM190 853v84h276v-84h-276z" />
    <glyph glyph-name="umacron" unicode="&#x16b;" horiz-adv-x="563" 
d="M52 530h129v-342q0 -87 85 -87q72 0 110 60v369h130v-380l8 -150h-115l-12 70q-57 -83 -172 -83q-82 0 -122.5 51t-40.5 130v362zM139 633v115h278v-115h-278z" />
    <glyph glyph-name="Ubreve" unicode="&#x16c;" horiz-adv-x="655" 
d="M328 826q-171 0 -171 124h92q0 -49 79 -49t79 49h92q0 -124 -171 -124zM328 -13q-146 0 -209 62t-63 196v535h134v-530q0 -78 31.5 -112t106.5 -34q74 0 105.5 34t31.5 112v530h134v-535q0 -134 -63 -196t-208 -62z" />
    <glyph glyph-name="ubreve" unicode="&#x16d;" horiz-adv-x="563" 
d="M52 530h129v-342q0 -87 85 -87q72 0 110 60v369h130v-380l8 -150h-115l-12 70q-57 -83 -172 -83q-82 0 -122.5 51t-40.5 130v362zM278 589q-94 0 -137.5 51t-41.5 140h96q0 -91 83 -91t83 91h96q2 -89 -41.5 -140t-137.5 -51z" />
    <glyph glyph-name="Uring" unicode="&#x16e;" horiz-adv-x="655" 
d="M328 -13q-146 0 -209 62t-63 196v535h134v-530q0 -78 31.5 -112t106.5 -34q74 0 105.5 34t31.5 112v530h134v-535q0 -134 -63 -196t-208 -62zM226 861q0 42 30 72t72 30t72 -30t30 -72q0 -43 -30 -72.5t-72 -29.5t-72 29.5t-30 72.5zM276 861q0 -22 15 -37.5t37 -15.5
t37 15.5t15 37.5q0 21 -15 36.5t-37 15.5t-37 -15.5t-15 -36.5z" />
    <glyph glyph-name="uring" unicode="&#x16f;" horiz-adv-x="563" 
d="M52 530h129v-342q0 -87 85 -87q72 0 110 60v369h130v-380l8 -150h-115l-12 70q-57 -83 -172 -83q-82 0 -122.5 51t-40.5 130v362zM176 691q0 42 30 72t72 30t72 -30t30 -72q0 -43 -30 -72.5t-72 -29.5t-72 29.5t-30 72.5zM226 691q0 -22 15 -37.5t37 -15.5t37 15.5
t15 37.5q0 21 -15 36.5t-37 15.5t-37 -15.5t-15 -36.5z" />
    <glyph glyph-name="Uhungarumlaut" unicode="&#x170;" horiz-adv-x="655" 
d="M328 -13q-146 0 -209 62t-63 196v535h134v-530q0 -78 31.5 -112t106.5 -34q74 0 105.5 34t31.5 112v530h134v-535q0 -134 -63 -196t-208 -62zM403 950h124l-63 -110h-118zM243 950h124l-57 -110h-118z" />
    <glyph glyph-name="uhungarumlaut" unicode="&#x171;" horiz-adv-x="563" 
d="M52 530h129v-342q0 -87 85 -87q72 0 110 60v369h130v-380l8 -150h-115l-12 70q-57 -83 -172 -83q-82 0 -122.5 51t-40.5 130v362zM224 780h117l-85 -179h-105zM390 780h117l-103 -179h-105z" />
    <glyph glyph-name="Uogonek" unicode="&#x172;" horiz-adv-x="655" 
d="M374 -79q0 -18 12.5 -29.5t34.5 -11.5q28 0 48 12l31 -82q-39 -24 -99 -24q-59 0 -93 26.5t-34 78.5q0 53 35 96q-136 4 -194.5 66t-58.5 192v535h134v-530q0 -78 31.5 -112t106.5 -34q74 0 105.5 34t31.5 112v530h134v-535q0 -105 -37 -164t-119 -81q-31 -8 -50 -30.5
t-19 -48.5z" />
    <glyph glyph-name="uogonek" unicode="&#x173;" horiz-adv-x="563" 
d="M52 530h129v-342q0 -87 85 -87q72 0 110 60v369h130v-380l8 -150h-1q-68 -30 -68 -79q0 -18 12.5 -29.5t34.5 -11.5q28 0 48 12l31 -82q-39 -24 -99 -24q-59 0 -93 26.5t-34 78.5q0 69 53 115l-11 64q-57 -83 -172 -83q-82 0 -122.5 51t-40.5 130v362z" />
    <glyph glyph-name="Wcircumflex" unicode="&#x174;" horiz-adv-x="924" 
d="M590 -4l-128 632l-129 -632h-173l-134 784h140l89 -604l122 604h169l123 -604l89 604h140l-134 -784h-174zM398 840h-120l119 110h130l119 -110h-120l-64 50z" />
    <glyph glyph-name="wcircumflex" unicode="&#x175;" horiz-adv-x="750" 
d="M375 393l-89 -393h-165l-98 530h127l57 -390l90 390h156l90 -390l57 390h128l-99 -530h-165zM297 601h-117l133 179h124l133 -179h-117l-78 92z" />
    <glyph glyph-name="Ycircumflex" unicode="&#x176;" horiz-adv-x="610" 
d="M372 238v-238h-134v238l-226 542h146l147 -377l147 377h146zM241 840h-120l119 110h130l119 -110h-120l-64 50z" />
    <glyph glyph-name="ycircumflex" unicode="&#x177;" horiz-adv-x="530" 
d="M268 162l117 368h140l-187 -504l-70 -226h-154l84 226l-187 504h141zM190 601h-117l133 179h124l133 -179h-117l-78 92z" />
    <glyph glyph-name="Ydieresis" unicode="&#x178;" horiz-adv-x="610" 
d="M372 238v-238h-134v238l-226 542h146l147 -377l147 377h146zM448 941v-92h-117v92h117zM279 941v-92h-117v92h117z" />
    <glyph glyph-name="Zacute" unicode="&#x179;" horiz-adv-x="587" 
d="M283 950h137l-63 -110h-130zM40 92l333 574l-137 -3h-186v117h487v-92l-333 -574l137 3h206v-117h-507v92z" />
    <glyph glyph-name="zacute" unicode="&#x17a;" horiz-adv-x="489" 
d="M270 780h142l-103 -179h-130zM28 89l253 330l-113 -3h-130v114h413v-89l-253 -330l113 3h150v-114h-433v89z" />
    <glyph glyph-name="Zdotaccent" unicode="&#x17b;" horiz-adv-x="587" 
d="M350 941v-92h-116v92h116zM40 92l333 574l-137 -3h-186v117h487v-92l-333 -574l137 3h206v-117h-507v92z" />
    <glyph glyph-name="zdotaccent" unicode="&#x17c;" horiz-adv-x="489" 
d="M315 763v-141h-142v141h142zM28 89l253 330l-113 -3h-130v114h413v-89l-253 -330l113 3h150v-114h-433v89z" />
    <glyph glyph-name="Zcaron" unicode="&#x17d;" horiz-adv-x="587" 
d="M108 950h120l64 -51l64 51h120l-119 -110h-130zM40 92l333 574l-137 -3h-186v117h487v-92l-333 -574l137 3h206v-117h-507v92z" />
    <glyph glyph-name="zcaron" unicode="&#x17e;" horiz-adv-x="489" 
d="M49 780h117l78 -92l78 92h117l-133 -179h-124zM28 89l253 330l-113 -3h-130v114h413v-89l-253 -330l113 3h150v-114h-433v89z" />
    <glyph glyph-name="Scommaaccent" unicode="&#x218;" horiz-adv-x="621" 
d="M290 340q-128 17 -187 69t-59 148v10q0 104 70.5 165t196.5 61q137 0 201.5 -65t64.5 -198v-23h-134q0 88 -31 128.5t-100 40.5h-9q-55 0 -88.5 -28t-33.5 -74v-6q0 -51 32 -78t120 -39q130 -18 190.5 -69t60.5 -152v-11q0 -110 -71.5 -171t-201.5 -61q-274 0 -274 266
v10h134q0 -159 135 -159h9q62 0 97 30t35 80v6q0 52 -35 80t-122 40zM372 -47v-56q0 -62 -33 -91t-101 -29v49q66 0 81 41h-69v86h122z" />
    <glyph glyph-name="scommaaccent" unicode="&#x219;" horiz-adv-x="526" 
d="M263 88q45 0 68 18t23 48q0 34 -22 48.5t-79 19.5q-110 9 -157 42.5t-47 103.5v8q0 82 58.5 124.5t155.5 42.5q215 0 215 -181v-5h-127q0 85 -88 85q-41 0 -63.5 -17t-22.5 -46q0 -31 20.5 -45.5t76.5 -18.5q108 -9 159 -41t51 -108v-7q0 -80 -56.5 -126t-164.5 -46
q-109 0 -165 49t-56 126v4h129q0 -78 92 -78zM324 -47v-56q0 -62 -33 -91t-101 -29v49q66 0 81 41h-69v86h122z" />
    <glyph glyph-name="Ymacron" unicode="&#x232;" horiz-adv-x="610" 
d="M372 238v-238h-134v238l-226 542h146l147 -377l147 377h146zM167 853v84h276v-84h-276z" />
    <glyph glyph-name="ymacron" unicode="&#x233;" horiz-adv-x="530" 
d="M268 162l117 368h140l-187 -504l-70 -226h-154l84 226l-187 504h141zM129 633v115h278v-115h-278z" />
    <glyph glyph-name="dotlessj" unicode="&#x237;" horiz-adv-x="252" 
d="M60 -13v543h130v-557q0 -186 -185 -186q-56 0 -82 13v108q16 -7 51 -7q44 0 65 18t21 68z" />
    <glyph glyph-name="circumflex" unicode="&#x2c6;" horiz-adv-x="500" 
d="M172 601h-117l133 179h124l133 -179h-117l-78 92z" />
    <glyph glyph-name="caron" unicode="&#x2c7;" horiz-adv-x="500" 
d="M55 780h117l78 -92l78 92h117l-133 -179h-124z" />
    <glyph glyph-name="breve" unicode="&#x2d8;" horiz-adv-x="500" 
d="M250 589q-94 0 -137.5 51t-41.5 140h96q0 -91 83 -91t83 91h96q2 -89 -41.5 -140t-137.5 -51z" />
    <glyph glyph-name="dotaccent" unicode="&#x2d9;" horiz-adv-x="500" 
d="M321 763v-141h-142v141h142z" />
    <glyph glyph-name="ring" unicode="&#x2da;" horiz-adv-x="500" 
d="M148 691q0 42 30 72t72 30t72 -30t30 -72q0 -43 -30 -72.5t-72 -29.5t-72 29.5t-30 72.5zM198 691q0 -22 15 -37.5t37 -15.5t37 15.5t15 37.5q0 21 -15 36.5t-37 15.5t-37 -15.5t-15 -36.5z" />
    <glyph glyph-name="ogonek" unicode="&#x2db;" horiz-adv-x="602" 
d="M221 -79q0 -18 12.5 -29.5t34.5 -11.5q28 0 48 12l31 -82q-39 -24 -99 -24q-59 0 -93 26.5t-34 78.5q0 61 42 105t102 63l24 -59q-68 -30 -68 -79z" />
    <glyph glyph-name="tilde" unicode="&#x2dc;" horiz-adv-x="500" 
d="M348 764h89q0 -72 -28 -107t-73 -35q-35 0 -84.5 26.5t-66.5 26.5q-33 0 -33 -39h-89q0 72 28 107t73 35q35 0 84.5 -26.5t66.5 -26.5q33 0 33 39z" />
    <glyph glyph-name="hungarumlaut" unicode="&#x2dd;" horiz-adv-x="500" 
d="M362 780h117l-103 -179h-105zM196 780h117l-85 -179h-105z" />
    <glyph glyph-name="Bdotaccent" unicode="&#x1e02;" horiz-adv-x="617" 
d="M61 780h239q246 0 246 -210v-20q0 -104 -87 -148q107 -46 107 -163v-20q0 -219 -256 -219h-249v780zM315 341h-120v-224h120q49 0 82 25t33 81v11q0 56 -33 81.5t-82 25.5zM300 663h-105v-205h105q110 0 110 96v13q0 96 -110 96zM348 941v-92h-116v92h116z" />
    <glyph glyph-name="bdotaccent" unicode="&#x1e03;" horiz-adv-x="563" 
d="M187 800v-319q52 62 141 62q198 0 198 -262v-32q0 -121 -47.5 -191.5t-150.5 -70.5q-102 0 -153 79l-11 -66h-115l8 150v650h130zM187 369v-208q38 -60 104 -60q105 0 105 148v32q0 149 -105 149q-65 0 -104 -61zM180 941v-92h-116v92h116z" />
    <glyph glyph-name="Ddotaccent" unicode="&#x1e0a;" horiz-adv-x="655" 
d="M611 370q0 -199 -76.5 -284.5t-243.5 -85.5h-230v780h230q167 0 243.5 -85.5t76.5 -284.5v-40zM195 117h88q103 0 147 59.5t44 193.5v40q0 134 -44 193.5t-147 59.5h-88v-546zM365 941v-92h-116v92h116z" />
    <glyph glyph-name="ddotaccent" unicode="&#x1e0b;" horiz-adv-x="569" 
d="M241 543q88 0 140 -62v319h130v-650l8 -150h-115l-11 66q-51 -79 -152 -79q-103 0 -151 70.5t-48 191.5v32q0 122 47.5 192t151.5 70zM381 369q-37 61 -104 61q-105 0 -105 -149v-32q0 -148 105 -148q68 0 104 60v208zM504 941v-92h-116v92h116z" />
    <glyph glyph-name="Fdotaccent" unicode="&#x1e1e;" horiz-adv-x="538" 
d="M61 780h457v-117h-323v-207h273v-116h-273v-340h-134v780zM355 941v-92h-116v92h116z" />
    <glyph glyph-name="fdotaccent" unicode="&#x1e1f;" horiz-adv-x="401" 
d="M234 613v-83h127v-114h-127v-416h-130v416h-81v114h81v98q0 185 185 185q56 0 82 -13v-108q-16 8 -51 8q-44 0 -65 -18.5t-21 -68.5zM301 941v-92h-116v92h116z" />
    <glyph glyph-name="Mdotaccent" unicode="&#x1e40;" horiz-adv-x="849" 
d="M658 547l-167 -547h-134l-166 547l4 -161v-386h-134v780h197l166 -548l167 548h197v-780h-134v386zM482 941v-92h-116v92h116z" />
    <glyph glyph-name="mdotaccent" unicode="&#x1e41;" horiz-adv-x="844" 
d="M793 0h-130v351q0 79 -75 79q-60 0 -98 -57v-373h-129v351q0 79 -76 79q-61 0 -97 -57v-373h-130v380l-9 150h115l11 -66q56 79 161 79q101 0 137 -84q54 84 165 84q77 0 116 -47t39 -125v-371zM497 763v-141h-142v141h142z" />
    <glyph glyph-name="Pdotaccent" unicode="&#x1e56;" horiz-adv-x="598" 
d="M195 291v-291h-134v780h244q261 0 261 -234v-20q0 -235 -261 -235h-110zM195 408h115q120 0 120 122v11q0 122 -120 122h-115v-255zM349 941v-92h-116v92h116z" />
    <glyph glyph-name="pdotaccent" unicode="&#x1e57;" horiz-adv-x="563" 
d="M328 -13q-91 0 -141 62v-249h-130v580l-8 150h115l11 -66q51 79 153 79q198 0 198 -262v-32q0 -121 -47.5 -191.5t-150.5 -70.5zM187 369v-208q38 -60 104 -60q105 0 105 148v32q0 149 -105 149q-65 0 -104 -61zM361 763v-141h-142v141h142z" />
    <glyph glyph-name="Tdotaccent" unicode="&#x1e6a;" horiz-adv-x="544" 
d="M339 663v-663h-134v663h-186v117h506v-117h-186zM330 941v-92h-116v92h116z" />
    <glyph glyph-name="tdotaccent" unicode="&#x1e6b;" horiz-adv-x="421" 
d="M234 530h147v-114h-147v-229q0 -50 21 -68t65 -18q37 0 51 7v-108q-26 -13 -82 -13q-185 0 -185 186v243h-81v114h81v150h130v-150zM227 821v-92h-116v92h116z" />
    <glyph glyph-name="Wgrave" unicode="&#x1e80;" horiz-adv-x="924" 
d="M590 -4l-128 632l-129 -632h-173l-134 784h140l89 -604l122 604h169l123 -604l89 604h140l-134 -784h-174zM334 950h137l56 -110h-130z" />
    <glyph glyph-name="wgrave" unicode="&#x1e81;" horiz-adv-x="750" 
d="M375 393l-89 -393h-165l-98 530h127l57 -390l90 390h156l90 -390l57 390h128l-99 -530h-165zM207 780h142l91 -179h-130z" />
    <glyph glyph-name="Wacute" unicode="&#x1e82;" horiz-adv-x="924" 
d="M590 -4l-128 632l-129 -632h-173l-134 784h140l89 -604l122 604h169l123 -604l89 604h140l-134 -784h-174zM453 950h137l-63 -110h-130z" />
    <glyph glyph-name="wacute" unicode="&#x1e83;" horiz-adv-x="750" 
d="M375 393l-89 -393h-165l-98 530h127l57 -390l90 390h156l90 -390l57 390h128l-99 -530h-165zM401 780h142l-103 -179h-130z" />
    <glyph glyph-name="Wdieresis" unicode="&#x1e84;" horiz-adv-x="924" 
d="M590 -4l-128 632l-129 -632h-173l-134 784h140l89 -604l122 604h169l123 -604l89 604h140l-134 -784h-174zM436 941v-92h-117v92h117zM605 941v-92h-117v92h117z" />
    <glyph glyph-name="wdieresis" unicode="&#x1e85;" horiz-adv-x="750" 
d="M375 393l-89 -393h-165l-98 530h127l57 -390l90 390h156l90 -390l57 390h128l-99 -530h-165zM346 763v-141h-142v141h142zM546 763v-141h-142v141h142z" />
    <glyph glyph-name="Eszett" unicode="&#x1e9e;" horiz-adv-x="790" 
d="M304 453l135 218q-35 5 -63 5q-186 0 -186 -146v-530h-134v535q0 258 320 258q125 0 211 -39v-92l-126 -204l51 -6q127 -15 189 -68t62 -154v-11q0 -110 -64.5 -171t-182.5 -61q-127 0 -187 62t-60 204v10h134q0 -159 110 -159h9q47 0 75.5 29t28.5 81v6q0 102 -140 119
l-182 22v92z" />
    <glyph glyph-name="Ygrave" unicode="&#x1ef2;" horiz-adv-x="610" 
d="M372 238v-238h-134v238l-226 542h146l147 -377l147 377h146zM177 950h137l56 -110h-130z" />
    <glyph glyph-name="ygrave" unicode="&#x1ef3;" horiz-adv-x="530" 
d="M268 162l117 368h140l-187 -504l-70 -226h-154l84 226l-187 504h141zM100 780h142l91 -179h-130z" />
    <glyph glyph-name="enspace" unicode="&#x2002;" horiz-adv-x="500" 
 />
    <glyph glyph-name="emspace" unicode="&#x2003;" horiz-adv-x="1000" 
 />
    <glyph glyph-name="threeperemspace" unicode="&#x2004;" horiz-adv-x="333" 
 />
    <glyph glyph-name="fourperemspace" unicode="&#x2005;" horiz-adv-x="250" 
 />
    <glyph glyph-name="sixperemspace" unicode="&#x2006;" horiz-adv-x="167" 
 />
    <glyph glyph-name="figurespace" unicode="&#x2007;" horiz-adv-x="600" 
 />
    <glyph glyph-name="punctuationspace" unicode="&#x2008;" horiz-adv-x="180" 
 />
    <glyph glyph-name="thinspace" unicode="&#x2009;" horiz-adv-x="150" 
 />
    <glyph glyph-name="hairspace" unicode="&#x200a;" horiz-adv-x="50" 
 />
    <glyph glyph-name="zerowidthspace" unicode="&#x200b;" horiz-adv-x="0" 
 />
    <glyph glyph-name="figuredash" unicode="&#x2012;" horiz-adv-x="600" 
d="M40 293v114h520v-114h-520z" />
    <glyph glyph-name="endash" unicode="&#x2013;" horiz-adv-x="500" 
d="M40 293v114h420v-114h-420z" />
    <glyph glyph-name="emdash" unicode="&#x2014;" horiz-adv-x="1000" 
d="M40 293v114h920v-114h-920z" />
    <glyph glyph-name="uni2015" unicode="&#x2015;" horiz-adv-x="1200" 
d="M40 293v114h1120v-114h-1120z" />
    <glyph glyph-name="doublebar" unicode="&#x2016;" horiz-adv-x="418" 
d="M57 -120v960h128v-960h-128zM233 -120v960h127v-960h-127z" />
    <glyph glyph-name="quoteleft" unicode="&#x2018;" horiz-adv-x="250" 
d="M43 526v112q0 165 153 165v-68q-73 0 -83 -68h72v-141h-142z" />
    <glyph glyph-name="quoteright" unicode="&#x2019;" horiz-adv-x="250" 
d="M196 780v-112q0 -165 -153 -165v68q71 0 83 68h-72v141h142z" />
    <glyph glyph-name="quotesinglbase" unicode="&#x201a;" horiz-adv-x="250" 
d="M196 141v-111q0 -165 -153 -165v68q71 0 83 67h-72v141h142z" />
    <glyph glyph-name="reversequoteleft" unicode="&#x201b;" horiz-adv-x="250" 
d="M43 780h142v-141h-72q10 -68 83 -68v-68q-153 0 -153 165v112z" />
    <glyph glyph-name="quotedblleft" unicode="&#x201c;" horiz-adv-x="445" 
d="M43 526v112q0 165 153 165v-68q-73 0 -83 -68h72v-141h-142zM238 526v112q0 165 153 165v-68q-73 0 -83 -68h72v-141h-142z" />
    <glyph glyph-name="quotedblright" unicode="&#x201d;" horiz-adv-x="445" 
d="M196 780v-112q0 -165 -153 -165v68q71 0 83 68h-72v141h142zM391 780v-112q0 -165 -153 -165v68q71 0 83 68h-71v141h141z" />
    <glyph glyph-name="quotedblbase" unicode="&#x201e;" horiz-adv-x="445" 
d="M196 141v-111q0 -165 -153 -165v68q71 0 83 67h-72v141h142zM391 141v-111q0 -165 -153 -165v68q71 0 83 67h-71v141h141z" />
    <glyph glyph-name="reversequotedblleft" unicode="&#x201f;" horiz-adv-x="445" 
d="M238 780h142v-141h-72q10 -68 83 -68v-68q-153 0 -153 165v112zM43 780h142v-141h-72q10 -68 83 -68v-68q-153 0 -153 165v112z" />
    <glyph glyph-name="dagger" unicode="&#x2020;" horiz-adv-x="405" 
d="M164 443l5 128h67l5 -128l-5 -128h-67zM164 800h77l-5 -137h-67zM382 656v-78l-134 5v68zM23 578v78l134 -5v-68z" />
    <glyph glyph-name="daggerdbl" unicode="&#x2021;" horiz-adv-x="405" 
d="M164 214l5 128h67l5 -128l-5 -128h-67zM164 800h77l-5 -137h-67zM164 502l5 69h67l5 -69l-5 -68h-67zM382 427v-78l-134 5v68zM23 578v78l134 -5v-68zM23 349v78l134 -5v-68zM382 656v-78l-134 5v68z" />
    <glyph glyph-name="bullet" unicode="&#x2022;" horiz-adv-x="430" 
d="M366 501v-302h-302v302h302z" />
    <glyph glyph-name="ellipsis" unicode="&#x2026;" horiz-adv-x="1000" 
d="M251 141v-141h-142v141h142zM891 141v-141h-142v141h142zM571 141v-141h-142v141h142z" />
    <glyph glyph-name="perthousand" unicode="&#x2030;" horiz-adv-x="1363" 
d="M377 0h-116l272 655q-50 -10 -84 -10q-33 0 -56 4q3 -19 3 -40v-11q0 -87 -51 -135t-132 -48t-131.5 48t-50.5 135v11q0 87 50.5 135.5t131.5 48.5q46 0 86 -17q68 -25 172 -25q57 0 117 10.5t87 21.5v-67zM567 182q0 87 50.5 135t131.5 48t132 -48t51 -135v-11
q0 -87 -51 -135.5t-132 -48.5t-131.5 48.5t-50.5 135.5v11zM967 182q0 87 50.5 135t131.5 48t132 -48t51 -135v-11q0 -87 -51 -135.5t-132 -48.5t-131.5 48.5t-50.5 135.5v11zM666 169q0 -38 22 -60t58 -22h6q36 0 58.5 22t22.5 60v14q0 38 -22.5 60.5t-58.5 22.5h-6
q-36 0 -58 -22.5t-22 -60.5v-14zM1066 169q0 -38 22 -60t58 -22h6q36 0 58.5 22t22.5 60v14q0 38 -22.5 60.5t-58.5 22.5h-6q-36 0 -58 -22.5t-22 -60.5v-14zM297 611q0 38 -22.5 60t-58.5 22h-6q-36 0 -58 -22t-22 -60v-14q0 -38 22 -60.5t58 -22.5h6q36 0 58.5 22.5
t22.5 60.5v14z" />
    <glyph glyph-name="tripleprime" unicode="&#x2034;" horiz-adv-x="575" 
d="M54 780h130l-9 -306h-100zM392 780h130l-22 -306h-99zM229 780h117l-9 -306h-99z" />
    <glyph glyph-name="guilsinglleft" unicode="&#x2039;" horiz-adv-x="313" 
d="M263 551v-117l-122 -94l122 -94v-117l-213 149v124z" />
    <glyph glyph-name="guilsinglright" unicode="&#x203a;" horiz-adv-x="313" 
d="M50 434v117l213 -149v-124l-213 -149v117l122 94z" />
    <glyph glyph-name="interrobang" unicode="&#x203d;" horiz-adv-x="484" 
d="M284 216h-73l-9 454q-60 -24 -60 -157h-119v15q0 130 51 197.5t172 67.5q115 0 166 -56.5t51 -147.5q0 -55 -17 -96t-42.5 -67.5t-51 -52t-45 -65t-23.5 -92.5zM320 141v-141h-142v141h142zM337 575q0 78 -55 96l-5 -243q5 8 17 29t17 31t12.5 26.5t10.5 31t3 29.5z" />
    <glyph glyph-name="fraction" unicode="&#x2044;" horiz-adv-x="200" 
d="M-136 0h-104l576 780h104z" />
    <glyph glyph-name="uni2070" unicode="&#x2070;" 
d="M281 499q0 -52 -34.5 -84.5t-96.5 -32.5t-96.5 32.5t-34.5 84.5v171q0 52 34.5 84.5t96.5 32.5t96.5 -32.5t34.5 -84.5v-171zM181 670q0 14 -8.5 22t-21.5 8h-2q-14 0 -22.5 -8t-8.5 -22v-171q0 -13 8.5 -21.5t22.5 -8.5h2q13 0 21.5 8.5t8.5 21.5v171z" />
    <glyph glyph-name="uni2074" unicode="&#x2074;" 
d="M255 390h-100v76h-143v71l149 243h94v-226h32v-88h-32v-76zM156 622l-43 -70l18 2h24v50z" />
    <glyph glyph-name="uni2075" unicode="&#x2075;" 
d="M16 515h100q0 -46 31 -46h5q32 0 32 43v5q0 42 -37 42h-3q-25 0 -39 -20l-86 29l9 212h250v-87h-166l-3 -54q25 7 46 7q63 0 95.5 -34.5t32.5 -92.5v-10q0 -59 -33.5 -93t-99.5 -34t-100 32t-34 93v8z" />
    <glyph glyph-name="uni2076" unicode="&#x2076;" 
d="M262 787v-88q-83 0 -115 -38q-14 -17 -19 -37q22 12 49 12q49 0 77.5 -33.5t28.5 -89.5v-5q0 -58 -33.5 -92t-100.5 -34q-65 0 -99 40t-34 106v8q0 108 55 180q30 41 75.5 56t115.5 15zM150 550q-22 0 -34 -18v-12q0 -51 32 -51h3q13 0 22.5 10t9.5 26v11q0 34 -30 34h-3
z" />
    <glyph glyph-name="uni2077" unicode="&#x2077;" 
d="M13 640v140h273v-62l-133 -328h-107l129 304l-44 -1h-31v-53h-87z" />
    <glyph glyph-name="uni2078" unicode="&#x2078;" 
d="M150 382q-69 0 -101.5 36.5t-32.5 77.5v11q0 54 43 83q-40 28 -40 82v10q0 39 31 72t100 33t100 -33t31 -72v-10q0 -54 -40 -83q42 -29 42 -82v-11q0 -41 -32 -77.5t-101 -36.5zM147 545q-31 0 -31 -32v-5q0 -19 9 -29t22 -10h5q14 0 23 10t9 29v5q0 32 -32 32h-5z
M152 700h-5q-12 0 -20.5 -8.5t-8.5 -21.5v-5q0 -32 31 -32h2q30 0 30 32v5q0 13 -8.5 21.5t-20.5 8.5z" />
    <glyph glyph-name="uni2079" unicode="&#x2079;" 
d="M37 382v88q83 1 115 39q11 14 19 37q-21 -12 -49 -12q-48 0 -76.5 33.5t-28.5 89.5v5q0 58 33.5 91.5t99.5 33.5q65 0 99.5 -40t34.5 -106v-7q0 -106 -55 -181q-30 -40 -76 -55.5t-116 -15.5zM149 619q21 0 35 18v13q0 51 -32 51h-3q-13 0 -22.5 -10t-9.5 -27v-10
q0 -35 30 -35h2z" />
    <glyph glyph-name="uni207A" unicode="&#x207a;" 
d="M106 715h88v-86h86v-88h-86v-86h-88v86h-86v88h86v86z" />
    <glyph glyph-name="uni207B" unicode="&#x207b;" 
d="M20 541v88h260v-88h-260z" />
    <glyph glyph-name="uni207C" unicode="&#x207c;" 
d="M20 597v87h260v-87h-260zM20 486v87h260v-87h-260z" />
    <glyph glyph-name="uni207D" unicode="&#x207d;" horiz-adv-x="194" 
d="M18 580v10q0 121 60 190h102q-63 -94 -63 -190v-10q0 -96 63 -190h-102q-60 68 -60 190z" />
    <glyph glyph-name="uni207E" unicode="&#x207e;" horiz-adv-x="194" 
d="M174 590v-10q0 -124 -59 -190h-102q62 90 62 190v10q0 100 -62 190h102q59 -68 59 -190z" />
    <glyph glyph-name="uni2080" unicode="&#x2080;" 
d="M281 109q0 -52 -34.5 -84.5t-96.5 -32.5t-96.5 32.5t-34.5 84.5v171q0 52 34.5 84.5t96.5 32.5t96.5 -32.5t34.5 -84.5v-171zM181 280q0 14 -8.5 22t-21.5 8h-2q-14 0 -22.5 -8t-8.5 -22v-171q0 -13 8.5 -21.5t22.5 -8.5h2q13 0 21.5 8.5t8.5 21.5v171z" />
    <glyph glyph-name="uni2081" unicode="&#x2081;" 
d="M287 0h-257v86h79v182l-48 -32l-50 71l122 82h76v-303h78v-86z" />
    <glyph glyph-name="uni2082" unicode="&#x2082;" 
d="M281 86v-86h-262v63l142 159q20 22 20 41v5q0 42 -29 42h-5q-28 0 -28 -50h-100v9q0 128 131 128q69 0 100 -33.5t31 -76.5v-11q0 -33 -10 -54t-33 -47l-81 -89h124z" />
    <glyph glyph-name="uni2083" unicode="&#x2083;" 
d="M116 125q0 -46 31 -46h5q14 0 23 10t9 29v5q0 32 -32 32h-52v88h51q30 0 30 32v6q0 13 -8.5 21t-20.5 8h-5q-28 0 -28 -50h-100v9q0 128 131 128q69 0 100 -33t31 -72v-10q0 -54 -41 -83q43 -29 43 -83v-10q0 -41 -32 -77.5t-101 -36.5q-66 0 -100 32t-34 93v8h100z" />
    <glyph glyph-name="uni2084" unicode="&#x2084;" 
d="M255 0h-100v76h-143v71l149 243h94v-226h32v-88h-32v-76zM156 232l-43 -70l18 2h24v50z" />
    <glyph glyph-name="uni2085" unicode="&#x2085;" 
d="M16 125h100q0 -46 31 -46h5q32 0 32 43v5q0 42 -37 42h-3q-25 0 -39 -20l-86 29l9 212h250v-87h-166l-3 -54q24 7 46 7q63 0 95.5 -34.5t32.5 -92.5v-10q0 -59 -33.5 -93t-99.5 -34t-100 32t-34 93v8z" />
    <glyph glyph-name="uni2086" unicode="&#x2086;" 
d="M262 397v-88q-83 0 -115 -38q-14 -17 -19 -37q22 12 49 12q49 0 77.5 -33.5t28.5 -89.5v-5q0 -58 -33.5 -92t-100.5 -34q-65 0 -99 40t-34 106v8q0 108 55 180q30 41 75.5 56t115.5 15zM150 160q-22 0 -34 -18v-12q0 -51 32 -51h3q13 0 22.5 10t9.5 26v11q0 34 -30 34h-3
z" />
    <glyph glyph-name="uni2087" unicode="&#x2087;" 
d="M13 250v140h273v-62l-133 -328h-107l129 304l-44 -1h-31v-53h-87z" />
    <glyph glyph-name="uni2088" unicode="&#x2088;" 
d="M150 -8q-69 0 -101.5 36.5t-32.5 77.5v11q0 54 43 83q-40 28 -40 82v10q0 39 31 72t100 33t100 -33t31 -72v-10q0 -54 -40 -83q42 -29 42 -82v-11q0 -41 -32 -77.5t-101 -36.5zM147 155q-31 0 -31 -32v-5q0 -19 9 -29t22 -10h5q14 0 23 10t9 29v5q0 32 -32 32h-5z
M152 310h-5q-12 0 -20.5 -8.5t-8.5 -21.5v-5q0 -32 31 -32h2q30 0 30 32v5q0 13 -8.5 21.5t-20.5 8.5z" />
    <glyph glyph-name="uni2089" unicode="&#x2089;" 
d="M37 -8v88q83 1 115 39q11 14 19 37q-21 -12 -49 -12q-48 0 -76.5 33.5t-28.5 89.5v5q0 58 33.5 91.5t99.5 33.5q65 0 99.5 -40t34.5 -106v-7q0 -106 -55 -181q-30 -40 -76 -55.5t-116 -15.5zM149 229q21 0 35 18v13q0 51 -32 51h-3q-13 0 -22.5 -10t-9.5 -27v-10
q0 -35 30 -35h2z" />
    <glyph glyph-name="uni208A" unicode="&#x208a;" 
d="M106 325h88v-86h86v-88h-86v-86h-88v86h-86v88h86v86z" />
    <glyph glyph-name="uni208B" unicode="&#x208b;" 
d="M20 151v88h260v-88h-260z" />
    <glyph glyph-name="uni208C" unicode="&#x208c;" 
d="M20 207v87h260v-87h-260zM20 96v87h260v-87h-260z" />
    <glyph glyph-name="uni208D" unicode="&#x208d;" horiz-adv-x="194" 
d="M18 190v10q0 121 60 190h102q-63 -94 -63 -190v-10q0 -96 63 -190h-102q-60 68 -60 190z" />
    <glyph glyph-name="uni208E" unicode="&#x208e;" horiz-adv-x="194" 
d="M174 200v-10q0 -124 -59 -190h-102q62 90 62 190v10q0 100 -62 190h102q59 -68 59 -190z" />
    <glyph glyph-name="Euro" unicode="&#x20ac;" horiz-adv-x="600" 
d="M100 320h-68v118h67q4 185 65 270t181 85q113 0 163.5 -62.5t50.5 -196.5v-34h-115q0 93 -21 134t-70 41h-8q-103 0 -109 -237h180l-58 -118h-121q9 -215 108 -215h8q91 0 91 145h115v-9q0 -130 -51 -192t-163 -62q-117 0 -177.5 80t-67.5 253z" />
    <glyph glyph-name="ruble" unicode="&#x20bd;" horiz-adv-x="600" 
d="M229 291v-45h193v-117h-193v-129h-134v129h-76v117h76v45h-76v117h76v372h206q262 0 262 -234v-20q0 -235 -262 -235h-72zM229 408h77q50 0 85.5 26.5t35.5 95.5v11q0 69 -35.5 95.5t-85.5 26.5h-77v-255z" />
    <glyph glyph-name="numero" unicode="&#x2116;" horiz-adv-x="1110" 
d="M614 780v-780h-142l-288 538l4 -165v-373h-127v780h142l288 -538l-4 165v373h127zM1076 572q0 -89 -46 -141.5t-137 -52.5q-92 0 -138 52.5t-46 141.5v27q0 89 46 141.5t138 52.5q91 0 137 -52.5t46 -141.5v-27zM718 191v99h350v-99h-350zM823 572q0 -96 70 -96
q69 0 69 96v27q0 95 -69 95q-70 0 -70 -95v-27z" />
    <glyph glyph-name="published" unicode="&#x2117;" horiz-adv-x="920" 
d="M57 390q0 166 118.5 284.5t284.5 118.5t284.5 -118.5t118.5 -284.5t-118.5 -284.5t-284.5 -118.5t-284.5 118.5t-118.5 284.5zM109 390q0 -146 102.5 -248.5t248.5 -102.5t248.5 102.5t102.5 248.5t-102.5 248.5t-248.5 102.5t-248.5 -102.5t-102.5 -248.5zM400 318v-163
h-118v470h224q31 0 57 -6.5t50 -22t38 -46t14 -73.5v-11q0 -43 -14 -73.5t-38 -46t-50 -22t-57 -6.5h-106zM400 406h82q65 0 65 62v7q0 62 -65 62h-82v-131z" />
    <glyph glyph-name="servicemark" unicode="&#x2120;" horiz-adv-x="548" 
d="M103 642q-47 6 -66.5 23.5t-19.5 55.5v4q0 38 24.5 60.5t70.5 22.5q96 0 96 -97v-8h-57q0 29 -8.5 41.5t-29.5 12.5h-3q-16 0 -25.5 -8t-9.5 -21v-2q0 -15 10.5 -23t36.5 -12q46 -6 67 -24.5t21 -55.5v-5q0 -40 -25 -62.5t-73 -22.5q-98 0 -98 99v3h57q0 -52 41 -52h3
q37 0 37 33v2q0 15 -11 23.5t-38 12.5zM447 704l-46 -174h-61l-46 174l2 -62v-112h-57v270h86l46 -173l45 173h86v-270h-57v112z" />
    <glyph glyph-name="trademark" unicode="&#x2122;" horiz-adv-x="548" 
d="M142 750v-220h-57v220h-68v50h193v-50h-68zM447 704l-46 -174h-61l-46 174l2 -62v-112h-57v270h86l46 -173l45 173h86v-270h-57v112z" />
    <glyph glyph-name="uni2153" unicode="&#x2153;" horiz-adv-x="800" 
d="M164 0h-104l576 780h104zM616 125q0 -46 31 -46h5q14 0 23 10t9 29v5q0 32 -32 32h-52v88h51q30 0 30 32v6q0 13 -8.5 21t-20.5 8h-5q-28 0 -28 -50h-100v9q0 128 131 128q69 0 100 -33t31 -72v-10q0 -54 -41 -83q43 -29 43 -83v-10q0 -41 -32 -77.5t-101 -36.5
q-66 0 -100 32t-34 93v8h100zM287 390h-257v86h79v182l-48 -32l-50 71l122 82h76v-303h78v-86z" />
    <glyph glyph-name="uni2154" unicode="&#x2154;" horiz-adv-x="800" 
d="M164 0h-104l576 780h104zM616 125q0 -46 31 -46h5q14 0 23 10t9 29v5q0 32 -32 32h-52v88h51q30 0 30 32v6q0 13 -8.5 21t-20.5 8h-5q-28 0 -28 -50h-100v9q0 128 131 128q69 0 100 -33t31 -72v-10q0 -54 -41 -83q43 -29 43 -83v-10q0 -41 -32 -77.5t-101 -36.5
q-66 0 -100 32t-34 93v8h100zM281 476v-86h-262v63l142 159q20 22 20 41v5q0 42 -29 42h-5q-28 0 -28 -50h-100v9q0 128 131 128q69 0 100 -33.5t31 -76.5v-11q0 -33 -10 -54t-33 -47l-81 -89h124z" />
    <glyph glyph-name="uni2155" unicode="&#x2155;" horiz-adv-x="800" 
d="M164 0h-104l576 780h104zM516 125h100q0 -46 31 -46h5q32 0 32 43v5q0 42 -37 42h-3q-25 0 -39 -20l-86 29l9 212h250v-87h-166l-3 -54q25 7 46 7q63 0 95.5 -34.5t32.5 -92.5v-10q0 -59 -33.5 -93t-99.5 -34t-100 32t-34 93v8zM287 390h-257v86h79v182l-48 -32l-50 71
l122 82h76v-303h78v-86z" />
    <glyph glyph-name="uni2156" unicode="&#x2156;" horiz-adv-x="800" 
d="M164 0h-104l576 780h104zM516 125h100q0 -46 31 -46h5q32 0 32 43v5q0 42 -37 42h-3q-25 0 -39 -20l-86 29l9 212h250v-87h-166l-3 -54q25 7 46 7q63 0 95.5 -34.5t32.5 -92.5v-10q0 -59 -33.5 -93t-99.5 -34t-100 32t-34 93v8zM281 476v-86h-262v63l142 159q20 22 20 41
v5q0 42 -29 42h-5q-28 0 -28 -50h-100v9q0 128 131 128q69 0 100 -33.5t31 -76.5v-11q0 -33 -10 -54t-33 -47l-81 -89h124z" />
    <glyph glyph-name="uni2157" unicode="&#x2157;" horiz-adv-x="800" 
d="M164 0h-104l576 780h104zM516 125h100q0 -46 31 -46h5q32 0 32 43v5q0 42 -37 42h-3q-25 0 -39 -20l-86 29l9 212h250v-87h-166l-3 -54q25 7 46 7q63 0 95.5 -34.5t32.5 -92.5v-10q0 -59 -33.5 -93t-99.5 -34t-100 32t-34 93v8zM116 515q0 -46 31 -46h5q14 0 23 10t9 29
v5q0 32 -32 32h-52v88h51q30 0 30 32v6q0 13 -8.5 21t-20.5 8h-5q-28 0 -28 -50h-100v9q0 128 131 128q69 0 100 -33t31 -72v-10q0 -54 -41 -83q43 -29 43 -83v-10q0 -41 -32 -77.5t-101 -36.5q-66 0 -100 32t-34 93v8h100z" />
    <glyph glyph-name="uni2158" unicode="&#x2158;" horiz-adv-x="800" 
d="M164 0h-104l576 780h104zM516 125h100q0 -46 31 -46h5q32 0 32 43v5q0 42 -37 42h-3q-25 0 -39 -20l-86 29l9 212h250v-87h-166l-3 -54q25 7 46 7q63 0 95.5 -34.5t32.5 -92.5v-10q0 -59 -33.5 -93t-99.5 -34t-100 32t-34 93v8zM255 390h-100v76h-143v71l149 243h94v-226
h32v-88h-32v-76zM156 622l-43 -70l18 2h24v50z" />
    <glyph glyph-name="uni2159" unicode="&#x2159;" horiz-adv-x="800" 
d="M164 0h-104l576 780h104zM762 397v-88q-83 0 -115 -38q-14 -17 -19 -37q22 12 49 12q49 0 77.5 -33.5t28.5 -89.5v-5q0 -58 -33.5 -92t-100.5 -34q-65 0 -99 40t-34 106v8q0 108 55 180q30 41 75.5 56t115.5 15zM287 390h-257v86h79v182l-48 -32l-50 71l122 82h76v-303
h78v-86zM650 160q-22 0 -34 -18v-12q0 -51 32 -51h3q13 0 22.5 10t9.5 26v11q0 34 -30 34h-3z" />
    <glyph glyph-name="uni215A" unicode="&#x215a;" horiz-adv-x="800" 
d="M164 0h-104l576 780h104zM762 397v-88q-83 0 -115 -38q-14 -17 -19 -37q22 12 49 12q49 0 77.5 -33.5t28.5 -89.5v-5q0 -58 -33.5 -92t-100.5 -34q-65 0 -99 40t-34 106v8q0 108 55 180q30 41 75.5 56t115.5 15zM16 515h100q0 -46 31 -46h5q32 0 32 43v5q0 42 -37 42h-3
q-25 0 -39 -20l-86 29l9 212h250v-87h-166l-3 -54q25 7 46 7q63 0 95.5 -34.5t32.5 -92.5v-10q0 -59 -33.5 -93t-99.5 -34t-100 32t-34 93v8zM650 160q-22 0 -34 -18v-12q0 -51 32 -51h3q13 0 22.5 10t9.5 26v11q0 34 -30 34h-3z" />
    <glyph glyph-name="uni215B" unicode="&#x215b;" horiz-adv-x="800" 
d="M650 -8q-69 0 -101.5 36.5t-32.5 77.5v11q0 54 43 83q-40 28 -40 82v10q0 39 31 72t100 33t100 -33t31 -72v-10q0 -54 -40 -83q42 -29 42 -82v-11q0 -41 -32 -77.5t-101 -36.5zM164 0h-104l576 780h104zM287 390h-257v86h79v182l-48 -32l-50 71l122 82h76v-303h78v-86z
M647 155q-31 0 -31 -32v-5q0 -19 9 -29t22 -10h5q14 0 23 10t9 29v5q0 32 -32 32h-5zM652 310h-5q-12 0 -20.5 -8.5t-8.5 -21.5v-5q0 -32 31 -32h2q30 0 30 32v5q0 13 -8.5 21.5t-20.5 8.5z" />
    <glyph glyph-name="uni215C" unicode="&#x215c;" horiz-adv-x="800" 
d="M650 -8q-69 0 -101.5 36.5t-32.5 77.5v11q0 54 43 83q-40 28 -40 82v10q0 39 31 72t100 33t100 -33t31 -72v-10q0 -54 -40 -83q42 -29 42 -82v-11q0 -41 -32 -77.5t-101 -36.5zM164 0h-104l576 780h104zM116 515q0 -46 31 -46h5q14 0 23 10t9 29v5q0 32 -32 32h-52v88h51
q30 0 30 32v6q0 13 -8.5 21t-20.5 8h-5q-28 0 -28 -50h-100v9q0 128 131 128q69 0 100 -33t31 -72v-10q0 -54 -41 -83q43 -29 43 -83v-10q0 -41 -32 -77.5t-101 -36.5q-66 0 -100 32t-34 93v8h100zM647 155q-31 0 -31 -32v-5q0 -19 9 -29t22 -10h5q14 0 23 10t9 29v5
q0 32 -32 32h-5zM652 310h-5q-12 0 -20.5 -8.5t-8.5 -21.5v-5q0 -32 31 -32h2q30 0 30 32v5q0 13 -8.5 21.5t-20.5 8.5z" />
    <glyph glyph-name="uni215D" unicode="&#x215d;" horiz-adv-x="800" 
d="M650 -8q-69 0 -101.5 36.5t-32.5 77.5v11q0 54 43 83q-40 28 -40 82v10q0 39 31 72t100 33t100 -33t31 -72v-10q0 -54 -40 -83q42 -29 42 -82v-11q0 -41 -32 -77.5t-101 -36.5zM164 0h-104l576 780h104zM16 515h100q0 -46 31 -46h5q32 0 32 43v5q0 42 -37 42h-3
q-25 0 -39 -20l-86 29l9 212h250v-87h-166l-3 -54q25 7 46 7q63 0 95.5 -34.5t32.5 -92.5v-10q0 -59 -33.5 -93t-99.5 -34t-100 32t-34 93v8zM647 155q-31 0 -31 -32v-5q0 -19 9 -29t22 -10h5q14 0 23 10t9 29v5q0 32 -32 32h-5zM652 310h-5q-12 0 -20.5 -8.5t-8.5 -21.5v-5
q0 -32 31 -32h2q30 0 30 32v5q0 13 -8.5 21.5t-20.5 8.5z" />
    <glyph glyph-name="uni215E" unicode="&#x215e;" horiz-adv-x="800" 
d="M650 -8q-69 0 -101.5 36.5t-32.5 77.5v11q0 54 43 83q-40 28 -40 82v10q0 39 31 72t100 33t100 -33t31 -72v-10q0 -54 -40 -83q42 -29 42 -82v-11q0 -41 -32 -77.5t-101 -36.5zM164 0h-104l576 780h104zM13 640v140h273v-62l-133 -328h-107l129 304l-44 -1h-31v-53h-87z
M647 155q-31 0 -31 -32v-5q0 -19 9 -29t22 -10h5q14 0 23 10t9 29v5q0 32 -32 32h-5zM652 310h-5q-12 0 -20.5 -8.5t-8.5 -21.5v-5q0 -32 31 -32h2q30 0 30 32v5q0 13 -8.5 21.5t-20.5 8.5z" />
    <glyph glyph-name="uni215F" unicode="&#x215f;" horiz-adv-x="500" 
d="M164 0h-104l576 780h104zM287 390h-257v86h79v182l-48 -32l-50 71l122 82h76v-303h78v-86z" />
    <glyph glyph-name="arrowleft" unicode="&#x2190;" horiz-adv-x="920" 
d="M447 780h166l-331 -331h568v-118h-568l331 -331h-166l-390 390z" />
    <glyph glyph-name="arrowup" unicode="&#x2191;" horiz-adv-x="920" 
d="M70 237v166l390 390l390 -390v-166l-331 331v-568h-118v568z" />
    <glyph glyph-name="arrowright" unicode="&#x2192;" horiz-adv-x="920" 
d="M307 780h166l390 -390l-390 -390h-166l331 331h-568v118h568z" />
    <glyph glyph-name="arrowdown" unicode="&#x2193;" horiz-adv-x="920" 
d="M70 377v166l331 -331v568h118v-568l331 331v-166l-390 -390z" />
    <glyph glyph-name="uni2196" unicode="&#x2196;" horiz-adv-x="920" 
d="M188 0h-118v780h780v-118h-580l593 -592l-83 -83l-592 593v-580z" />
    <glyph glyph-name="uni2197" unicode="&#x2197;" horiz-adv-x="920" 
d="M70 662v118h780v-780h-118v580l-592 -593l-83 83l593 592h-580z" />
    <glyph glyph-name="uni2198" unicode="&#x2198;" horiz-adv-x="920" 
d="M70 0v118h580l-593 592l83 83l592 -593v580h118v-780h-780z" />
    <glyph glyph-name="uni2199" unicode="&#x2199;" horiz-adv-x="920" 
d="M850 118v-118h-780v780h118v-580l592 593l83 -83l-593 -592h580z" />
    <glyph glyph-name="minus" unicode="&#x2212;" horiz-adv-x="600" 
d="M44 331v118h512v-118h-512z" />
    <glyph glyph-name="approxequal" unicode="&#x2248;" horiz-adv-x="600" 
d="M182 366q55 0 126 -33.5t106 -33.5q49 0 92 51l63 -64q-57 -89 -151 -89q-55 0 -126 33.5t-106 33.5q-50 0 -92 -50l-63 63q57 89 151 89zM182 579q55 0 126 -34t106 -34q49 0 92 51l63 -63q-57 -89 -151 -89q-55 0 -126 33.5t-106 33.5q-49 0 -92 -51l-63 64
q57 89 151 89z" />
    <glyph glyph-name="notequal" unicode="&#x2260;" horiz-adv-x="600" 
d="M44 437v118h303l63 110h95l-63 -110h114v-118h-182l-54 -94h236v-118h-303l-63 -110h-95l63 110h-114v118h181l54 94h-235z" />
    <glyph glyph-name="equivalence" unicode="&#x2261;" horiz-adv-x="600" 
d="M44 331v118h512v-118h-512zM44 119v117h512v-117h-512zM44 544v117h512v-117h-512z" />
    <glyph glyph-name="lessequal" unicode="&#x2264;" horiz-adv-x="600" 
d="M556 558l-331 -100l331 -98v-130l-512 165v128l512 164v-129zM556 172v-79l-512 164v80z" />
    <glyph glyph-name="greaterequal" unicode="&#x2265;" horiz-adv-x="600" 
d="M44 360l331 98l-331 100v129l512 -164v-128l-512 -165v130zM44 93v79l512 165v-80z" />
    <glyph glyph-name="squaremultiply" unicode="&#x22a0;" horiz-adv-x="920" 
d="M850 0h-780v780h780v-780zM734 664h-548v-548h548v548zM312 159l-83 83l148 148l-148 148l83 83l148 -148l148 148l83 -83l-148 -148l148 -148l-83 -83l-148 148z" />
    <glyph glyph-name="house" unicode="&#x2302;" horiz-adv-x="850" 
d="M780 0h-710v450l355 340l355 -340v-450z" />
    <glyph glyph-name="blacksquare" unicode="&#x25a0;" horiz-adv-x="920" 
d="M850 0h-780v780h780v-780z" />
    <glyph glyph-name="blacksquare" unicode="&#xe740;" horiz-adv-x="920" 
d="M850 0h-780v780h780v-780z" />
    <glyph glyph-name="whitesquare" unicode="&#x25a1;" horiz-adv-x="920" 
d="M850 0h-780v780h780v-780zM734 664h-548v-548h548v548z" />
    <glyph glyph-name="blacksmallsquare" unicode="&#x25aa;" horiz-adv-x="680" 
d="M600 0h-530v530h530v-530z" />
    <glyph glyph-name="whitesmallsquare" unicode="&#x25ab;" horiz-adv-x="680" 
d="M70 530h530v-530h-530v530zM484 414h-298v-298h298v298z" />
    <glyph glyph-name="triagup" unicode="&#x25b2;" horiz-adv-x="930" 
d="M529 793l339 -793h-130l-273 650l-273 -650h-130l339 793h128z" />
    <glyph glyph-name="triagrt" unicode="&#x25ba;" horiz-adv-x="930" 
d="M873 454v-128l-793 -339v130l650 273l-650 273v130z" />
    <glyph glyph-name="triagdn" unicode="&#x25bc;" horiz-adv-x="930" 
d="M401 -13l-339 793h130l273 -651l273 651h130l-339 -793h-128z" />
    <glyph glyph-name="triaglf" unicode="&#x25c4;" horiz-adv-x="930" 
d="M57 454l793 339v-130l-651 -273l651 -273v-130l-793 339v128z" />
    <glyph glyph-name="whitecircle" unicode="&#x25cb;" horiz-adv-x="920" 
d="M57 390q0 166 118.5 284.5t284.5 118.5t284.5 -118.5t118.5 -284.5t-118.5 -284.5t-284.5 -118.5t-284.5 118.5t-118.5 284.5zM173 390q0 -119 84 -203t203 -84t203 84t84 203t-84 203t-203 84t-203 -84t-84 -203z" />
    <glyph glyph-name="whitecircle" unicode="&#x25ef;" horiz-adv-x="920" 
d="M57 390q0 166 118.5 284.5t284.5 118.5t284.5 -118.5t118.5 -284.5t-118.5 -284.5t-284.5 -118.5t-284.5 118.5t-118.5 284.5zM173 390q0 -119 84 -203t203 -84t203 84t84 203t-84 203t-203 84t-203 -84t-84 -203z" />
    <glyph glyph-name="blackcircle" unicode="&#x25cf;" horiz-adv-x="920" 
d="M57 390q0 166 118.5 284.5t284.5 118.5t284.5 -118.5t118.5 -284.5t-118.5 -284.5t-284.5 -118.5t-284.5 118.5t-118.5 284.5z" />
    <glyph glyph-name="uni25E2" unicode="&#x25e2;" horiz-adv-x="930" 
d="M897 45l-45 -46l-45 -44l-800 320l92 92l653 -269l-268 655l92 91z" />
    <glyph glyph-name="uni25E3" unicode="&#x25e3;" horiz-adv-x="930" 
d="M78 -1l-45 46l321 799l92 -91l-269 -655l654 269l92 -92l-800 -320z" />
    <glyph glyph-name="uni25E4" unicode="&#x25e4;" horiz-adv-x="930" 
d="M33 737l90 90l800 -321l-92 -92l-654 268l269 -653l-92 -92z" />
    <glyph glyph-name="uni25E5" unicode="&#x25e5;" horiz-adv-x="930" 
d="M897 737l-321 -800l-92 92l268 653l-653 -268l-92 92l800 321z" />
    <glyph glyph-name="uni2605" unicode="&#x2605;" horiz-adv-x="880" 
d="M440 180l-260 -190l99 307l-260 189h322l99 306l99 -306h322l-260 -189l99 -307z" />
    <glyph glyph-name="ballotboxwithx" unicode="&#x2612;" horiz-adv-x="680" 
d="M70 530h530v-530h-530v530zM484 414h-298v-298h298v298zM312 371l23 -23l23 23h83v-83l-23 -23l23 -23v-83h-83l-23 23l-23 -23h-83v83l23 23l-23 23v83h83z" />
    <glyph glyph-name="uni263C" unicode="&#x263c;" horiz-adv-x="960" 
d="M521 191l-42 -202l-42 202q0 -39 -29 -66q-9 -8 -30 -22.5t-29.5 -26t-8.5 -29.5q0 -9 3 -18t6 -13l3 -4q-22 6 -34 23.5t-12 38.5q0 30 21 51q41 41 41 95l-172 -113l113 172q-26 -26 -66 -26q-9 0 -31.5 4t-30.5 4q-24 0 -38.5 -12t-17.5 -24l-3 -12q-8 14 -8 28
q0 29 20.5 49t50.5 20t60.5 15t35.5 23l-202 42l202 42q-39 0 -66 29q-8 9 -22.5 30t-26 29.5t-29.5 8.5q-9 0 -18 -3t-13 -6l-4 -3q6 22 23.5 34t38.5 12q30 0 51 -21q41 -41 95 -41l-113 172l172 -113q-26 26 -26 66q0 9 4 31.5t4 30.5q0 24 -12 39t-24 17l-12 3
q14 8 28 8q29 0 49 -20.5t20 -50.5t15 -60.5t23 -35.5l42 202l42 -202q0 39 29 66q9 8 30 22.5t29.5 26t8.5 29.5q0 9 -3 18t-6 13l-3 4q22 -6 34 -23.5t12 -38.5q0 -30 -21 -51q-41 -41 -41 -95l172 113l-113 -172q26 26 66 26q9 0 31.5 -4t30.5 -4q24 0 39 12t17 24l3 12
q8 -14 8 -28q0 -29 -20.5 -49t-50.5 -20t-60.5 -15t-35.5 -23l202 -42l-202 -42q39 0 66 -29q8 -9 22.5 -30t26 -29.5t29.5 -8.5q9 0 18 3t13 6l4 3q-6 -22 -23.5 -34t-38.5 -12q-30 0 -51 21q-41 41 -95 41l113 -172l-172 113q26 -26 26 -66q0 -9 -4 -31.5t-4 -30.5
q0 -24 12 -39t24 -18l12 -2q-14 -8 -28 -8q-29 0 -49 20.5t-20 50.5t-15 60.5t-23 35.5z" />
    <glyph glyph-name="uni263E" unicode="&#x263e;" horiz-adv-x="960" 
d="M624 728q-134 0 -229 -99t-95 -239t95 -239t229 -99q50 0 96 15q-107 -77 -240 -77q-166 0 -283 117t-117 283t117 283t283 117q131 0 240 -77q-52 15 -96 15z" />
    <glyph glyph-name="spade" unicode="&#x2660;" horiz-adv-x="900" 
d="M451 790q32 -48 97 -116t136 -114q78 -51 121 -103t43 -123q0 -73 -51 -123.5t-125 -50.5q-69 0 -120.5 46t-79.5 115l-3 -1q8 -102 26.5 -174t55.5 -146h-202q37 74 55.5 146t26.5 174l-3 1q-28 -69 -79.5 -115t-120.5 -46q-74 0 -125 50.5t-51 123.5q0 71 43 123
t121 103q71 46 136 114t97 116h2z" />
    <glyph glyph-name="club" unicode="&#x2663;" horiz-adv-x="900" 
d="M349 0q37 74 55.5 146t26.5 174l-3 1q-28 -69 -79.5 -115t-120.5 -46q-74 0 -125 50.5t-51 123.5q0 79 48.5 129.5t125.5 50.5q40 0 84 -23l2 2q-38 57 -38 117q0 75 50.5 127.5t125.5 52.5t125.5 -52.5t50.5 -127.5q0 -60 -38 -117l2 -2q44 23 84 23q77 0 125.5 -50.5
t48.5 -129.5q0 -73 -51 -123.5t-125 -50.5q-69 0 -120.5 46t-79.5 115l-3 -1q8 -102 26.5 -174t55.5 -146h-202z" />
    <glyph glyph-name="heart" unicode="&#x2665;" horiz-adv-x="900" 
d="M451 -10h-2q-28 43 -94 126.5t-139 166.5q-164 185 -164 301q0 90 52 148t139 58q85 0 132.5 -42.5t72.5 -114.5h4q25 72 72.5 114.5t132.5 42.5q87 0 139 -58t52 -148q0 -116 -164 -301q-73 -83 -139 -166.5t-94 -126.5z" />
    <glyph glyph-name="diamond" unicode="&#x2666;" horiz-adv-x="900" 
d="M817 390q-106 -83 -202.5 -188.5t-163.5 -211.5h-2q-67 106 -163.5 211.5t-202.5 188.5q106 83 202.5 188.5t163.5 211.5h2q67 -106 163.5 -211.5t202.5 -188.5z" />
    <glyph glyph-name="uni267B" unicode="&#x267b;" horiz-adv-x="960" 
d="M863 266l1 -2l-96 -167q-15 -22 -21.5 -30t-24 -17t-42.5 -9h-57v-49l-113 136l113 135v-49h145q26 0 50 13t34 26zM186 122h-2l-96 168q-11 21 -15 32t-3 30.5t14 40.5l28 49l-42 24l174 31l59 -166l-41 24q-70 -120 -72 -125q-13 -23 -14 -50t4 -42zM404 779v1h193
q24 -1 36 -2.5t28 -12.5t28 -32l28 -49l43 24l-61 -166l-173 31l41 24l-72 125q-13 23 -36 37.5t-39 16.5zM200 598l67 119q10 17 34 31q46 24 97 10t68 -45l-116 -201zM446 41h-135q-22 0 -44 13q-43 25 -57.5 79.5t4.5 80.5h232v-173zM806 527l69 -117q10 -18 10 -44
q1 -48 -38 -87t-74 -39l-116 201z" />
    <glyph glyph-name="uni267C" unicode="&#x267c;" horiz-adv-x="960" 
d="M292 645l-52 -92l116 -67l90 156q-13 24 -52.5 34.5t-75.5 -7.5q-18 -11 -26 -24zM394 694v-1q48 -5 71 -44l56 -97l-32 -19l134 -24l47 129l-33 -19l-22 38q-14 24 -29.5 30.5t-41.5 6.5h-150zM322 121h105v134h-180q-15 -20 -3.5 -62.5t44.5 -61.5q17 -10 34 -10z
M228 184h1q-20 44 3 84l56 97l32 -19l-46 129l-135 -24l33 -19l-22 -38q-10 -16 -11 -31.5t2 -23.5t12 -25zM763 407l-53 91l-116 -67l90 -156q28 0 58 30t29 68q0 20 -8 34zM755 294l-1 1q-3 -4 -9 -11t-25.5 -18t-39.5 -11h-112v38l-88 -105l88 -105v38h44q28 0 41.5 10.5
t26.5 32.5zM64 390q0 164 116 280t280 116t280 -116t116 -280t-116 -280t-280 -116t-280 116t-116 280z" />
    <glyph glyph-name="uni267D" unicode="&#x267d;" horiz-adv-x="960" 
d="M240 553l52 92q8 13 26 24q36 18 75.5 7.5t52.5 -34.5l-90 -156zM394 693v1h150q26 0 41.5 -6.5t29.5 -30.5l22 -38l33 19l-47 -129l-134 24l32 19l-56 97q-10 17 -28 28t-31 13zM427 121h-105q-17 0 -34 10q-33 19 -44.5 61.5t3.5 62.5h180v-134zM229 184h-1l-75 130
q-9 17 -12 25t-2 23.5t11 31.5l22 38l-33 19l135 24l46 -129l-32 19l-56 -97q-10 -18 -11 -39t3 -33zM710 498l53 -91q8 -14 8 -34q1 -38 -29 -68t-58 -30l-90 156zM754 295l1 -1l-75 -130q-9 -15 -15 -22.5t-20 -14t-33 -6.5h-44v-38l-88 105l88 105v-38h112q20 0 38.5 10
t27.5 20zM60 390q0 166 117 283t283 117t283 -117t117 -283t-117 -283t-283 -117t-283 117t-117 283zM98 390q0 -150 106 -256t256 -106t256 106t106 256t-106 256t-256 106t-256 -106t-106 -256z" />
    <glyph glyph-name="mediumwhitecircle" unicode="&#x26aa;" horiz-adv-x="670" 
d="M57 265q0 115 81.5 196.5t196.5 81.5t196.5 -81.5t81.5 -196.5t-81.5 -196.5t-196.5 -81.5t-196.5 81.5t-81.5 196.5zM173 265q0 -67 47.5 -114.5t114.5 -47.5t114.5 47.5t47.5 114.5t-47.5 114.5t-114.5 47.5t-114.5 -47.5t-47.5 -114.5z" />
    <glyph glyph-name="mediumblackcircle" unicode="&#x26ab;" horiz-adv-x="670" 
d="M57 265q0 115 81.5 196.5t196.5 81.5t196.5 -81.5t81.5 -196.5t-81.5 -196.5t-196.5 -81.5t-196.5 81.5t-81.5 196.5z" />
    <glyph glyph-name="anglebracketleft" unicode="&#x3008;" horiz-adv-x="350" 
d="M327 840l-162 -480l162 -480h-135l-162 480l162 480h135z" />
    <glyph glyph-name="anglebracketright" unicode="&#x3009;" horiz-adv-x="350" 
d="M23 -120l162 480l-162 480h135l162 -480l-162 -480h-135z" />
    <glyph glyph-name="fi" unicode="&#xe38c;" horiz-adv-x="651" 
d="M234 613v-83h127v-114h-127v-416h-130v416h-81v114h81v98q0 185 185 185q56 0 82 -13v-108q-16 8 -51 8q-44 0 -65 -18.5t-21 -68.5zM461 0v530h130v-530h-130zM597 763v-141h-142v141h142z" />
    <glyph glyph-name="fi" unicode="&#xfb01;" horiz-adv-x="651" 
d="M234 613v-83h127v-114h-127v-416h-130v416h-81v114h81v98q0 185 185 185q56 0 82 -13v-108q-16 8 -51 8q-44 0 -65 -18.5t-21 -68.5zM461 0v530h130v-530h-130zM597 763v-141h-142v141h142z" />
    <glyph glyph-name="fl" unicode="&#xe38d;" horiz-adv-x="651" 
d="M234 613v-83h127v-114h-127v-416h-130v416h-81v114h81v98q0 185 185 185q56 0 82 -13v-108q-16 8 -51 8q-44 0 -65 -18.5t-21 -68.5zM461 0v800h130v-800h-130z" />
    <glyph glyph-name="fl" unicode="&#xfb02;" horiz-adv-x="651" 
d="M234 613v-83h127v-114h-127v-416h-130v416h-81v114h81v98q0 185 185 185q56 0 82 -13v-108q-16 8 -51 8q-44 0 -65 -18.5t-21 -68.5zM461 0v800h130v-800h-130z" />
    <glyph glyph-name="invertedbreve" unicode="&#xe411;" horiz-adv-x="500" 
d="M250 793q94 0 137.5 -51.5t41.5 -140.5h-96q0 91 -83 91t-83 -91h-96q-2 89 41.5 140.5t137.5 51.5z" />
    <glyph glyph-name="doublegrave" unicode="&#xe412;" horiz-adv-x="500" 
d="M21 780h117l91 -179h-105zM187 780h117l73 -179h-105z" />
    <glyph glyph-name="caronSlovak" unicode="&#xe413;" horiz-adv-x="500" 
d="M311 800h85l-23 -199h-62v199z" />
    <glyph glyph-name="commaaccent" unicode="&#xe414;" horiz-adv-x="602" 
d="M311 -47v-56q0 -62 -33 -91t-101 -29v49q66 0 81 41h-69v86h122z" />
    <glyph glyph-name="commaaccent" unicode="&#xf6c3;" horiz-adv-x="602" 
d="M311 -47v-56q0 -62 -33 -91t-101 -29v49q66 0 81 41h-69v86h122z" />
    <glyph glyph-name="dotbelow" unicode="&#xe415;" horiz-adv-x="602" 
d="M311 -62v-123h-122v123h122z" />
    <glyph glyph-name="altcedilla" unicode="&#xe416;" horiz-adv-x="602" 
d="M292 -122q0 26 -51 26q-35 0 -51 -7v49q38 10 68 10q48 0 78 -21.5t30 -63.5q0 -85 -114 -85q-67 0 -102 24l20 59q27 -16 71 -16q51 0 51 25z" />
    <glyph glyph-name="grave.cap" unicode="&#xe421;" horiz-adv-x="500" 
d="M122 950h137l56 -110h-130z" />
    <glyph glyph-name="acute.cap" unicode="&#xe422;" horiz-adv-x="500" 
d="M241 950h137l-63 -110h-130z" />
    <glyph glyph-name="circumflex.cap" unicode="&#xe423;" horiz-adv-x="500" 
d="M186 840h-120l119 110h130l119 -110h-120l-64 50z" />
    <glyph glyph-name="tilde.cap" unicode="&#xe424;" horiz-adv-x="500" 
d="M351 943h73q0 -57 -26 -83.5t-69 -26.5q-35 0 -82 25t-63 25q-35 0 -35 -36h-73q0 57 26 83.5t69 26.5q35 0 82 -25t63 -25q35 0 35 36z" />
    <glyph glyph-name="macron.cap" unicode="&#xe425;" horiz-adv-x="500" 
d="M112 853v84h276v-84h-276z" />
    <glyph glyph-name="breve.cap" unicode="&#xe426;" horiz-adv-x="500" 
d="M250 826q-171 0 -171 124h92q0 -49 79 -49t79 49h92q0 -124 -171 -124z" />
    <glyph glyph-name="invertedbreve.cap" unicode="&#xe427;" horiz-adv-x="500" 
d="M250 964q171 0 171 -124h-92q0 49 -79 49t-79 -49h-92q0 124 171 124z" />
    <glyph glyph-name="dotaccent.cap" unicode="&#xe428;" horiz-adv-x="500" 
d="M308 941v-92h-116v92h116z" />
    <glyph glyph-name="dieresis.cap" unicode="&#xe429;" horiz-adv-x="500" 
d="M224 941v-92h-117v92h117zM393 941v-92h-117v92h117z" />
    <glyph glyph-name="ring.cap" unicode="&#xe42a;" horiz-adv-x="500" 
d="M148 861q0 42 30 72t72 30t72 -30t30 -72q0 -43 -30 -72.5t-72 -29.5t-72 29.5t-30 72.5zM198 861q0 -22 15 -37.5t37 -15.5t37 15.5t15 37.5q0 21 -15 36.5t-37 15.5t-37 -15.5t-15 -36.5z" />
    <glyph glyph-name="hungarumlaut.cap" unicode="&#xe42b;" horiz-adv-x="500" 
d="M165 950h124l-57 -110h-118zM325 950h124l-63 -110h-118z" />
    <glyph glyph-name="doublegrave.cap" unicode="&#xe42c;" horiz-adv-x="500" 
d="M211 950h124l51 -110h-118zM51 950h124l57 -110h-118z" />
    <glyph glyph-name="caron.cap" unicode="&#xe42d;" horiz-adv-x="500" 
d="M66 950h120l64 -51l64 51h120l-119 -110h-130z" />
    <glyph glyph-name="commaaccent.cap" unicode="&#xe42e;" horiz-adv-x="500" 
d="M192 840v30q0 96 122 96v-36q-56 0 -69 -30h63v-60h-116z" />
    <glyph glyph-name="exclamdown.cap" unicode="&#xe441;" horiz-adv-x="250" 
d="M206 0h-162l36 564h90zM54 639v141h142v-141h-142z" />
    <glyph glyph-name="questiondown.cap" unicode="&#xe444;" horiz-adv-x="484" 
d="M238 103q51 0 71 39.5t20 124.5h132v-15q0 -130 -51 -197.5t-172 -67.5q-115 0 -166 56.5t-51 147.5q0 55 17 96t42.5 67.5t51 52t45 65t23.5 92.5h90q4 -54 -9 -101t-33.5 -80.5t-41.5 -62.5t-36.5 -59.5t-15.5 -58.5q0 -49 19 -74t65 -25zM174 639v141h142v-141h-142z
" />
    <glyph glyph-name="guilsinglleft.cap" unicode="&#xe451;" horiz-adv-x="313" 
d="M263 601v-117l-122 -94l122 -94v-117l-213 149v124z" />
    <glyph glyph-name="guilsinglright.cap" unicode="&#xe452;" horiz-adv-x="313" 
d="M50 484v117l213 -149v-124l-213 -149v117l122 94z" />
    <glyph glyph-name="guillemotleft.cap" unicode="&#xe453;" horiz-adv-x="550" 
d="M263 601v-117l-122 -94l122 -94v-117l-213 149v124zM500 601v-117l-122 -94l122 -94v-117l-212 149v124z" />
    <glyph glyph-name="guillemotright.cap" unicode="&#xe454;" horiz-adv-x="550" 
d="M50 484v117l213 -149v-124l-213 -149v117l122 94zM288 484v117l212 -149v-124l-212 -149v117l121 94z" />
    <glyph glyph-name="slash.cap" unicode="&#xe461;" horiz-adv-x="363" 
d="M149 0h-128l192 780h128z" />
    <glyph glyph-name="backslash.cap" unicode="&#xe462;" horiz-adv-x="363" 
d="M21 780h128l192 -780h-128z" />
    <glyph glyph-name="bar.cap" unicode="&#xe463;" horiz-adv-x="243" 
d="M57 0v780h128v-780h-128z" />
    <glyph glyph-name="doublebar.cap" unicode="&#xe464;" horiz-adv-x="418" 
d="M57 0v780h128v-780h-128zM233 0v780h127v-780h-127z" />
    <glyph glyph-name="brokenbar.cap" unicode="&#xe465;" horiz-adv-x="243" 
d="M57 417v363h128v-363h-128zM57 0v363h128v-363h-128z" />
    <glyph glyph-name="bullet.cap" unicode="&#xe466;" horiz-adv-x="430" 
d="M366 541v-302h-302v302h302z" />
    <glyph glyph-name="onethirdemdash" unicode="&#xe471;" horiz-adv-x="333" 
d="M293 293h-253v114h253v-114z" />
    <glyph glyph-name="threequarteremdash" unicode="&#xe472;" horiz-adv-x="750" 
d="M40 293v114h670v-114h-670z" />
    <glyph glyph-name="periodcentered.cap" unicode="&#xe481;" horiz-adv-x="250" 
d="M196 461v-142h-142v142h142z" />
    <glyph glyph-name="hyphen.cap" unicode="&#xe482;" horiz-adv-x="320" 
d="M40 333v114h265v-114h-265z" />
    <glyph glyph-name="onethirdemdash.cap" unicode="&#xe483;" horiz-adv-x="333" 
d="M293 333h-250v114h250v-114z" />
    <glyph glyph-name="endash.cap" unicode="&#xe484;" horiz-adv-x="500" 
d="M40 333v114h420v-114h-420z" />
    <glyph glyph-name="threequarteremdash.cap" unicode="&#xe485;" horiz-adv-x="750" 
d="M40 333v114h670v-114h-670z" />
    <glyph glyph-name="emdash.cap" unicode="&#xe486;" horiz-adv-x="1000" 
d="M40 333v114h920v-114h-920z" />
    <glyph glyph-name="figuredash.cap" unicode="&#xe487;" horiz-adv-x="600" 
d="M40 333v114h520v-114h-520z" />
    <glyph glyph-name="uni2015.cap" unicode="&#xe488;" horiz-adv-x="1200" 
d="M40 333v114h1120v-114h-1120z" />
    <glyph glyph-name="parenleft.cap" unicode="&#xe491;" horiz-adv-x="350" 
d="M49 380v20q0 224 121 380h136q-126 -182 -126 -380v-20q0 -198 126 -380h-136q-121 156 -121 380z" />
    <glyph glyph-name="parenright.cap" unicode="&#xe492;" horiz-adv-x="350" 
d="M301 400v-20q0 -226 -121 -380h-136q126 182 126 380v20q0 198 -126 380h136q121 -154 121 -380z" />
    <glyph glyph-name="bracketleft.cap" unicode="&#xe493;" horiz-adv-x="350" 
d="M61 780h254v-115h-124v-550h124v-115h-254v780z" />
    <glyph glyph-name="bracketright.cap" unicode="&#xe494;" horiz-adv-x="350" 
d="M290 0h-254v115h123v550h-123v115h254v-780z" />
    <glyph glyph-name="braceleft.cap" unicode="&#xe495;" horiz-adv-x="350" 
d="M315 780v-115q-40 0 -60.5 -18.5t-21.5 -62.5v-82q0 -80 -59 -112q59 -33 59 -112v-72q0 -49 20 -70t62 -21v-115h-25q-188 0 -188 166v83q0 46 -18.5 64.5t-59.5 18.5v116q41 0 59.5 18.5t18.5 64.5v83q0 166 188 166h25z" />
    <glyph glyph-name="braceright.cap" unicode="&#xe496;" horiz-adv-x="350" 
d="M36 665v115h24q188 0 188 -166v-83q0 -46 18.5 -64.5t59.5 -18.5v-116q-41 0 -59.5 -18.5t-18.5 -64.5v-83q0 -166 -188 -166h-24v115q41 0 61 21t20 70v72q0 79 58 112q-58 31 -58 112v72q0 49 -20 70t-61 21z" />
    <glyph glyph-name="anglebracketleft.cap" unicode="&#xe497;" horiz-adv-x="350" 
d="M304 780l-136 -390l136 -390h-135l-136 390l136 390h135z" />
    <glyph glyph-name="anglebracketright.cap" unicode="&#xe498;" horiz-adv-x="350" 
d="M182 390l-136 390h135l136 -390l-136 -390h-135z" />
    <glyph glyph-name="lowline" unicode="&#xe511;" horiz-adv-x="320" 
d="M44 0v114h232v-114h-232z" />
    <glyph glyph-name="underscoremonospace" unicode="&#xe512;" horiz-adv-x="600" 
d="M44 -169v114h512v-114h-512z" />
    <glyph glyph-name="underscoremonospace" unicode="&#xff3f;" horiz-adv-x="600" 
d="M44 -169v114h512v-114h-512z" />
    <glyph glyph-name="at.cap" unicode="&#xe513;" horiz-adv-x="981" 
d="M510 -24h6q184 0 329 107l51 -69q-161 -127 -383 -127q-217 0 -350.5 128t-133.5 355v40q0 227 132.5 355t346.5 128q92 0 170.5 -23.5t141 -70.5t98 -125t35.5 -179v-30q0 -87 -20 -148.5t-58.5 -94.5t-85 -47.5t-108.5 -14.5h-86l-11 63q-48 -76 -143 -76
q-93 0 -141 64.5t-48 168.5v30q0 104 48 168.5t141 64.5q96 0 143 -77l11 64h102l-8 -140v-243q93 4 132 49.5t39 168.5v30q0 69 -19.5 123t-52.5 88.5t-79 57t-94.5 31.5t-103.5 9h-6q-174 0 -280 -102.5t-106 -291.5v-40q0 -191 106.5 -292.5t284.5 -101.5zM574 308v174
q-36 58 -100 58q-51 0 -76 -34.5t-25 -95.5v-30q0 -61 25 -95.5t76 -34.5q64 0 100 58z" />
    <glyph glyph-name="zero.inf" unicode="&#xe571;" 
d="M281 -91q0 -52 -34.5 -84.5t-96.5 -32.5t-96.5 32.5t-34.5 84.5v171q0 52 34.5 84.5t96.5 32.5t96.5 -32.5t34.5 -84.5v-171zM181 80q0 14 -8.5 22t-21.5 8h-2q-14 0 -22.5 -8t-8.5 -22v-171q0 -13 8.5 -21.5t22.5 -8.5h2q13 0 21.5 8.5t8.5 21.5v171z" />
    <glyph glyph-name="one.inf" unicode="&#xe572;" 
d="M287 -200h-257v86h79v182l-48 -32l-50 71l122 82h76v-303h78v-86z" />
    <glyph glyph-name="two.inf" unicode="&#xe573;" 
d="M281 -114v-86h-262v63l142 159q20 22 20 41v5q0 42 -29 42h-5q-28 0 -28 -50h-100v9q0 128 131 128q69 0 100 -33.5t31 -76.5v-11q0 -33 -10 -54t-33 -47l-81 -89h124z" />
    <glyph glyph-name="three.inf" unicode="&#xe574;" 
d="M116 -75q0 -46 31 -46h5q14 0 23 10t9 29v5q0 32 -32 32h-52v88h51q30 0 30 32v6q0 13 -8.5 21t-20.5 8h-5q-28 0 -28 -50h-100v9q0 128 131 128q69 0 100 -33t31 -72v-10q0 -55 -41 -82q43 -29 43 -84v-10q0 -41 -32 -77.5t-101 -36.5q-66 0 -100 32t-34 93v8h100z" />
    <glyph glyph-name="four.inf" unicode="&#xe575;" 
d="M255 -200h-100v76h-143v71l149 243h94v-226h32v-88h-32v-76zM156 32l-43 -70l18 2h24v50z" />
    <glyph glyph-name="five.inf" unicode="&#xe576;" 
d="M16 -75h100q0 -46 31 -46h5q32 0 32 43v5q0 42 -37 42h-3q-25 0 -39 -20l-86 29l9 212h250v-87h-166l-3 -54q25 7 46 7q63 0 95.5 -34.5t32.5 -92.5v-10q0 -59 -33.5 -93t-99.5 -34t-100 32t-34 93v8z" />
    <glyph glyph-name="six.inf" unicode="&#xe577;" 
d="M262 197v-88q-83 0 -115 -38q-14 -17 -19 -37q22 12 49 12q49 0 77.5 -33.5t28.5 -89.5v-5q0 -58 -33.5 -92t-100.5 -34q-65 0 -99 40t-34 106v8q0 108 55 180q30 41 75.5 56t115.5 15zM150 -40q-22 0 -34 -18v-12q0 -51 32 -51h3q13 0 22.5 10t9.5 26v11q0 34 -30 34h-3
z" />
    <glyph glyph-name="seven.inf" unicode="&#xe578;" 
d="M13 50v140h273v-62l-133 -328h-107l129 304l-44 -1h-31v-53h-87z" />
    <glyph glyph-name="eight.inf" unicode="&#xe579;" 
d="M150 -208q-69 0 -101.5 36.5t-32.5 77.5v11q0 54 43 83q-40 28 -40 82v10q0 39 31 72t100 33t100 -33t31 -72v-10q0 -55 -40 -82q42 -29 42 -83v-11q0 -41 -32 -77.5t-101 -36.5zM147 -45q-31 0 -31 -32v-5q0 -19 9 -29t22 -10h5q14 0 23 10t9 29v5q0 32 -32 32h-5z
M152 110h-5q-12 0 -20.5 -8.5t-8.5 -21.5v-5q0 -32 31 -32h2q30 0 30 32v5q0 13 -8.5 21.5t-20.5 8.5z" />
    <glyph glyph-name="nine.inf" unicode="&#xe57a;" 
d="M37 -208v88q83 1 115 39q10 13 19 37q-24 -12 -49 -12q-48 0 -76.5 33.5t-28.5 89.5v5q0 58 33.5 91.5t99.5 33.5q65 0 99.5 -40t34.5 -106v-7q0 -106 -55 -181q-30 -40 -76 -55.5t-116 -15.5zM149 29q21 0 35 18v13q0 51 -32 51h-3q-13 0 -22.5 -10t-9.5 -27v-10
q0 -35 30 -35h2z" />
    <glyph glyph-name="plus.inf" unicode="&#xe57b;" 
d="M106 125h88v-86h86v-88h-86v-86h-88v86h-86v88h86v86z" />
    <glyph glyph-name="minus.inf" unicode="&#xe57c;" 
d="M20 -49v88h260v-88h-260z" />
    <glyph glyph-name="equal.inf" unicode="&#xe57d;" 
d="M20 7v87h260v-87h-260zM20 -104v87h260v-87h-260z" />
    <glyph glyph-name="parenleft.inf" unicode="&#xe57e;" horiz-adv-x="194" 
d="M18 -10v10q0 121 60 190h102q-63 -94 -63 -190v-10q0 -96 63 -190h-102q-60 67 -60 190z" />
    <glyph glyph-name="parenright.inf" unicode="&#xe57f;" horiz-adv-x="194" 
d="M174 0v-10q0 -124 -59 -190h-102q62 90 62 190v10q0 100 -62 190h102q59 -68 59 -190z" />
    <glyph glyph-name="Anocross" unicode="&#xe731;" horiz-adv-x="631" 
d="M223 784h185l205 -784h-144l-153 631l-153 -631h-145z" />
    <glyph glyph-name="idotaccent" unicode="&#xe785;" horiz-adv-x="250" 
d="M60 0v530h130v-530h-130zM196 763v-141h-142v141h142z" />
    <glyph glyph-name="interrobangdown" unicode="&#xe935;" horiz-adv-x="484" 
d="M200 314h73l8 -404q63 25 63 150h117v-16q0 -126 -51 -191.5t-172 -65.5q-113 0 -165 52.5t-52 133.5q0 54 17.5 94t42.5 65t51 48t45.5 56.5t22.5 77.5zM169 389v141h142v-141h-142zM154 -16q0 -58 48 -75l5 205q-18 -28 -26.5 -43t-17.5 -40t-9 -47z" />
    <glyph glyph-name="interrobangdown.cap" unicode="&#xe99b;" horiz-adv-x="484" 
d="M200 564h73l9 -454q60 24 60 157h119v-15q0 -130 -51 -197.5t-172 -67.5q-115 0 -166 56.5t-51 147.5q0 55 17 96t42.5 67.5t51 52t45 65t23.5 92.5zM164 639v141h142v-141h-142zM147 205q0 -80 55 -97l5 244q-5 -10 -17 -30t-17.5 -30.5t-12.5 -26.5t-10 -30.5t-3 -29.5
z" />
    <glyph glyph-name="registered.cap" unicode="&#xe99c;" horiz-adv-x="920" 
d="M57 390q0 166 118.5 284.5t284.5 118.5t284.5 -118.5t118.5 -284.5t-118.5 -284.5t-284.5 -118.5t-284.5 118.5t-118.5 284.5zM109 390q0 -146 102.5 -248.5t248.5 -102.5t248.5 102.5t102.5 248.5t-102.5 248.5t-248.5 102.5t-248.5 -102.5t-102.5 -248.5zM387 318v-163
h-117v470h224q67 0 112.5 -33t45.5 -115v-11q0 -98 -72 -131l72 -180h-124l-53 163h-88zM387 406h82q65 0 65 62v7q0 62 -65 62h-82v-131z" />
    <glyph glyph-name="period.T" unicode="&#xf182;" 
d="M221 141v-141h-142v141h142z" />
    <glyph glyph-name="comma.T" unicode="&#xf183;" 
d="M221 141v-111q0 -165 -153 -165v68q71 0 83 67h-72v141h142z" />
    <glyph glyph-name="colon.T" unicode="&#xf184;" 
d="M221 461v-142h-142v142h142zM221 141v-141h-142v141h142z" />
    <glyph glyph-name="semicolon.T" unicode="&#xf185;" 
d="M221 141v-111q0 -165 -153 -165v68q71 0 83 67h-72v141h142zM221 461v-142h-142v142h142z" />
    <glyph glyph-name="onesixteenth" unicode="&#xf215;" horiz-adv-x="1100" 
d="M164 0h-104l576 780h104zM1062 397v-88q-83 0 -115 -38q-14 -17 -19 -37q22 12 49 12q49 0 77.5 -33.5t28.5 -89.5v-5q0 -58 -33.5 -92t-100.5 -34q-65 0 -99 40t-34 106v8q0 108 55 180q30 41 75.5 56t115.5 15zM287 390h-257v86h79v182l-48 -32l-50 71l122 82h76v-303
h78v-86zM787 0h-257v86h79v182l-48 -32l-50 71l122 82h76v-303h78v-86zM950 160q-22 0 -34 -18v-12q0 -51 32 -51h3q13 0 22.5 10t9.5 26v11q0 34 -30 34h-3z" />
    <glyph glyph-name="threesixteenths" unicode="&#xf216;" horiz-adv-x="1100" 
d="M164 0h-104l576 780h104zM1062 397v-88q-83 0 -115 -38q-14 -17 -19 -37q22 12 49 12q49 0 77.5 -33.5t28.5 -89.5v-5q0 -58 -33.5 -92t-100.5 -34q-65 0 -99 40t-34 106v8q0 108 55 180q30 41 75.5 56t115.5 15zM116 515q0 -46 31 -46h5q14 0 23 10t9 29v5q0 32 -32 32
h-52v88h51q30 0 30 32v6q0 13 -8.5 21t-20.5 8h-5q-28 0 -28 -50h-100v9q0 128 131 128q69 0 100 -33t31 -72v-10q0 -54 -41 -83q43 -29 43 -83v-10q0 -41 -32 -77.5t-101 -36.5q-66 0 -100 32t-34 93v8h100zM787 0h-257v86h79v182l-48 -32l-50 71l122 82h76v-303h78v-86z
M950 160q-22 0 -34 -18v-12q0 -51 32 -51h3q13 0 22.5 10t9.5 26v11q0 34 -30 34h-3z" />
    <glyph glyph-name="fivesixteenths" unicode="&#xf217;" horiz-adv-x="1100" 
d="M164 0h-104l576 780h104zM1062 397v-88q-83 0 -115 -38q-14 -17 -19 -37q22 12 49 12q49 0 77.5 -33.5t28.5 -89.5v-5q0 -58 -33.5 -92t-100.5 -34q-65 0 -99 40t-34 106v8q0 108 55 180q30 41 75.5 56t115.5 15zM16 515h100q0 -46 31 -46h5q32 0 32 43v5q0 42 -37 42h-3
q-25 0 -39 -20l-86 29l9 212h250v-87h-166l-3 -54q25 7 46 7q63 0 95.5 -34.5t32.5 -92.5v-10q0 -59 -33.5 -93t-99.5 -34t-100 32t-34 93v8zM787 0h-257v86h79v182l-48 -32l-50 71l122 82h76v-303h78v-86zM950 160q-22 0 -34 -18v-12q0 -51 32 -51h3q13 0 22.5 10t9.5 26
v11q0 34 -30 34h-3z" />
    <glyph glyph-name="sevensixteenths" unicode="&#xf218;" horiz-adv-x="1100" 
d="M164 0h-104l576 780h104zM1062 397v-88q-83 0 -115 -38q-14 -17 -19 -37q22 12 49 12q49 0 77.5 -33.5t28.5 -89.5v-5q0 -58 -33.5 -92t-100.5 -34q-65 0 -99 40t-34 106v8q0 108 55 180q30 41 75.5 56t115.5 15zM787 0h-257v86h79v182l-48 -32l-50 71l122 82h76v-303h78
v-86zM13 640v140h273v-62l-133 -328h-107l129 304l-44 -1h-31v-53h-87zM950 160q-22 0 -34 -18v-12q0 -51 32 -51h3q13 0 22.5 10t9.5 26v11q0 34 -30 34h-3z" />
    <glyph glyph-name="ninesixteenths" unicode="&#xf219;" horiz-adv-x="1100" 
d="M164 0h-104l576 780h104zM37 382v88q83 1 115 39q11 14 19 37q-21 -12 -49 -12q-48 0 -76.5 33.5t-28.5 89.5v5q0 58 33.5 91.5t99.5 33.5q65 0 99.5 -40t34.5 -106v-7q0 -106 -55 -181q-30 -40 -76 -55.5t-116 -15.5zM1062 397v-88q-83 0 -115 -38q-14 -17 -19 -37
q22 12 49 12q49 0 77.5 -33.5t28.5 -89.5v-5q0 -58 -33.5 -92t-100.5 -34q-65 0 -99 40t-34 106v8q0 108 55 180q30 41 75.5 56t115.5 15zM787 0h-257v86h79v182l-48 -32l-50 71l122 82h76v-303h78v-86zM149 619q21 0 35 18v13q0 51 -32 51h-3q-13 0 -22.5 -10t-9.5 -27v-10
q0 -35 30 -35h2zM950 160q-22 0 -34 -18v-12q0 -51 32 -51h3q13 0 22.5 10t9.5 26v11q0 34 -30 34h-3z" />
    <glyph glyph-name="elevensixteenths" unicode="&#xf220;" horiz-adv-x="1400" 
d="M464 0h-104l576 780h104zM1362 397v-88q-83 0 -115 -38q-14 -17 -19 -37q22 12 49 12q49 0 77.5 -33.5t28.5 -89.5v-5q0 -58 -33.5 -92t-100.5 -34q-65 0 -99 40t-34 106v8q0 108 55 180q30 41 75.5 56t115.5 15zM1087 0h-257v86h79v182l-48 -32l-50 71l122 82h76v-303
h78v-86zM587 390h-257v86h79v182l-48 -32l-50 71l122 82h76v-303h78v-86zM287 390h-257v86h79v182l-48 -32l-50 71l122 82h76v-303h78v-86zM1250 160q-22 0 -34 -18v-12q0 -51 32 -51h3q13 0 22.5 10t9.5 26v11q0 34 -30 34h-3z" />
    <glyph glyph-name="thirteensixteenths" unicode="&#xf221;" horiz-adv-x="1400" 
d="M464 0h-104l576 780h104zM1362 397v-88q-83 0 -115 -38q-14 -17 -19 -37q22 12 49 12q49 0 77.5 -33.5t28.5 -89.5v-5q0 -58 -33.5 -92t-100.5 -34q-65 0 -99 40t-34 106v8q0 108 55 180q30 41 75.5 56t115.5 15zM416 515q0 -46 31 -46h5q14 0 23 10t9 29v5q0 32 -32 32
h-52v88h51q30 0 30 32v6q0 13 -8.5 21t-20.5 8h-5q-28 0 -28 -50h-100v9q0 128 131 128q69 0 100 -33t31 -72v-10q0 -54 -41 -83q43 -29 43 -83v-10q0 -41 -32 -77.5t-101 -36.5q-66 0 -100 32t-34 93v8h100zM287 390h-257v86h79v182l-48 -32l-50 71l122 82h76v-303h78v-86z
M1087 0h-257v86h79v182l-48 -32l-50 71l122 82h76v-303h78v-86zM1250 160q-22 0 -34 -18v-12q0 -51 32 -51h3q13 0 22.5 10t9.5 26v11q0 34 -30 34h-3z" />
    <glyph glyph-name="fifteensixteenths" unicode="&#xf222;" horiz-adv-x="1400" 
d="M464 0h-104l576 780h104zM1362 397v-88q-83 0 -115 -38q-14 -17 -19 -37q22 12 49 12q49 0 77.5 -33.5t28.5 -89.5v-5q0 -58 -33.5 -92t-100.5 -34q-65 0 -99 40t-34 106v8q0 108 55 180q30 41 75.5 56t115.5 15zM316 515h100q0 -46 31 -46h5q32 0 32 43v5q0 42 -37 42
h-3q-25 0 -39 -20l-86 29l9 212h250v-87h-166l-3 -54q25 7 46 7q63 0 95.5 -34.5t32.5 -92.5v-10q0 -59 -33.5 -93t-99.5 -34t-100 32t-34 93v8zM287 390h-257v86h79v182l-48 -32l-50 71l122 82h76v-303h78v-86zM1087 0h-257v86h79v182l-48 -32l-50 71l122 82h76v-303h78
v-86zM1250 160q-22 0 -34 -18v-12q0 -51 32 -51h3q13 0 22.5 10t9.5 26v11q0 34 -30 34h-3z" />
    </font>
</defs>
</svg>
