<?xml version="1.0" standalone="no"?>
<!DOCTYPE svg PUBLIC "-//W3C//DTD SVG 1.1//EN" "http://www.w3.org/Graphics/SVG/1.1/DTD/svg11.dtd" >
<svg>
<metadata>
Created by FontForge 20110222 at Sat Jun 28 09:17:50 2014
 By Orthosie Webhosting
weknow (c) (weknow.deviantart.com). 2012. All Rights Reserved
</metadata>
<defs>
<font id="OPTICALFIBER" horiz-adv-x="1139" >
  <font-face 
    font-family="OPTICAL FIBER"
    font-weight="400"
    font-stretch="normal"
    units-per-em="2048"
    panose-1="2 0 0 0 0 0 0 0 0 0"
    ascent="1638"
    descent="-410"
    x-height="904"
    cap-height="1396"
    bbox="50 -502 1510 1625"
    underline-thickness="150"
    underline-position="-142"
    unicode-range="U+0020-F005"
  />
<missing-glyph horiz-adv-x="1124" 
d="M50 0v1280h1024v-1280h-1024zM82 32h960v1216h-960v-1216z" />
    <glyph glyph-name=".notdef" horiz-adv-x="1124" 
d="M50 0v1280h1024v-1280h-1024zM82 32h960v1216h-960v-1216z" />
    <glyph glyph-name=".null" horiz-adv-x="0" 
 />
    <glyph glyph-name="nonmarkingreturn" horiz-adv-x="569" 
 />
    <glyph glyph-name="space" unicode=" " horiz-adv-x="569" 
 />
    <glyph glyph-name="space" unicode="&#xa0;" horiz-adv-x="569" 
 />
    <glyph glyph-name="exclam" unicode="!" horiz-adv-x="140" 
d="M62 1448h16l12 -12v-1120l-12 -12h-16l-12 12v1120zM70 196q18 -8 20 -16v-168l-12 -12h-16l-12 12v168q2 8 20 16z" />
    <glyph glyph-name="quotedbl" unicode="&#x22;" horiz-adv-x="368" 
d="M74 1384h52l12 -12v-168q-42 -75 -60 -92h-16l-12 12v8q0 14 28 56v4q-12 0 -20 16v160zM254 1384h52l12 -12v-160q-7 -36 -60 -100h-16l-12 12v16l28 52h-4q-16 7 -16 28v136q0 22 16 28z" />
    <glyph glyph-name="numbersign" unicode="#" horiz-adv-x="1200" 
d="M558 1384h20q9 0 12 -20l-80 -424h280q78 436 88 436l8 8h16q9 0 12 -20l-80 -424h280q31 0 36 -16v-16l-12 -12h-316l-76 -404h288q22 0 32 -20v-8l-16 -16h-312q-80 -418 -92 -448h-24q-9 0 -12 20l84 428h-276q-9 0 -64 -312q-24 -128 -36 -136h-20q-9 0 -12 20
l80 428h-304l-12 12v16q5 16 36 16h292l76 404h-304l-16 16v8q10 20 32 20h292q11 0 64 312q25 132 36 132zM498 896l-76 -404h280l76 404h-280z" />
    <glyph glyph-name="dollar" unicode="$" horiz-adv-x="1200" 
d="M590 1625h20q12 -4 12 -24v-212q284 0 464 -188q64 -78 64 -156v-24q-4 -12 -24 -12q-17 0 -28 92q-57 128 -220 192q-130 52 -256 52v-632q528 -60 528 -328v-40q0 -183 -284 -300q-129 -44 -244 -44v-212q0 -21 -12 -24h-20q-12 4 -12 24v212q-284 0 -464 188
q-64 78 -64 156v24q4 12 24 12q17 0 28 -92q57 -129 220 -192q130 -52 256 -52v632q-528 59 -528 328v40q0 183 284 300q129 44 244 44v212q3 24 12 24zM90 1029q0 -190 236 -256q64 -24 252 -52v624h-4q-238 0 -416 -156q-68 -83 -68 -160zM622 669v-624h4q238 0 416 156
q68 82 68 160q0 190 -236 256q-64 24 -252 52z" />
    <glyph glyph-name="percent" unicode="%" horiz-adv-x="1208" 
d="M771 1383q8 -2 16 -20l-365 -1359l-4 -4h-20q-8 2 -16 20l365 1359l4 4h20zM262 1368q148 0 208 -164l4 -40v-28q0 -128 -160 -192l-44 -4h-16q-148 0 -204 176v48q0 138 160 196zM94 1164v-24q0 -123 152 -156h24q125 0 160 148v32q0 112 -132 156l-40 4
q-164 -30 -164 -160zM934 428h24q146 0 200 -180v-52q0 -130 -168 -192l-48 -4q-139 0 -204 160l-4 44v28q0 125 152 188zM778 228v-24q0 -108 128 -156l40 -4q120 0 164 128l4 20v36q0 121 -152 156h-24q-109 0 -156 -124z" />
    <glyph glyph-name="ampersand" unicode="&#x26;" horiz-adv-x="1288" 
d="M574 1384h56q248 0 364 -224q24 -66 24 -124v-12q0 -220 -240 -300q-81 -28 -244 -52q323 -239 432 -328l112 -100q28 54 28 96v24q0 82 -44 140v12l16 16h12q60 -60 60 -164v-24q0 -67 -44 -136q110 -115 132 -184v-8q-6 -16 -28 -16q-57 94 -132 176
q-67 -104 -336 -168l-108 -8h-64q-252 0 -448 184q-72 81 -72 160v32q0 249 372 320h8q-232 194 -232 348v20q0 169 180 280q99 40 196 40zM242 1060v-12q0 -157 248 -340q213 32 316 72q168 74 168 240v12q0 217 -240 292q-48 16 -108 16h-60q-231 0 -308 -196
q-16 -49 -16 -84zM94 380v-36q0 -162 308 -276q105 -24 172 -24h52q243 0 412 148l12 16q-240 221 -500 392l-72 60q-384 -57 -384 -280z" />
    <glyph glyph-name="quotesingle" unicode="'" horiz-adv-x="188" 
d="M74 1382h52l12 -12v-168q-42 -76 -60 -92h-16l-12 12v8q0 13 28 56v4q-12 0 -20 16v160z" />
    <glyph glyph-name="parenleft" unicode="(" horiz-adv-x="408" 
d="M346 1623l12 -12v-8l-96 -184q-168 -369 -168 -672v-16l-4 -32q0 -430 268 -911v-12l-12 -12h-16q-73 94 -176 359q-104 291 -104 540v76q0 418 272 880l4 4h20z" />
    <glyph glyph-name="parenright" unicode=")" horiz-adv-x="408" 
d="M62 1625h16q63 -83 144 -268q136 -330 136 -616v-76q0 -418 -272 -895l-4 -4h-20l-12 12v8l100 196q168 386 168 719l-4 32v16q0 388 -264 852v12z" />
    <glyph glyph-name="asterisk" unicode="*" horiz-adv-x="596" 
d="M290 1380h16l12 -12v-236q184 110 208 116h8l12 -12v-16l-200 -124l200 -124v-16l-12 -12h-8l-228 124h-4q-197 -116 -224 -124h-8l-12 12v16l200 124l-200 124v16l12 12h8q24 -6 208 -116v236z" />
    <glyph glyph-name="plus" unicode="+" horiz-adv-x="932" 
d="M458 1111h16l12 -12v-384h384l12 -12v-16l-12 -12h-384v-384l-12 -12h-16l-12 12v384h-384l-12 12v16l12 12h384v384z" />
    <glyph glyph-name="comma" unicode="," horiz-adv-x="188" 
d="M74 120h52l12 -12v-167q-42 -76 -60 -92h-16l-12 12v8q0 13 28 56v4q-12 0 -20 16v159z" />
    <glyph glyph-name="hyphen" unicode="-" horiz-adv-x="932" 
d="M62 705h808l12 -12v-16l-12 -12h-808l-12 12v16z" />
    <glyph glyph-name="hyphen" unicode="&#xad;" horiz-adv-x="932" 
d="M62 705h808l12 -12v-16l-12 -12h-808l-12 12v16z" />
    <glyph glyph-name="period" unicode="." horiz-adv-x="140" 
d="M62 192h16l12 -12v-168l-12 -12h-16l-12 12v168z" />
    <glyph glyph-name="slash" unicode="/" horiz-adv-x="500" 
d="M438 1384l12 -12q0 -36 -364 -1368l-4 -4h-20l-12 12q0 36 364 1368l4 4h20z" />
    <glyph glyph-name="zero" unicode="0" horiz-adv-x="1112" 
d="M534 1388h44q244 0 412 -244q72 -120 72 -240v-420q0 -244 -244 -412q-120 -72 -240 -72h-44q-244 0 -412 244q-72 120 -72 240v420q0 244 244 412q120 72 240 72zM94 900v-412q0 -249 264 -404q100 -40 180 -40h36q249 0 404 264q40 101 40 180v412q0 249 -264 404
q-100 40 -180 40h-36q-249 0 -404 -264q-40 -101 -40 -180z" />
    <glyph glyph-name="one" unicode="1" horiz-adv-x="328" 
d="M250 1384h16l12 -12v-1360l-12 -12h-16q-16 5 -16 36v1140h-4q-44 -96 -156 -160h-8l-16 16v16q122 73 168 204q16 48 20 124z" />
    <glyph glyph-name="two" unicode="2" horiz-adv-x="1124" 
d="M506 1388h52q217 0 380 -192q76 -108 76 -232q0 -321 -404 -512q-406 -187 -468 -280q-44 -61 -44 -128l960 4q16 -6 16 -12v-16l-16 -16l-964 -4h-32l-12 12v28q0 214 416 388q374 169 456 336q48 107 48 208q0 231 -276 348q-77 24 -140 24h-52q-204 0 -356 -188
q-56 -101 -56 -196l-16 -12h-8l-16 16v24q0 219 260 356q104 44 196 44z" />
    <glyph glyph-name="three" unicode="3" horiz-adv-x="1060" 
d="M498 1372h64q213 0 372 -160q76 -89 76 -176v-32q0 -191 -276 -308l-36 -8v-4q202 -62 276 -188q36 -76 36 -120v-40q0 -183 -268 -304q-108 -32 -180 -32h-64q-213 0 -372 160q-76 89 -76 176v24l16 16h8q18 0 28 -96q44 -113 184 -188q119 -48 224 -48h40
q206 0 348 140q68 77 68 156v32q0 138 -196 240q-126 56 -256 56l-4 4v24q0 13 132 20q127 32 200 84q124 98 124 200v32q0 161 -228 260q-88 36 -188 36h-40q-238 0 -376 -176q-44 -67 -44 -144l-16 -12h-8l-16 16v24q0 183 268 304q108 32 180 32z" />
    <glyph glyph-name="four" unicode="4" horiz-adv-x="1112" 
d="M198 1384h16q12 0 12 -16l-128 -820h920v800q0 31 16 36h16l12 -12v-1360l-12 -12h-16q-16 5 -16 36v468h-956l-12 12q0 46 136 860z" />
    <glyph glyph-name="five" unicode="5" horiz-adv-x="1112" 
d="M186 1388h864l12 -12v-16q-5 -16 -36 -16h-816v-4l-104 -636q167 168 424 168q321 0 488 -248q44 -91 44 -168v-36q0 -216 -252 -364q-120 -56 -236 -56h-36q-246 0 -412 204q-76 107 -76 216v24q2 8 20 16q24 0 24 -76q10 -75 84 -180q159 -160 352 -160h52
q215 0 368 184q68 98 68 184v52q0 148 -160 268q-143 96 -340 96q-261 0 -412 -196q-21 -35 -28 -36h-16l-12 12q0 37 124 772z" />
    <glyph glyph-name="six" unicode="6" horiz-adv-x="1112" 
d="M538 1388h36q246 0 412 -204q76 -106 76 -216v-24q-2 -8 -20 -16q-24 0 -24 76q-45 171 -152 244q-146 96 -284 96h-52q-215 0 -368 -184q-68 -98 -68 -184v-356h4q64 135 240 212q113 44 220 44q281 0 448 -236q56 -102 56 -176v-44q0 -216 -252 -364q-120 -56 -236 -56
h-36q-246 0 -412 204q-76 107 -76 216v548q0 216 252 364q120 56 236 56zM94 460v-48q0 -176 216 -312q122 -56 220 -56h52q215 0 368 184q68 98 68 184v48q0 172 -208 308q-132 64 -252 64q-279 0 -428 -236q-36 -82 -36 -136z" />
    <glyph glyph-name="seven" unicode="7" horiz-adv-x="1112" 
d="M62 1388h988l12 -12v-12q-368 -969 -524 -1360l-4 -4h-20l-12 12v8l508 1324h-924q-31 0 -36 16v16z" />
    <glyph glyph-name="eight" unicode="8" horiz-adv-x="1112" 
d="M534 1388h44q189 0 316 -184q48 -80 48 -168v-4q0 -218 -228 -328h-4q0 -7 96 -32q256 -122 256 -300v-32q0 -191 -296 -312q-110 -28 -172 -28h-76q-208 0 -380 152q-88 96 -88 188v32q0 191 288 312q64 11 64 20q-128 46 -196 176q-36 66 -36 152v4q0 208 224 320
q72 32 140 32zM214 1032v-4q0 -217 256 -304l92 -8q195 0 304 180q32 63 32 132v4q0 220 -256 304l-68 8h-36q-185 0 -292 -180q-32 -60 -32 -132zM94 368v-28q0 -140 204 -244q117 -52 224 -52h68q217 0 372 160q56 74 56 136v28q0 182 -292 284q-97 20 -172 20
q-303 0 -440 -216q-20 -48 -20 -88z" />
    <glyph glyph-name="nine" unicode="9" horiz-adv-x="1112" 
d="M538 1388h36q246 0 412 -204q76 -106 76 -216v-548q0 -216 -252 -364q-120 -56 -236 -56h-36q-246 0 -412 204q-76 107 -76 216v24q2 8 20 16q24 0 24 -76q10 -75 84 -180q159 -160 352 -160h52q215 0 368 184q68 98 68 184v356h-4q-64 -135 -240 -212q-113 -44 -220 -44
q-281 0 -448 236q-56 102 -56 176v44q0 216 252 364q120 56 236 56zM94 976v-48q0 -172 208 -308q133 -64 252 -64q256 0 408 204q56 94 56 168v48q0 176 -216 312q-122 56 -220 56h-52q-215 0 -368 -184q-68 -98 -68 -184z" />
    <glyph glyph-name="colon" unicode=":" horiz-adv-x="140" 
d="M62 1123h16l12 -12v-168l-12 -12h-16l-12 12v168zM62 451h16l12 -12v-168l-12 -12h-16l-12 12v168z" />
    <glyph glyph-name="semicolon" unicode=";" horiz-adv-x="188" 
d="M74 1123h16l12 -12v-168l-12 -12h-16l-16 16v160zM82 455h36q18 -8 20 -16v-160q-8 -36 -60 -100h-16l-12 12v8q0 13 28 56v4q-20 0 -20 28v148q12 20 24 20z" />
    <glyph glyph-name="semicolon" unicode="&#x37e;" horiz-adv-x="188" 
d="M74 1123h16l12 -12v-168l-12 -12h-16l-16 16v160zM82 455h36q18 -8 20 -16v-160q-8 -36 -60 -100h-16l-12 12v8q0 13 28 56v4q-20 0 -20 28v148q12 20 24 20z" />
    <glyph glyph-name="less" unicode="&#x3c;" horiz-adv-x="1000" 
d="M930 1208h8l12 -12v-16q-47 -39 -596 -352l-236 -144l828 -488l4 -4v-20l-12 -12h-8q-49 21 -440 252q-404 235 -440 264v16q47 39 596 352q266 164 284 164z" />
    <glyph glyph-name="equal" unicode="=" horiz-adv-x="932" 
d="M62 1042h808l12 -12v-16q-6 -16 -28 -16h-776q-21 0 -28 16v16zM78 374h776q22 0 28 -16v-16l-12 -12h-808l-12 12v16q7 16 28 16z" />
    <glyph glyph-name="greater" unicode="&#x3e;" horiz-adv-x="1000" 
d="M62 1205h8q49 -21 440 -252q404 -234 440 -264v-16q-47 -38 -596 -352q-266 -164 -284 -164h-8l-12 12v16q47 39 596 352l236 144l-828 488l-4 4v20z" />
    <glyph glyph-name="question" unicode="?" horiz-adv-x="1124" 
d="M534 1383h56q277 0 440 -208q44 -69 44 -132v-40q0 -232 -256 -360q-178 -110 -212 -228q-16 -36 -24 -168l-12 -8h-16l-12 12v40q0 258 284 404q204 117 204 304v44q0 147 -228 256q-124 40 -204 40h-72q-219 0 -376 -160q-56 -73 -56 -136v-52q0 -87 40 -140v-12
l-16 -16h-12q-56 51 -56 172v48q0 186 280 304q108 36 204 36zM562 192q24 -8 24 -32v-128q0 -31 -16 -36h-16l-12 12v168q2 8 20 16z" />
    <glyph glyph-name="at" unicode="@" horiz-adv-x="1532" 
d="M718 1380h52q325 0 560 -316q112 -176 112 -392v-164q0 -141 -156 -184l-32 -4q-122 0 -176 140l-4 32v140q0 274 -200 356q-67 28 -132 28q-204 0 -308 -220q-16 -60 -16 -104v-8q0 -226 252 -312l100 -8h224l16 -16v-12q-6 -16 -28 -16h-208q-295 0 -388 272
q-12 48 -12 88v16q0 234 260 348l112 16q219 0 336 -220q36 -59 36 -216v-136q0 -77 100 -116l44 -8q88 0 128 100q8 16 8 44v164q0 413 -392 612q-127 52 -228 52h-28l-4 4l-4 -4h-20q-320 0 -540 -316q-88 -163 -88 -312v-16l-4 -4l4 -4v-32q0 -254 240 -468
q122 -101 320 -136q74 -8 188 -8h628l12 -12v-16l-12 -12h-752q-291 0 -520 260q-148 194 -148 400v52q0 303 284 536q194 132 384 132z" />
    <glyph glyph-name="A" unicode="A" horiz-adv-x="1204" 
d="M598 1384q19 -18 328 -800q228 -543 228 -568v-4l-12 -12h-16q-12 0 -128 300l-156 372h-492q-20 -26 -228 -584q-31 -79 -44 -88h-16l-12 12v12q500 1310 524 1356l4 4h20zM586 1300l-224 -584h464q-209 530 -240 584z" />
    <glyph glyph-name="B" unicode="B" horiz-adv-x="1200" 
d="M62 1384h572q152 0 276 -164q56 -91 56 -196q0 -196 -188 -308v-4h32q196 0 312 -212q28 -68 28 -128v-32q0 -197 -212 -312q-68 -28 -128 -28h-748l-12 12v1360zM94 1340v-628h436q213 0 284 80q108 97 108 240q0 207 -228 300l-64 8h-536zM94 668v-624h720
q171 0 276 200l16 92v40q0 164 -180 264q-60 28 -112 28h-720z" />
    <glyph glyph-name="C" unicode="C" horiz-adv-x="1164" 
d="M574 1384h52q252 0 444 -256q44 -82 44 -104v-4l-12 -12h-16q-6 0 -56 100q-172 232 -408 232h-44q-214 0 -380 -196q-104 -141 -104 -288v-328q0 -214 196 -380q141 -104 288 -104h44q243 0 412 240q46 92 52 92h16l12 -12v-4q-6 -68 -120 -196q-173 -164 -368 -164h-52
q-241 0 -432 240q-92 149 -92 284v336q0 248 244 432q142 92 280 92z" />
    <glyph glyph-name="D" unicode="D" horiz-adv-x="1200" 
d="M62 1384h564q248 0 432 -244q92 -141 92 -280v-336q0 -248 -244 -432q-141 -92 -280 -92h-564l-12 12v1360zM94 1340v-1296h528q214 0 380 196q104 141 104 288v328q0 214 -196 380q-141 104 -288 104h-528z" />
    <glyph glyph-name="E" unicode="E" horiz-adv-x="1200" 
d="M62 1384h1076l12 -12v-16q-5 -16 -36 -16h-1020v-628h516q12 -4 12 -24t-36 -20h-492v-624h1020q31 0 36 -16v-16l-12 -12h-1076l-12 12v1360z" />
    <glyph glyph-name="F" unicode="F" horiz-adv-x="1200" 
d="M62 1384h1076l12 -12v-16q-5 -16 -36 -16h-1020v-628h516q12 -4 12 -24t-36 -20h-492v-632q0 -31 -16 -36h-16l-12 12v1360z" />
    <glyph glyph-name="G" unicode="G" horiz-adv-x="1200" 
d="M574 1384h564l12 -12v-16q-5 -16 -36 -16h-536q-214 0 -380 -196q-104 -141 -104 -288v-328q0 -214 196 -380q141 -104 288 -104h528v628h-516q-12 4 -12 24t36 20h500q31 0 36 -16v-688l-12 -12h-564q-248 0 -432 244q-92 141 -92 280v336q0 248 244 432q141 92 280 92z
" />
    <glyph glyph-name="H" unicode="H" horiz-adv-x="1200" 
d="M62 1408h16q16 -6 16 -28v-656h1012v656q0 22 16 28h16l12 -12v-1384l-12 -12h-16q-16 7 -16 28v656h-1012v-656q0 -21 -16 -28h-16l-12 12v1384z" />
    <glyph glyph-name="I" unicode="I" horiz-adv-x="140" 
d="M62 1396h16l12 -12v-1372l-12 -12h-16l-12 12v1372z" />
    <glyph glyph-name="J" unicode="J" horiz-adv-x="1200" 
d="M734 1368h404l12 -12v-832q0 -252 -248 -436q-141 -88 -276 -88h-52q-247 0 -436 244q-88 148 -88 280v32l16 16h8q20 -10 20 -32v-20q0 -221 224 -396q141 -80 252 -80h24l4 -4l4 4h28q221 0 396 224q80 141 80 252v808h-372l-12 12v16z" />
    <glyph glyph-name="K" unicode="K" horiz-adv-x="1100" 
d="M62 1384h16q16 -5 16 -36v-608h4l928 644h12l12 -12v-16q-10 -14 -912 -640l-28 -24v-4q923 -639 940 -660v-16l-12 -12h-16l-928 648v-616q0 -24 -24 -32q-18 8 -20 16v1356z" />
    <glyph glyph-name="L" unicode="L" horiz-adv-x="1200" 
d="M62 1384h16q16 -5 16 -36v-1304h1020q31 0 36 -16v-16l-12 -12h-1076l-12 12v1360z" />
    <glyph glyph-name="M" unicode="M" horiz-adv-x="1200" 
d="M62 1384h16l524 -656q457 585 520 656h16l12 -12v-1360l-12 -12h-16q-16 5 -16 36v1260l-496 -624h-16q-57 57 -488 616l-12 8v-1260q0 -31 -16 -36h-16l-12 12v1360z" />
    <glyph glyph-name="N" unicode="N" horiz-adv-x="1200" 
d="M62 1384h16q64 -72 1024 -1296h4v1260q0 31 16 36h16l12 -12v-1360l-12 -12h-16q-64 72 -1024 1296h-4v-1260q0 -31 -16 -36h-16l-12 12v1360z" />
    <glyph glyph-name="O" unicode="O" horiz-adv-x="1200" 
d="M574 1384h52q248 0 432 -244q92 -141 92 -280v-336q0 -248 -244 -432q-141 -92 -280 -92h-52q-248 0 -432 244q-92 141 -92 280v336q0 248 244 432q141 92 280 92zM94 856v-328q0 -214 196 -380q141 -104 288 -104h44q214 0 380 196q104 141 104 288v328q0 214 -196 380
q-141 104 -288 104h-44q-214 0 -380 -196q-104 -141 -104 -288z" />
    <glyph glyph-name="P" unicode="P" horiz-adv-x="1200" 
d="M62 1384h748q196 0 312 -212q28 -68 28 -128v-32q0 -197 -212 -312q-68 -28 -128 -28h-716v-636q0 -31 -16 -36h-16l-12 12v1360zM94 1340v-624h720q171 0 276 200l16 92v40q0 164 -180 264q-60 28 -112 28h-720z" />
    <glyph glyph-name="Q" unicode="Q" horiz-adv-x="1200" 
d="M574 1384h52q248 0 432 -244q92 -141 92 -280v-336q0 -243 -240 -432q113 -52 232 -52l8 -12v-16l-12 -12h-40q-93 0 -236 64q-126 -64 -236 -64h-52q-248 0 -432 244q-92 141 -92 280v336q0 248 244 432q141 92 280 92zM94 856v-328q0 -214 196 -380q141 -104 288 -104
h44q92 0 200 48v4q-244 170 -244 460q8 16 24 16q18 -8 20 -16v-4q0 -267 240 -436q155 87 224 288q20 61 20 124v328q0 214 -196 380q-141 104 -288 104h-44q-214 0 -380 -196q-104 -141 -104 -288z" />
    <glyph glyph-name="R" unicode="R" horiz-adv-x="1200" 
d="M62 1382h748q201 0 316 -220q24 -66 24 -120v-32q0 -193 -208 -308l-56 -20v-4q116 -40 212 -184q52 -104 52 -188v-294l-12 -12h-16q-16 7 -16 28v274q0 205 -220 332q-84 36 -192 36h-600v-642q0 -21 -16 -28h-16l-12 12v1358zM94 1342v-628h708q168 0 268 164
q36 71 36 128v32q0 196 -216 288q-55 16 -168 16h-628z" />
    <glyph glyph-name="S" unicode="S" horiz-adv-x="1200" 
d="M570 1384h60q239 0 420 -148q100 -99 100 -188v-28l-12 -12h-16q-10 0 -28 96q-31 78 -136 148q-164 88 -324 88h-68q-236 0 -408 -156q-68 -80 -68 -156q0 -186 224 -256q124 -35 512 -96q324 -84 324 -296v-44q0 -161 -256 -284q-138 -52 -264 -52h-60q-239 0 -420 148
q-100 99 -100 188v28l12 12h16q10 0 28 -96q16 -61 140 -152q168 -84 320 -84h68q236 0 408 156q68 80 68 156q0 186 -224 256q-124 35 -512 96q-324 84 -324 296v44q0 161 256 284q138 52 264 52z" />
    <glyph glyph-name="T" unicode="T" horiz-adv-x="1200" 
d="M62 1384h1076l12 -12v-16q-5 -16 -36 -16h-492v-1316q0 -21 -12 -24h-20q-12 4 -12 24v1316h-492q-31 0 -36 16v16z" />
    <glyph glyph-name="U" unicode="U" horiz-adv-x="1200" 
d="M62 1384h16q16 -5 16 -36v-820q0 -214 196 -380q141 -104 288 -104h44q214 0 380 196q104 141 104 288v820q0 31 16 36h16l12 -12v-848q0 -248 -244 -432q-141 -92 -280 -92h-52q-248 0 -432 244q-92 141 -92 280v848z" />
    <glyph glyph-name="V" unicode="V" horiz-adv-x="1200" 
d="M62 1382h16q13 0 128 -316l380 -982h4q512 1277 528 1299h20l12 -12v-4q-4 -28 -420 -1051l-132 -316h-20q-13 0 -152 380q-376 965 -376 978v12z" />
    <glyph glyph-name="W" unicode="W" horiz-adv-x="1200" 
d="M62 1384h16q16 -5 16 -36v-1260l496 624h16q49 -49 496 -624h4v1260q0 31 16 36h16l12 -12v-1360l-12 -12h-16l-524 656q-459 -587 -520 -656h-16l-12 12v1360z" />
    <glyph glyph-name="X" unicode="X" horiz-adv-x="1200" 
d="M62 1384h16l524 -656q457 585 520 656h16l12 -12v-16l-520 -664l520 -664v-16l-12 -12h-16l-524 656q-459 -587 -520 -656h-16l-12 12v16l520 664l-520 664v16z" />
    <glyph glyph-name="Y" unicode="Y" horiz-adv-x="1200" 
d="M62 1384h16l524 -656q457 585 520 656h16l12 -12v-16l-528 -672v-660q0 -21 -12 -24h-20q-12 4 -12 24v660l-528 672v16z" />
    <glyph glyph-name="Z" unicode="Z" horiz-adv-x="1200" 
d="M62 1384h1076l12 -12v-16l-1032 -1312h996q31 0 36 -16v-16l-12 -12h-1076l-12 12v16l1032 1312h-996q-31 0 -36 16v16z" />
    <glyph glyph-name="bracketleft" unicode="[" horiz-adv-x="548" 
d="M62 1517h424l12 -12v-16q-5 -16 -36 -16h-368v-1584h368q31 0 36 -16v-16l-12 -12h-424l-12 12v1648z" />
    <glyph glyph-name="backslash" unicode="\" horiz-adv-x="500" 
d="M62 1384h16q16 0 72 -240q300 -1098 300 -1132l-12 -12h-16q-16 0 -72 240q-300 1098 -300 1132z" />
    <glyph glyph-name="bracketright" unicode="]" horiz-adv-x="548" 
d="M62 1517h424l12 -12v-1648l-12 -12h-424l-12 12v16q5 16 36 16h368v1584h-368q-31 0 -36 16v16z" />
    <glyph glyph-name="asciicircum" unicode="^" horiz-adv-x="532" 
d="M274 1384q27 -26 208 -352v-12l-12 -12h-16l-188 308l-188 -308h-16l-12 12v8q8 27 200 352l4 4h20z" />
    <glyph glyph-name="underscore" unicode="_" horiz-adv-x="1200" 
d="M62 -63h1076l12 -12v-16l-12 -12h-1076l-12 12v16z" />
    <glyph glyph-name="grave" unicode="`" horiz-adv-x="336" 
d="M62 1385l86 -1q26 -26 138 -351v-12l-12 -12h-16q-26 25 -208 352v12z" />
    <glyph glyph-name="a" unicode="a" horiz-adv-x="820" 
d="M386 912h48q200 0 316 -152q20 -44 20 -76v-672l-12 -12h-16q-16 5 -16 36v84q-120 -120 -292 -120h-48q-200 0 -316 152q-20 44 -20 76v24q0 202 404 264q272 55 272 140v32q0 113 -220 172l-68 8h-56q-182 0 -280 -140q-7 -76 -32 -76h-4l-16 12v20q0 135 212 208
q58 20 124 20zM94 252v-28q0 -113 220 -172l68 -8h56q180 0 276 136l12 44v348q-67 -68 -360 -116q-272 -62 -272 -204z" />
    <glyph glyph-name="b" unicode="b" horiz-adv-x="820" 
d="M62 1384h16q16 -6 16 -36v-528h4q115 92 240 92h28q214 0 352 -232q52 -106 52 -196v-56q0 -198 -184 -352q-107 -76 -216 -76h-36q-116 0 -240 92v-56q0 -31 -16 -36h-16l-12 12v1360zM94 756v-600q112 -112 232 -112h40q208 0 324 232q36 82 36 156v48q0 218 -220 356
q-82 32 -144 32h-32q-124 0 -236 -112z" />
    <glyph glyph-name="c" unicode="c" horiz-adv-x="820" 
d="M450 912h36q156 0 284 -140v-16l-12 -12h-16q-127 124 -248 124h-40q-203 0 -320 -224q-40 -84 -40 -164v-48q0 -200 188 -336q85 -52 172 -52h40q122 0 248 124h16l12 -12v-16q-128 -140 -284 -140h-36q-210 0 -348 232q-52 106 -52 196v56q0 198 184 352q108 76 216 76
z" />
    <glyph glyph-name="d" unicode="d" horiz-adv-x="820" 
d="M742 1383h16l12 -12v-1359l-12 -12h-16q-16 5 -16 36v56q-124 -92 -240 -92h-36q-210 0 -348 232q-52 106 -52 196v56q0 214 208 368q98 60 196 60h28q125 0 240 -92h4v527q0 30 16 36zM94 480v-48q0 -200 188 -336q84 -52 172 -52h40q120 0 232 112v600
q-112 112 -236 112h-32q-193 0 -312 -200q-52 -96 -52 -188z" />
    <glyph glyph-name="e" unicode="e" horiz-adv-x="848" 
d="M402 912h44q160 0 288 -196q64 -125 64 -228v-40q-6 -16 -28 -16h-676q0 -206 172 -340q74 -48 140 -48h36q105 0 204 104q20 20 76 112h4q28 0 28 -24q-70 -151 -204 -212q-61 -24 -104 -24h-44q-160 0 -288 196q-64 125 -64 228v64q0 209 188 368q94 56 164 56zM94 480
h660v4q0 210 -188 348q-72 36 -124 36h-36q-171 0 -280 -228q-32 -84 -32 -160z" />
    <glyph glyph-name="f" unicode="f" horiz-adv-x="536" 
d="M446 1372h28l12 -12v-16q0 -15 -112 -24q-154 -48 -232 -172q-52 -87 -52 -264v-20h272q28 0 28 -24q-8 -18 -16 -20h-284v-808l-12 -12h-16l-12 12v964q0 206 216 348q98 48 180 48z" />
    <glyph glyph-name="g" unicode="g" horiz-adv-x="848" 
d="M410 913h28q205 0 324 -236q36 -82 36 -156v-564q0 -204 -200 -348q-85 -44 -160 -44h-28q-205 0 -324 236q-36 83 -36 156v32l16 16h8q20 0 28 -124q53 -166 168 -232q74 -40 132 -40h16l4 -4l4 4h20q168 0 280 212q32 76 32 244v148q-99 -141 -188 -180
q-80 -32 -152 -32q-208 0 -328 232q-40 106 -40 192v64q0 223 172 360q92 64 188 64zM402 869q-151 0 -260 -176q-48 -111 -48 -204v-60q0 -258 228 -368q68 -16 104 -16q187 0 312 224q20 21 20 40v104q0 261 -104 352q-99 104 -208 104h-16l-4 4l-4 -4h-20z" />
    <glyph glyph-name="h" unicode="h" horiz-adv-x="820" 
d="M62 1384h16q16 -6 16 -36v-520h4q117 84 236 84h36q218 0 360 -232q40 -93 40 -164v-504l-12 -12h-16q-16 5 -16 36v476q0 180 -180 304q-92 52 -180 52h-28q-138 0 -244 -104v-728q0 -31 -16 -36h-16l-12 12v1360z" />
    <glyph glyph-name="i" unicode="i" horiz-adv-x="140" 
d="M62 1383h16l12 -12v-168q-2 -8 -20 -16q-18 8 -20 16v168zM62 1079h16l12 -12v-1055l-12 -12h-16l-12 12v1055z" />
    <glyph glyph-name="j" unicode="j" horiz-adv-x="536" 
d="M458 1381h16l12 -12v-168l-12 -12h-16l-12 12v168zM458 1077h16l12 -12v-1171q0 -207 -216 -348q-98 -48 -180 -48h-28l-12 12v16q0 15 112 24q154 46 232 172q52 87 52 264v1079z" />
    <glyph glyph-name="k" unicode="k" horiz-adv-x="820" 
d="M62 1385h16q16 -6 16 -36v-761q108 92 320 92q106 17 208 108q104 124 104 236v84q0 31 16 36h16l12 -12v-100q0 -214 -224 -352l-60 -24v-4q148 -49 236 -192q48 -103 48 -180v-268l-12 -12h-16q-16 5 -16 36v248q0 159 -168 288q-95 60 -204 60h-4q-152 0 -256 -104
v-492q0 -31 -16 -36h-16l-12 12v1361z" />
    <glyph glyph-name="l" unicode="l" horiz-adv-x="140" 
d="M62 1385h16l12 -12v-1361l-12 -12h-16l-12 12v1361z" />
    <glyph glyph-name="m" unicode="m" horiz-adv-x="1560" 
d="M62 912h16q16 -5 16 -36v-176h4q120 212 312 212h28q213 0 336 -256q0 -16 8 -16q54 153 160 212q82 60 168 60h48q172 0 300 -204q52 -106 52 -200v-496l-12 -12h-16q-16 7 -16 28v468q0 236 -212 348q-51 24 -100 24h-40q-163 0 -272 -192q-40 -84 -40 -172v-492
l-12 -12h-16l-16 16v456q0 308 -272 392l-40 4h-40q-187 0 -292 -236q-20 -66 -20 -116v-480q0 -31 -16 -36h-16l-12 12v888z" />
    <glyph glyph-name="n" unicode="n" horiz-adv-x="852" 
d="M62 912h16q16 -5 16 -36v-176h4q121 212 312 212h40q160 0 292 -188q60 -115 60 -216v-496l-12 -12h-16q-16 7 -16 28v468q0 236 -212 348q-51 24 -100 24h-40q-182 0 -292 -232q-20 -77 -20 -120v-480q0 -31 -16 -36h-16l-12 12v888z" />
    <glyph glyph-name="o" unicode="o" horiz-adv-x="848" 
d="M402 912h44q169 0 296 -212q56 -113 56 -216v-56q0 -213 -184 -368q-93 -60 -168 -60h-44q-169 0 -296 212q-56 113 -56 216v56q0 213 184 368q93 60 168 60zM94 480v-48q0 -206 172 -340q74 -48 140 -48h36q171 0 280 228q32 84 32 160v48q0 206 -172 340
q-74 48 -140 48h-36q-171 0 -280 -228q-32 -84 -32 -160z" />
    <glyph glyph-name="p" unicode="p" horiz-adv-x="820" 
d="M62 912h16q16 -5 16 -36v-56q124 92 240 92h36q210 0 348 -232q52 -105 52 -196v-56q0 -213 -208 -368q-98 -60 -196 -60h-28q-125 0 -240 92h-4v-515q0 -31 -16 -36h-16l-12 12v1347zM94 756v-600q109 -112 244 -112h36q172 0 300 196q52 105 52 192v48q0 201 -188 336
q-84 52 -172 52h-40q-120 0 -232 -112z" />
    <glyph glyph-name="q" unicode="q" horiz-adv-x="820" 
d="M450 913h36q116 0 240 -92v56q0 31 16 36h16l12 -12v-1347l-12 -12h-16q-16 5 -16 36v515h-4q-115 -92 -240 -92h-28q-214 0 -352 232q-52 106 -52 196v56q0 198 184 352q108 76 216 76zM94 481v-48q0 -218 220 -356q84 -32 132 -32h36q135 0 244 112v600
q-112 112 -232 112h-40q-208 0 -324 -232q-36 -82 -36 -156z" />
    <glyph glyph-name="r" unicode="r" horiz-adv-x="620" 
d="M62 912h16q16 -6 16 -28v-180h4q47 103 156 168q73 40 136 40h32q96 0 148 -48v-16l-12 -12h-8q-80 32 -116 32h-40q-157 0 -260 -188q-40 -84 -40 -164v-488q0 -21 -16 -28h-16l-12 12v888z" />
    <glyph glyph-name="s" unicode="s" horiz-adv-x="820" 
d="M386 912h48q200 0 316 -152q20 -44 20 -76v-20q-4 -12 -24 -12q-24 5 -24 64q-23 52 -80 92q-101 60 -204 60h-56q-180 0 -276 -136l-12 -44v-28q0 -99 124 -140q50 -20 360 -72q192 -59 192 -192v-28q0 -135 -212 -208q-58 -20 -124 -20h-48q-200 0 -316 152
q-20 44 -20 76v20q4 12 24 12q24 -5 24 -64q23 -52 80 -92q101 -60 204 -60h56q180 0 276 136l12 44v28q0 99 -124 140q-50 20 -360 72q-192 59 -192 192v28q0 135 212 208q58 20 124 20z" />
    <glyph glyph-name="t" unicode="t" horiz-adv-x="536" 
d="M62 1384h16l12 -12v-460h284q16 -8 16 -24q-6 -20 -28 -20h-272v-380q0 -228 96 -320q118 -128 292 -128l8 -12v-16l-12 -12h-28q-217 0 -356 232q-40 93 -40 164v976z" />
    <glyph glyph-name="u" unicode="u" horiz-adv-x="820" 
d="M62 912h16q16 -6 16 -28v-488q0 -178 152 -300q77 -52 140 -52h48q146 0 252 188q40 84 40 164v488q0 22 16 28h16l12 -12v-888l-12 -12h-16q-16 5 -16 36v172h-4q-118 -208 -292 -208h-32q-203 0 -320 248q-28 85 -28 144v508z" />
    <glyph glyph-name="v" unicode="v" horiz-adv-x="828" 
d="M62 904h16q14 0 80 -188q112 -266 252 -632h8q312 799 328 820h20l12 -12v-4q-14 -54 -260 -668q-82 -213 -96 -220h-16q-13 0 -196 480q-160 382 -160 408v4z" />
    <glyph glyph-name="w" unicode="w" horiz-adv-x="1204" 
d="M62 932h16q13 0 152 -368q192 -470 192 -484h4q156 404 164 404l16 4q18 0 60 -128l112 -280h4q200 521 340 852h20l12 -12v-4q0 -26 -360 -912l-4 -4h-20q-16 11 -164 400h-8q-148 -389 -164 -400h-16q-16 0 -104 244q-264 648 -264 672v4z" />
    <glyph glyph-name="x" unicode="x" horiz-adv-x="848" 
d="M62 932h16l348 -432q227 295 344 432h16l12 -12v-16l-348 -440l348 -436v-16l-12 -12h-16l-348 432q-227 -295 -344 -432h-16l-12 12v16l348 440l-348 436v16z" />
    <glyph glyph-name="y" unicode="y" horiz-adv-x="848" 
d="M62 915h16q19 -12 156 -372q11 -12 188 -460h4l336 828l4 4h20l12 -12v-4q-4 -25 -308 -776q-152 -385 -192 -431q-99 -112 -208 -140l-20 -4h-8l-12 12v16q7 11 112 52q133 80 204 316l36 79q-316 768 -352 872v8z" />
    <glyph glyph-name="z" unicode="z" horiz-adv-x="848" 
d="M62 912h724l12 -12v-16l-680 -840h652q22 0 28 -16v-16l-12 -12h-724l-12 12v16l680 840h-652q-21 0 -28 16v16z" />
    <glyph glyph-name="braceleft" unicode="{" horiz-adv-x="440" 
d="M346 1624h32l12 -12v-16q0 -14 -88 -24q-44 -29 -44 -108q16 -189 16 -276q0 -272 -176 -496q176 -211 176 -500l-16 -268q0 -116 96 -116q31 0 36 -16v-16l-12 -12h-32q-116 0 -128 132v40l12 260q0 272 -180 492v16q180 206 180 496l-12 252v36q0 94 80 128z" />
    <glyph glyph-name="bar" unicode="|" horiz-adv-x="140" 
d="M62 1623h16l12 -12v-1835l-12 -12h-16l-12 12v1835z" />
    <glyph glyph-name="braceright" unicode="}" horiz-adv-x="440" 
d="M62 1624h32q116 0 128 -132v-40l-12 -260q0 -278 180 -488v-8q0 -13 -72 -108q-108 -178 -108 -400l12 -252v-36q0 -95 -80 -128l-48 -8h-32l-12 12v16q0 14 88 24q44 29 44 108q-16 189 -16 276q0 273 176 496q-176 212 -176 500l16 268q0 116 -96 116q-31 0 -36 16v16z
" />
    <glyph glyph-name="asciitilde" unicode="~" horiz-adv-x="1200" 
d="M282 786h56q129 0 352 -88q94 -28 176 -28h48q112 0 216 64q18 -8 20 -16v-16q-95 -76 -232 -76h-56q-129 0 -352 88q-94 28 -176 28h-48q-112 0 -216 -64q-18 8 -20 16v16q95 76 232 76z" />
    <glyph glyph-name="Adieresis" unicode="&#xc4;" horiz-adv-x="1366" 
 />
    <glyph glyph-name="Aring" unicode="&#xc5;" horiz-adv-x="1366" 
 />
    <glyph glyph-name="Ccedilla" unicode="&#xc7;" horiz-adv-x="1479" 
 />
    <glyph glyph-name="Eacute" unicode="&#xc9;" horiz-adv-x="1366" 
 />
    <glyph glyph-name="Ntilde" unicode="&#xd1;" horiz-adv-x="1479" 
 />
    <glyph glyph-name="Odieresis" unicode="&#xd6;" horiz-adv-x="1593" 
 />
    <glyph glyph-name="Udieresis" unicode="&#xdc;" horiz-adv-x="1479" 
 />
    <glyph glyph-name="aacute" unicode="&#xe1;" 
 />
    <glyph glyph-name="agrave" unicode="&#xe0;" 
 />
    <glyph glyph-name="acircumflex" unicode="&#xe2;" 
 />
    <glyph glyph-name="adieresis" unicode="&#xe4;" 
 />
    <glyph glyph-name="atilde" unicode="&#xe3;" 
 />
    <glyph glyph-name="aring" unicode="&#xe5;" 
 />
    <glyph glyph-name="ccedilla" unicode="&#xe7;" horiz-adv-x="1024" 
 />
    <glyph glyph-name="eacute" unicode="&#xe9;" 
 />
    <glyph glyph-name="egrave" unicode="&#xe8;" 
 />
    <glyph glyph-name="ecircumflex" unicode="&#xea;" 
 />
    <glyph glyph-name="edieresis" unicode="&#xeb;" 
 />
    <glyph glyph-name="iacute" unicode="&#xed;" horiz-adv-x="569" 
 />
    <glyph glyph-name="igrave" unicode="&#xec;" horiz-adv-x="569" 
 />
    <glyph glyph-name="icircumflex" unicode="&#xee;" horiz-adv-x="569" 
 />
    <glyph glyph-name="idieresis" unicode="&#xef;" horiz-adv-x="569" 
 />
    <glyph glyph-name="ntilde" unicode="&#xf1;" 
 />
    <glyph glyph-name="oacute" unicode="&#xf3;" 
 />
    <glyph glyph-name="ograve" unicode="&#xf2;" 
 />
    <glyph glyph-name="ocircumflex" unicode="&#xf4;" 
 />
    <glyph glyph-name="odieresis" unicode="&#xf6;" 
 />
    <glyph glyph-name="otilde" unicode="&#xf5;" 
 />
    <glyph glyph-name="uacute" unicode="&#xfa;" 
 />
    <glyph glyph-name="ugrave" unicode="&#xf9;" 
 />
    <glyph glyph-name="ucircumflex" unicode="&#xfb;" 
 />
    <glyph glyph-name="udieresis" unicode="&#xfc;" 
 />
    <glyph glyph-name="dagger" unicode="&#x2020;" 
 />
    <glyph glyph-name="degree" unicode="&#xb0;" horiz-adv-x="819" 
 />
    <glyph glyph-name="cent" unicode="&#xa2;" 
 />
    <glyph glyph-name="sterling" unicode="&#xa3;" 
 />
    <glyph glyph-name="section" unicode="&#xa7;" 
 />
    <glyph glyph-name="bullet" unicode="&#x2022;" horiz-adv-x="717" 
 />
    <glyph glyph-name="paragraph" unicode="&#xb6;" horiz-adv-x="1100" 
 />
    <glyph glyph-name="germandbls" unicode="&#xdf;" horiz-adv-x="1251" 
 />
    <glyph glyph-name="registered" unicode="&#xae;" horiz-adv-x="1509" 
 />
    <glyph glyph-name="copyright" unicode="&#xa9;" horiz-adv-x="1509" 
 />
    <glyph glyph-name="trademark" unicode="&#x2122;" horiz-adv-x="2048" 
 />
    <glyph glyph-name="acute" unicode="&#xb4;" horiz-adv-x="682" 
 />
    <glyph glyph-name="dieresis" unicode="&#xa8;" horiz-adv-x="682" 
 />
    <glyph glyph-name="notequal" unicode="&#x2260;" horiz-adv-x="1124" 
 />
    <glyph glyph-name="AE" unicode="&#xc6;" horiz-adv-x="2048" 
 />
    <glyph glyph-name="Oslash" unicode="&#xd8;" horiz-adv-x="1593" 
 />
    <glyph glyph-name="infinity" unicode="&#x221e;" horiz-adv-x="1460" 
 />
    <glyph glyph-name="plusminus" unicode="&#xb1;" horiz-adv-x="1124" 
 />
    <glyph glyph-name="lessequal" unicode="&#x2264;" horiz-adv-x="1124" 
 />
    <glyph glyph-name="greaterequal" unicode="&#x2265;" horiz-adv-x="1124" 
 />
    <glyph glyph-name="yen" unicode="&#xa5;" 
 />
    <glyph glyph-name="mu" unicode="&#xb5;" horiz-adv-x="1180" 
 />
    <glyph glyph-name="partialdiff" unicode="&#x2202;" horiz-adv-x="1012" 
 />
    <glyph glyph-name="summation" unicode="&#x2211;" horiz-adv-x="1460" 
 />
    <glyph glyph-name="product" unicode="&#x220f;" horiz-adv-x="1686" 
 />
    <glyph glyph-name="glyph155" horiz-adv-x="1124" 
 />
    <glyph glyph-name="integral" unicode="&#x222b;" horiz-adv-x="561" 
 />
    <glyph glyph-name="ordfeminine" unicode="&#xaa;" horiz-adv-x="758" 
 />
    <glyph glyph-name="ordmasculine" unicode="&#xba;" horiz-adv-x="748" 
 />
    <glyph glyph-name="Omega" unicode="&#x2126;" horiz-adv-x="1573" 
 />
    <glyph glyph-name="ae" unicode="&#xe6;" horiz-adv-x="1821" 
 />
    <glyph glyph-name="oslash" unicode="&#xf8;" horiz-adv-x="1251" 
 />
    <glyph glyph-name="questiondown" unicode="&#xbf;" horiz-adv-x="1251" 
 />
    <glyph glyph-name="exclamdown" unicode="&#xa1;" horiz-adv-x="682" 
 />
    <glyph glyph-name="logicalnot" unicode="&#xac;" horiz-adv-x="1196" 
 />
    <glyph glyph-name="radical" unicode="&#x221a;" horiz-adv-x="1124" 
 />
    <glyph glyph-name="florin" unicode="&#x192;" 
 />
    <glyph glyph-name="approxequal" unicode="&#x2248;" horiz-adv-x="1124" 
 />
    <glyph glyph-name="Delta" unicode="&#x2206;" horiz-adv-x="1253" 
 />
    <glyph glyph-name="guillemotleft" unicode="&#xab;" 
 />
    <glyph glyph-name="guillemotright" unicode="&#xbb;" 
 />
    <glyph glyph-name="ellipsis" unicode="&#x2026;" horiz-adv-x="2048" 
 />
    <glyph glyph-name="Agrave" unicode="&#xc0;" horiz-adv-x="1366" 
 />
    <glyph glyph-name="Atilde" unicode="&#xc3;" horiz-adv-x="1366" 
 />
    <glyph glyph-name="Otilde" unicode="&#xd5;" horiz-adv-x="1593" 
 />
    <glyph glyph-name="OE" unicode="&#x152;" horiz-adv-x="2048" 
 />
    <glyph glyph-name="oe" unicode="&#x153;" horiz-adv-x="1933" 
 />
    <glyph glyph-name="endash" unicode="&#x2013;" 
 />
    <glyph glyph-name="emdash" unicode="&#x2014;" horiz-adv-x="2048" 
 />
    <glyph glyph-name="quotedblleft" unicode="&#x201c;" horiz-adv-x="682" 
 />
    <glyph glyph-name="quotedblright" unicode="&#x201d;" horiz-adv-x="682" 
 />
    <glyph glyph-name="quoteleft" unicode="&#x2018;" horiz-adv-x="455" 
 />
    <glyph glyph-name="quoteright" unicode="&#x2019;" horiz-adv-x="455" 
 />
    <glyph glyph-name="divide" unicode="&#xf7;" horiz-adv-x="1124" 
 />
    <glyph glyph-name="lozenge" unicode="&#x25ca;" horiz-adv-x="1012" 
 />
    <glyph glyph-name="ydieresis" unicode="&#xff;" horiz-adv-x="1024" 
 />
    <glyph glyph-name="Ydieresis" unicode="&#x178;" horiz-adv-x="1366" 
 />
    <glyph glyph-name="fraction" unicode="&#x2044;" horiz-adv-x="342" 
 />
    <glyph glyph-name="fraction" unicode="&#x2215;" horiz-adv-x="342" 
 />
    <glyph glyph-name="Euro" unicode="&#x20ac;" 
 />
    <glyph glyph-name="guilsinglleft" unicode="&#x2039;" horiz-adv-x="682" 
 />
    <glyph glyph-name="guilsinglright" unicode="&#x203a;" horiz-adv-x="682" 
 />
    <glyph glyph-name="uniF001" unicode="&#xf001;" horiz-adv-x="1024" 
 />
    <glyph glyph-name="uniF001" unicode="&#xfb01;" horiz-adv-x="1024" 
 />
    <glyph glyph-name="uniF002" unicode="&#xf002;" horiz-adv-x="1024" 
 />
    <glyph glyph-name="uniF002" unicode="&#xfb02;" horiz-adv-x="1024" 
 />
    <glyph glyph-name="daggerdbl" unicode="&#x2021;" 
 />
    <glyph glyph-name="periodcentered" unicode="&#xb7;" horiz-adv-x="569" 
 />
    <glyph glyph-name="periodcentered" unicode="&#x2219;" horiz-adv-x="569" 
 />
    <glyph glyph-name="quotesinglbase" unicode="&#x201a;" horiz-adv-x="455" 
 />
    <glyph glyph-name="quotedblbase" unicode="&#x201e;" horiz-adv-x="682" 
 />
    <glyph glyph-name="perthousand" unicode="&#x2030;" horiz-adv-x="2048" 
 />
    <glyph glyph-name="Acircumflex" unicode="&#xc2;" horiz-adv-x="1366" 
 />
    <glyph glyph-name="Ecircumflex" unicode="&#xca;" horiz-adv-x="1366" 
 />
    <glyph glyph-name="Aacute" unicode="&#xc1;" horiz-adv-x="1366" 
 />
    <glyph glyph-name="Edieresis" unicode="&#xcb;" horiz-adv-x="1366" 
 />
    <glyph glyph-name="Egrave" unicode="&#xc8;" horiz-adv-x="1366" 
 />
    <glyph glyph-name="Iacute" unicode="&#xcd;" horiz-adv-x="569" 
 />
    <glyph glyph-name="Icircumflex" unicode="&#xce;" horiz-adv-x="569" 
 />
    <glyph glyph-name="Idieresis" unicode="&#xcf;" horiz-adv-x="569" 
 />
    <glyph glyph-name="Igrave" unicode="&#xcc;" horiz-adv-x="569" 
 />
    <glyph glyph-name="Oacute" unicode="&#xd3;" horiz-adv-x="1593" 
 />
    <glyph glyph-name="Ocircumflex" unicode="&#xd4;" horiz-adv-x="1593" 
 />
    <glyph glyph-name="Ograve" unicode="&#xd2;" horiz-adv-x="1593" 
 />
    <glyph glyph-name="Uacute" unicode="&#xda;" horiz-adv-x="1479" 
 />
    <glyph glyph-name="Ucircumflex" unicode="&#xdb;" horiz-adv-x="1479" 
 />
    <glyph glyph-name="Ugrave" unicode="&#xd9;" horiz-adv-x="1479" 
 />
    <glyph glyph-name="dotlessi" unicode="&#x131;" horiz-adv-x="569" 
 />
    <glyph glyph-name="circumflex" unicode="&#x2c6;" horiz-adv-x="682" 
 />
    <glyph glyph-name="tilde" unicode="&#x2dc;" horiz-adv-x="682" 
 />
    <glyph glyph-name="uni02C9" unicode="&#x2c9;" horiz-adv-x="682" 
 />
    <glyph glyph-name="breve" unicode="&#x2d8;" horiz-adv-x="682" 
 />
    <glyph glyph-name="dotaccent" unicode="&#x2d9;" horiz-adv-x="682" 
 />
    <glyph glyph-name="ring" unicode="&#x2da;" horiz-adv-x="682" 
 />
    <glyph glyph-name="cedilla" unicode="&#xb8;" horiz-adv-x="682" 
 />
    <glyph glyph-name="hungarumlaut" unicode="&#x2dd;" horiz-adv-x="682" 
 />
    <glyph glyph-name="ogonek" unicode="&#x2db;" horiz-adv-x="682" 
 />
    <glyph glyph-name="caron" unicode="&#x2c7;" horiz-adv-x="682" 
 />
    <glyph glyph-name="Lslash" unicode="&#x141;" 
 />
    <glyph glyph-name="lslash" unicode="&#x142;" horiz-adv-x="455" 
 />
    <glyph glyph-name="Scaron" unicode="&#x160;" horiz-adv-x="1366" 
 />
    <glyph glyph-name="scaron" unicode="&#x161;" horiz-adv-x="1024" 
 />
    <glyph glyph-name="Zcaron" unicode="&#x17d;" horiz-adv-x="1251" 
 />
    <glyph glyph-name="zcaron" unicode="&#x17e;" horiz-adv-x="1024" 
 />
    <glyph glyph-name="brokenbar" unicode="&#xa6;" horiz-adv-x="532" 
 />
    <glyph glyph-name="Eth" unicode="&#xd0;" horiz-adv-x="1479" 
 />
    <glyph glyph-name="eth" unicode="&#xf0;" 
 />
    <glyph glyph-name="Yacute" unicode="&#xdd;" horiz-adv-x="1366" 
 />
    <glyph glyph-name="yacute" unicode="&#xfd;" horiz-adv-x="1024" 
 />
    <glyph glyph-name="Thorn" unicode="&#xde;" horiz-adv-x="1366" 
 />
    <glyph glyph-name="thorn" unicode="&#xfe;" 
 />
    <glyph glyph-name="minus" unicode="&#x2212;" horiz-adv-x="1196" 
 />
    <glyph glyph-name="multiply" unicode="&#xd7;" horiz-adv-x="1196" 
 />
    <glyph glyph-name="uni00B9" unicode="&#xb9;" horiz-adv-x="682" 
 />
    <glyph glyph-name="uni00B2" unicode="&#xb2;" horiz-adv-x="682" 
 />
    <glyph glyph-name="uni00B3" unicode="&#xb3;" horiz-adv-x="682" 
 />
    <glyph glyph-name="onehalf" unicode="&#xbd;" horiz-adv-x="1708" 
 />
    <glyph glyph-name="onequarter" unicode="&#xbc;" horiz-adv-x="1708" 
 />
    <glyph glyph-name="threequarters" unicode="&#xbe;" horiz-adv-x="1708" 
 />
    <glyph glyph-name="franc" unicode="&#x20a3;" 
 />
    <glyph glyph-name="Gbreve" unicode="&#x11e;" horiz-adv-x="1593" 
 />
    <glyph glyph-name="gbreve" unicode="&#x11f;" 
 />
    <glyph glyph-name="Idotaccent" unicode="&#x130;" horiz-adv-x="569" 
 />
    <glyph glyph-name="Scedilla" unicode="&#x15e;" horiz-adv-x="1366" 
 />
    <glyph glyph-name="scedilla" unicode="&#x15f;" horiz-adv-x="1024" 
 />
    <glyph glyph-name="Cacute" unicode="&#x106;" horiz-adv-x="1479" 
 />
    <glyph glyph-name="cacute" unicode="&#x107;" horiz-adv-x="1024" 
 />
    <glyph glyph-name="Ccaron" unicode="&#x10c;" horiz-adv-x="1479" 
 />
    <glyph glyph-name="ccaron" unicode="&#x10d;" horiz-adv-x="1024" 
 />
    <glyph glyph-name="dcroat" unicode="&#x111;" 
 />
    <glyph glyph-name="currency" unicode="&#xa4;" 
 />
    <glyph glyph-name="macron" unicode="&#xaf;" horiz-adv-x="1131" 
 />
    <glyph glyph-name="Amacron" unicode="&#x100;" horiz-adv-x="1366" 
 />
    <glyph glyph-name="amacron" unicode="&#x101;" 
 />
    <glyph glyph-name="Abreve" unicode="&#x102;" horiz-adv-x="1366" 
 />
    <glyph glyph-name="abreve" unicode="&#x103;" 
 />
    <glyph glyph-name="Aogonek" unicode="&#x104;" horiz-adv-x="1366" 
 />
    <glyph glyph-name="aogonek" unicode="&#x105;" 
 />
    <glyph glyph-name="Ccircumflex" unicode="&#x108;" horiz-adv-x="1479" 
 />
    <glyph glyph-name="ccircumflex" unicode="&#x109;" horiz-adv-x="1024" 
 />
    <glyph glyph-name="Cdotaccent" unicode="&#x10a;" horiz-adv-x="1479" 
 />
    <glyph glyph-name="cdotaccent" unicode="&#x10b;" horiz-adv-x="1024" 
 />
    <glyph glyph-name="Dcaron" unicode="&#x10e;" horiz-adv-x="1479" 
 />
    <glyph glyph-name="dcaron" unicode="&#x10f;" horiz-adv-x="1259" 
 />
    <glyph glyph-name="Dcroat" unicode="&#x110;" horiz-adv-x="1479" 
 />
    <glyph glyph-name="Emacron" unicode="&#x112;" horiz-adv-x="1366" 
 />
    <glyph glyph-name="emacron" unicode="&#x113;" 
 />
    <glyph glyph-name="Ebreve" unicode="&#x114;" horiz-adv-x="1366" 
 />
    <glyph glyph-name="ebreve" unicode="&#x115;" 
 />
    <glyph glyph-name="Edotaccent" unicode="&#x116;" horiz-adv-x="1366" 
 />
    <glyph glyph-name="edotaccent" unicode="&#x117;" 
 />
    <glyph glyph-name="Eogonek" unicode="&#x118;" horiz-adv-x="1366" 
 />
    <glyph glyph-name="eogonek" unicode="&#x119;" 
 />
    <glyph glyph-name="Ecaron" unicode="&#x11a;" horiz-adv-x="1366" 
 />
    <glyph glyph-name="ecaron" unicode="&#x11b;" 
 />
    <glyph glyph-name="Gcircumflex" unicode="&#x11c;" horiz-adv-x="1593" 
 />
    <glyph glyph-name="gcircumflex" unicode="&#x11d;" 
 />
    <glyph glyph-name="Gdotaccent" unicode="&#x120;" horiz-adv-x="1593" 
 />
    <glyph glyph-name="gdotaccent" unicode="&#x121;" 
 />
    <glyph glyph-name="Gcommaaccent" unicode="&#x122;" horiz-adv-x="1593" 
 />
    <glyph glyph-name="gcommaaccent" unicode="&#x123;" 
 />
    <glyph glyph-name="Hcircumflex" unicode="&#x124;" horiz-adv-x="1479" 
 />
    <glyph glyph-name="hcircumflex" unicode="&#x125;" 
 />
    <glyph glyph-name="Hbar" unicode="&#x126;" horiz-adv-x="1479" 
 />
    <glyph glyph-name="hbar" unicode="&#x127;" 
 />
    <glyph glyph-name="Itilde" unicode="&#x128;" horiz-adv-x="569" 
 />
    <glyph glyph-name="itilde" unicode="&#x129;" horiz-adv-x="569" 
 />
    <glyph glyph-name="Imacron" unicode="&#x12a;" horiz-adv-x="569" 
 />
    <glyph glyph-name="imacron" unicode="&#x12b;" horiz-adv-x="569" 
 />
    <glyph glyph-name="Ibreve" unicode="&#x12c;" horiz-adv-x="569" 
 />
    <glyph glyph-name="ibreve" unicode="&#x12d;" horiz-adv-x="569" 
 />
    <glyph glyph-name="Iogonek" unicode="&#x12e;" horiz-adv-x="569" 
 />
    <glyph glyph-name="iogonek" unicode="&#x12f;" horiz-adv-x="455" 
 />
    <glyph glyph-name="IJ" unicode="&#x132;" horiz-adv-x="1505" 
 />
    <glyph glyph-name="ij" unicode="&#x133;" horiz-adv-x="909" 
 />
    <glyph glyph-name="Jcircumflex" unicode="&#x134;" horiz-adv-x="1024" 
 />
    <glyph glyph-name="jcircumflex" unicode="&#x135;" horiz-adv-x="455" 
 />
    <glyph glyph-name="Kcommaaccent" unicode="&#x136;" horiz-adv-x="1366" 
 />
    <glyph glyph-name="kcommaaccent" unicode="&#x137;" horiz-adv-x="1024" 
 />
    <glyph glyph-name="kgreenlandic" unicode="&#x138;" horiz-adv-x="1024" 
 />
    <glyph glyph-name="Lacute" unicode="&#x139;" 
 />
    <glyph glyph-name="lacute" unicode="&#x13a;" horiz-adv-x="455" 
 />
    <glyph glyph-name="Lcommaaccent" unicode="&#x13b;" 
 />
    <glyph glyph-name="lcommaaccent" unicode="&#x13c;" horiz-adv-x="455" 
 />
    <glyph glyph-name="Lcaron" unicode="&#x13d;" 
 />
    <glyph glyph-name="lcaron" unicode="&#x13e;" horiz-adv-x="597" 
 />
    <glyph glyph-name="Ldot" unicode="&#x13f;" 
 />
    <glyph glyph-name="ldot" unicode="&#x140;" horiz-adv-x="684" 
 />
    <glyph glyph-name="Nacute" unicode="&#x143;" horiz-adv-x="1479" 
 />
    <glyph glyph-name="nacute" unicode="&#x144;" 
 />
    <glyph glyph-name="Ncommaaccent" unicode="&#x145;" horiz-adv-x="1479" 
 />
    <glyph glyph-name="ncommaaccent" unicode="&#x146;" 
 />
    <glyph glyph-name="Ncaron" unicode="&#x147;" horiz-adv-x="1479" 
 />
    <glyph glyph-name="ncaron" unicode="&#x148;" 
 />
    <glyph glyph-name="napostrophe" unicode="&#x149;" horiz-adv-x="1237" 
 />
    <glyph glyph-name="Eng" unicode="&#x14a;" horiz-adv-x="1481" 
 />
    <glyph glyph-name="eng" unicode="&#x14b;" 
 />
    <glyph glyph-name="Omacron" unicode="&#x14c;" horiz-adv-x="1593" 
 />
    <glyph glyph-name="omacron" unicode="&#x14d;" 
 />
    <glyph glyph-name="Obreve" unicode="&#x14e;" horiz-adv-x="1593" 
 />
    <glyph glyph-name="obreve" unicode="&#x14f;" 
 />
    <glyph glyph-name="Ohungarumlaut" unicode="&#x150;" horiz-adv-x="1593" 
 />
    <glyph glyph-name="ohungarumlaut" unicode="&#x151;" 
 />
    <glyph glyph-name="Racute" unicode="&#x154;" horiz-adv-x="1479" 
 />
    <glyph glyph-name="racute" unicode="&#x155;" horiz-adv-x="682" 
 />
    <glyph glyph-name="Rcommaaccent" unicode="&#x156;" horiz-adv-x="1479" 
 />
    <glyph glyph-name="rcommaaccent" unicode="&#x157;" horiz-adv-x="682" 
 />
    <glyph glyph-name="Rcaron" unicode="&#x158;" horiz-adv-x="1479" 
 />
    <glyph glyph-name="rcaron" unicode="&#x159;" horiz-adv-x="682" 
 />
    <glyph glyph-name="Sacute" unicode="&#x15a;" horiz-adv-x="1366" 
 />
    <glyph glyph-name="sacute" unicode="&#x15b;" horiz-adv-x="1024" 
 />
    <glyph glyph-name="Scircumflex" unicode="&#x15c;" horiz-adv-x="1366" 
 />
    <glyph glyph-name="scircumflex" unicode="&#x15d;" horiz-adv-x="1024" 
 />
    <glyph glyph-name="Tcommaaccent" unicode="&#x162;" horiz-adv-x="1251" 
 />
    <glyph glyph-name="tcommaaccent" unicode="&#x163;" horiz-adv-x="569" 
 />
    <glyph glyph-name="Tcaron" unicode="&#x164;" horiz-adv-x="1251" 
 />
    <glyph glyph-name="tcaron" unicode="&#x165;" horiz-adv-x="768" 
 />
    <glyph glyph-name="Tbar" unicode="&#x166;" horiz-adv-x="1251" 
 />
    <glyph glyph-name="tbar" unicode="&#x167;" horiz-adv-x="569" 
 />
    <glyph glyph-name="Utilde" unicode="&#x168;" horiz-adv-x="1479" 
 />
    <glyph glyph-name="utilde" unicode="&#x169;" 
 />
    <glyph glyph-name="Umacron" unicode="&#x16a;" horiz-adv-x="1479" 
 />
    <glyph glyph-name="umacron" unicode="&#x16b;" 
 />
    <glyph glyph-name="Ubreve" unicode="&#x16c;" horiz-adv-x="1479" 
 />
    <glyph glyph-name="ubreve" unicode="&#x16d;" 
 />
    <glyph glyph-name="Uring" unicode="&#x16e;" horiz-adv-x="1479" 
 />
    <glyph glyph-name="uring" unicode="&#x16f;" 
 />
    <glyph glyph-name="Uhungarumlaut" unicode="&#x170;" horiz-adv-x="1479" 
 />
    <glyph glyph-name="uhungarumlaut" unicode="&#x171;" 
 />
    <glyph glyph-name="Uogonek" unicode="&#x172;" horiz-adv-x="1479" 
 />
    <glyph glyph-name="uogonek" unicode="&#x173;" 
 />
    <glyph glyph-name="Wcircumflex" unicode="&#x174;" horiz-adv-x="1933" 
 />
    <glyph glyph-name="wcircumflex" unicode="&#x175;" horiz-adv-x="1479" 
 />
    <glyph glyph-name="Ycircumflex" unicode="&#x176;" horiz-adv-x="1366" 
 />
    <glyph glyph-name="ycircumflex" unicode="&#x177;" horiz-adv-x="1024" 
 />
    <glyph glyph-name="Zacute" unicode="&#x179;" horiz-adv-x="1251" 
 />
    <glyph glyph-name="zacute" unicode="&#x17a;" horiz-adv-x="1024" 
 />
    <glyph glyph-name="Zdotaccent" unicode="&#x17b;" horiz-adv-x="1251" 
 />
    <glyph glyph-name="zdotaccent" unicode="&#x17c;" horiz-adv-x="1024" 
 />
    <glyph glyph-name="longs" unicode="&#x17f;" horiz-adv-x="455" 
 />
    <glyph glyph-name="Aringacute" unicode="&#x1fa;" horiz-adv-x="1366" 
 />
    <glyph glyph-name="aringacute" unicode="&#x1fb;" 
 />
    <glyph glyph-name="AEacute" unicode="&#x1fc;" horiz-adv-x="2048" 
 />
    <glyph glyph-name="aeacute" unicode="&#x1fd;" horiz-adv-x="1821" 
 />
    <glyph glyph-name="Oslashacute" unicode="&#x1fe;" horiz-adv-x="1593" 
 />
    <glyph glyph-name="oslashacute" unicode="&#x1ff;" horiz-adv-x="1251" 
 />
    <glyph glyph-name="tonos" unicode="&#x384;" horiz-adv-x="682" 
 />
    <glyph glyph-name="dieresistonos" unicode="&#x385;" horiz-adv-x="682" 
 />
    <glyph glyph-name="Alphatonos" unicode="&#x386;" horiz-adv-x="1367" 
 />
    <glyph glyph-name="anoteleia" unicode="&#x387;" horiz-adv-x="569" 
 />
    <glyph glyph-name="Epsilontonos" unicode="&#x388;" horiz-adv-x="1606" 
 />
    <glyph glyph-name="Etatonos" unicode="&#x389;" horiz-adv-x="1716" 
 />
    <glyph glyph-name="Iotatonos" unicode="&#x38a;" horiz-adv-x="786" 
 />
    <glyph glyph-name="Omicrontonos" unicode="&#x38c;" horiz-adv-x="1586" 
 />
    <glyph glyph-name="Upsilontonos" unicode="&#x38e;" horiz-adv-x="1752" 
 />
    <glyph glyph-name="Omegatonos" unicode="&#x38f;" horiz-adv-x="1541" 
 />
    <glyph glyph-name="iotadieresistonos" unicode="&#x390;" horiz-adv-x="455" 
 />
    <glyph glyph-name="Alpha" unicode="&#x391;" horiz-adv-x="1366" 
 />
    <glyph glyph-name="Beta" unicode="&#x392;" horiz-adv-x="1366" 
 />
    <glyph glyph-name="Gamma" unicode="&#x393;" horiz-adv-x="1128" 
 />
    <glyph glyph-name="uni0394" unicode="&#x394;" horiz-adv-x="1368" 
 />
    <glyph glyph-name="Epsilon" unicode="&#x395;" horiz-adv-x="1366" 
 />
    <glyph glyph-name="Zeta" unicode="&#x396;" horiz-adv-x="1251" 
 />
    <glyph glyph-name="Eta" unicode="&#x397;" horiz-adv-x="1479" 
 />
    <glyph glyph-name="Theta" unicode="&#x398;" horiz-adv-x="1593" 
 />
    <glyph glyph-name="Iota" unicode="&#x399;" horiz-adv-x="569" 
 />
    <glyph glyph-name="Kappa" unicode="&#x39a;" horiz-adv-x="1366" 
 />
    <glyph glyph-name="Lambda" unicode="&#x39b;" horiz-adv-x="1368" 
 />
    <glyph glyph-name="Mu" unicode="&#x39c;" horiz-adv-x="1706" 
 />
    <glyph glyph-name="Nu" unicode="&#x39d;" horiz-adv-x="1479" 
 />
    <glyph glyph-name="Xi" unicode="&#x39e;" horiz-adv-x="1331" 
 />
    <glyph glyph-name="Omicron" unicode="&#x39f;" horiz-adv-x="1593" 
 />
    <glyph glyph-name="Pi" unicode="&#x3a0;" horiz-adv-x="1479" 
 />
    <glyph glyph-name="Rho" unicode="&#x3a1;" horiz-adv-x="1366" 
 />
    <glyph glyph-name="Sigma" unicode="&#x3a3;" horiz-adv-x="1266" 
 />
    <glyph glyph-name="Tau" unicode="&#x3a4;" horiz-adv-x="1251" 
 />
    <glyph glyph-name="Upsilon" unicode="&#x3a5;" horiz-adv-x="1366" 
 />
    <glyph glyph-name="Phi" unicode="&#x3a6;" horiz-adv-x="1634" 
 />
    <glyph glyph-name="Chi" unicode="&#x3a7;" horiz-adv-x="1366" 
 />
    <glyph glyph-name="Psi" unicode="&#x3a8;" horiz-adv-x="1711" 
 />
    <glyph glyph-name="uni03A9" unicode="&#x3a9;" horiz-adv-x="1531" 
 />
    <glyph glyph-name="Iotadieresis" unicode="&#x3aa;" horiz-adv-x="569" 
 />
    <glyph glyph-name="Upsilondieresis" unicode="&#x3ab;" horiz-adv-x="1366" 
 />
    <glyph glyph-name="alphatonos" unicode="&#x3ac;" horiz-adv-x="1184" 
 />
    <glyph glyph-name="epsilontonos" unicode="&#x3ad;" horiz-adv-x="913" 
 />
    <glyph glyph-name="etatonos" unicode="&#x3ae;" 
 />
    <glyph glyph-name="iotatonos" unicode="&#x3af;" horiz-adv-x="455" 
 />
    <glyph glyph-name="upsilondieresistonos" unicode="&#x3b0;" horiz-adv-x="1120" 
 />
    <glyph glyph-name="alpha" unicode="&#x3b1;" horiz-adv-x="1184" 
 />
    <glyph glyph-name="beta" unicode="&#x3b2;" horiz-adv-x="1178" 
 />
    <glyph glyph-name="gamma" unicode="&#x3b3;" horiz-adv-x="1024" 
 />
    <glyph glyph-name="delta" unicode="&#x3b4;" horiz-adv-x="1140" 
 />
    <glyph glyph-name="epsilon" unicode="&#x3b5;" horiz-adv-x="913" 
 />
    <glyph glyph-name="zeta" unicode="&#x3b6;" horiz-adv-x="903" 
 />
    <glyph glyph-name="eta" unicode="&#x3b7;" 
 />
    <glyph glyph-name="theta" unicode="&#x3b8;" 
 />
    <glyph glyph-name="iota" unicode="&#x3b9;" horiz-adv-x="455" 
 />
    <glyph glyph-name="kappa" unicode="&#x3ba;" horiz-adv-x="1024" 
 />
    <glyph glyph-name="lambda" unicode="&#x3bb;" horiz-adv-x="1024" 
 />
    <glyph glyph-name="uni03BC" unicode="&#x3bc;" horiz-adv-x="1180" 
 />
    <glyph glyph-name="nu" unicode="&#x3bd;" horiz-adv-x="1024" 
 />
    <glyph glyph-name="xi" unicode="&#x3be;" horiz-adv-x="917" 
 />
    <glyph glyph-name="omicron" unicode="&#x3bf;" 
 />
    <glyph glyph-name="pi" unicode="&#x3c0;" horiz-adv-x="1413" 
 />
    <glyph glyph-name="rho" unicode="&#x3c1;" horiz-adv-x="1165" 
 />
    <glyph glyph-name="sigma1" unicode="&#x3c2;" horiz-adv-x="987" 
 />
    <glyph glyph-name="sigma" unicode="&#x3c3;" horiz-adv-x="1264" 
 />
    <glyph glyph-name="tau" unicode="&#x3c4;" horiz-adv-x="809" 
 />
    <glyph glyph-name="upsilon" unicode="&#x3c5;" horiz-adv-x="1120" 
 />
    <glyph glyph-name="phi" unicode="&#x3c6;" horiz-adv-x="1328" 
 />
    <glyph glyph-name="chi" unicode="&#x3c7;" horiz-adv-x="1075" 
 />
    <glyph glyph-name="psi" unicode="&#x3c8;" horiz-adv-x="1460" 
 />
    <glyph glyph-name="omega" unicode="&#x3c9;" horiz-adv-x="1599" 
 />
    <glyph glyph-name="iotadieresis" unicode="&#x3ca;" horiz-adv-x="455" 
 />
    <glyph glyph-name="upsilondieresis" unicode="&#x3cb;" horiz-adv-x="1120" 
 />
    <glyph glyph-name="omicrontonos" unicode="&#x3cc;" 
 />
    <glyph glyph-name="upsilontonos" unicode="&#x3cd;" horiz-adv-x="1120" 
 />
    <glyph glyph-name="omegatonos" unicode="&#x3ce;" horiz-adv-x="1599" 
 />
    <glyph glyph-name="afii10023" unicode="&#x401;" horiz-adv-x="1367" 
 />
    <glyph glyph-name="afii10051" unicode="&#x402;" horiz-adv-x="1771" 
 />
    <glyph glyph-name="afii10052" unicode="&#x403;" horiz-adv-x="1109" 
 />
    <glyph glyph-name="afii10053" unicode="&#x404;" horiz-adv-x="1472" 
 />
    <glyph glyph-name="afii10054" unicode="&#x405;" horiz-adv-x="1366" 
 />
    <glyph glyph-name="afii10055" unicode="&#x406;" horiz-adv-x="569" 
 />
    <glyph glyph-name="afii10056" unicode="&#x407;" horiz-adv-x="569" 
 />
    <glyph glyph-name="afii10057" unicode="&#x408;" horiz-adv-x="1024" 
 />
    <glyph glyph-name="afii10058" unicode="&#x409;" horiz-adv-x="2165" 
 />
    <glyph glyph-name="afii10059" unicode="&#x40a;" horiz-adv-x="2069" 
 />
    <glyph glyph-name="afii10060" unicode="&#x40b;" horiz-adv-x="1749" 
 />
    <glyph glyph-name="afii10061" unicode="&#x40c;" horiz-adv-x="1193" 
 />
    <glyph glyph-name="afii10062" unicode="&#x40e;" horiz-adv-x="1301" 
 />
    <glyph glyph-name="afii10145" unicode="&#x40f;" horiz-adv-x="1472" 
 />
    <glyph glyph-name="afii10017" unicode="&#x410;" horiz-adv-x="1366" 
 />
    <glyph glyph-name="afii10018" unicode="&#x411;" horiz-adv-x="1344" 
 />
    <glyph glyph-name="afii10019" unicode="&#x412;" horiz-adv-x="1366" 
 />
    <glyph glyph-name="afii10020" unicode="&#x413;" horiz-adv-x="1109" 
 />
    <glyph glyph-name="afii10021" unicode="&#x414;" horiz-adv-x="1387" 
 />
    <glyph glyph-name="afii10022" unicode="&#x415;" horiz-adv-x="1366" 
 />
    <glyph glyph-name="afii10024" unicode="&#x416;" horiz-adv-x="1891" 
 />
    <glyph glyph-name="afii10025" unicode="&#x417;" horiz-adv-x="1237" 
 />
    <glyph glyph-name="afii10026" unicode="&#x418;" horiz-adv-x="1472" 
 />
    <glyph glyph-name="afii10027" unicode="&#x419;" horiz-adv-x="1472" 
 />
    <glyph glyph-name="afii10028" unicode="&#x41a;" horiz-adv-x="1193" 
 />
    <glyph glyph-name="afii10029" unicode="&#x41b;" horiz-adv-x="1344" 
 />
    <glyph glyph-name="afii10030" unicode="&#x41c;" horiz-adv-x="1706" 
 />
    <glyph glyph-name="afii10031" unicode="&#x41d;" horiz-adv-x="1479" 
 />
    <glyph glyph-name="afii10032" unicode="&#x41e;" horiz-adv-x="1593" 
 />
    <glyph glyph-name="afii10033" unicode="&#x41f;" horiz-adv-x="1472" 
 />
    <glyph glyph-name="afii10034" unicode="&#x420;" horiz-adv-x="1366" 
 />
    <glyph glyph-name="afii10035" unicode="&#x421;" horiz-adv-x="1479" 
 />
    <glyph glyph-name="afii10036" unicode="&#x422;" horiz-adv-x="1251" 
 />
    <glyph glyph-name="afii10037" unicode="&#x423;" horiz-adv-x="1301" 
 />
    <glyph glyph-name="afii10038" unicode="&#x424;" horiz-adv-x="1557" 
 />
    <glyph glyph-name="afii10039" unicode="&#x425;" horiz-adv-x="1366" 
 />
    <glyph glyph-name="afii10040" unicode="&#x426;" horiz-adv-x="1515" 
 />
    <glyph glyph-name="afii10041" unicode="&#x427;" horiz-adv-x="1365" 
 />
    <glyph glyph-name="afii10042" unicode="&#x428;" horiz-adv-x="1877" 
 />
    <glyph glyph-name="afii10043" unicode="&#x429;" horiz-adv-x="1920" 
 />
    <glyph glyph-name="afii10044" unicode="&#x42a;" horiz-adv-x="1621" 
 />
    <glyph glyph-name="afii10045" unicode="&#x42b;" horiz-adv-x="1813" 
 />
    <glyph glyph-name="afii10046" unicode="&#x42c;" horiz-adv-x="1344" 
 />
    <glyph glyph-name="afii10047" unicode="&#x42d;" horiz-adv-x="1472" 
 />
    <glyph glyph-name="afii10048" unicode="&#x42e;" horiz-adv-x="2069" 
 />
    <glyph glyph-name="afii10049" unicode="&#x42f;" horiz-adv-x="1479" 
 />
    <glyph glyph-name="afii10065" unicode="&#x430;" 
 />
    <glyph glyph-name="afii10066" unicode="&#x431;" horiz-adv-x="1173" 
 />
    <glyph glyph-name="afii10067" unicode="&#x432;" horiz-adv-x="1088" 
 />
    <glyph glyph-name="afii10068" unicode="&#x433;" horiz-adv-x="747" 
 />
    <glyph glyph-name="afii10069" unicode="&#x434;" horiz-adv-x="1195" 
 />
    <glyph glyph-name="afii10070" unicode="&#x435;" 
 />
    <glyph glyph-name="afii10072" unicode="&#x436;" horiz-adv-x="1370" 
 />
    <glyph glyph-name="afii10073" unicode="&#x437;" horiz-adv-x="939" 
 />
    <glyph glyph-name="afii10074" unicode="&#x438;" horiz-adv-x="1144" 
 />
    <glyph glyph-name="afii10075" unicode="&#x439;" horiz-adv-x="1144" 
 />
    <glyph glyph-name="afii10076" unicode="&#x43a;" horiz-adv-x="896" 
 />
    <glyph glyph-name="afii10077" unicode="&#x43b;" horiz-adv-x="1195" 
 />
    <glyph glyph-name="afii10078" unicode="&#x43c;" horiz-adv-x="1408" 
 />
    <glyph glyph-name="afii10079" unicode="&#x43d;" horiz-adv-x="1131" 
 />
    <glyph glyph-name="afii10080" unicode="&#x43e;" 
 />
    <glyph glyph-name="afii10081" unicode="&#x43f;" horiz-adv-x="1109" 
 />
    <glyph glyph-name="afii10082" unicode="&#x440;" 
 />
    <glyph glyph-name="afii10083" unicode="&#x441;" horiz-adv-x="1024" 
 />
    <glyph glyph-name="afii10084" unicode="&#x442;" horiz-adv-x="938" 
 />
    <glyph glyph-name="afii10085" unicode="&#x443;" horiz-adv-x="1024" 
 />
    <glyph glyph-name="afii10086" unicode="&#x444;" horiz-adv-x="1685" 
 />
    <glyph glyph-name="afii10087" unicode="&#x445;" horiz-adv-x="1024" 
 />
    <glyph glyph-name="afii10088" unicode="&#x446;" horiz-adv-x="1173" 
 />
    <glyph glyph-name="afii10089" unicode="&#x447;" horiz-adv-x="1067" 
 />
    <glyph glyph-name="afii10090" unicode="&#x448;" horiz-adv-x="1643" 
 />
    <glyph glyph-name="afii10091" unicode="&#x449;" horiz-adv-x="1685" 
 />
    <glyph glyph-name="afii10092" unicode="&#x44a;" horiz-adv-x="1280" 
 />
    <glyph glyph-name="afii10093" unicode="&#x44b;" horiz-adv-x="1472" 
 />
    <glyph glyph-name="afii10094" unicode="&#x44c;" horiz-adv-x="1067" 
 />
    <glyph glyph-name="afii10095" unicode="&#x44d;" horiz-adv-x="1045" 
 />
    <glyph glyph-name="afii10096" unicode="&#x44e;" horiz-adv-x="1536" 
 />
    <glyph glyph-name="afii10097" unicode="&#x44f;" horiz-adv-x="1109" 
 />
    <glyph glyph-name="afii10071" unicode="&#x451;" 
 />
    <glyph glyph-name="afii10099" unicode="&#x452;" 
 />
    <glyph glyph-name="afii10100" unicode="&#x453;" horiz-adv-x="747" 
 />
    <glyph glyph-name="afii10101" unicode="&#x454;" horiz-adv-x="1045" 
 />
    <glyph glyph-name="afii10102" unicode="&#x455;" horiz-adv-x="1024" 
 />
    <glyph glyph-name="afii10103" unicode="&#x456;" horiz-adv-x="455" 
 />
    <glyph glyph-name="afii10104" unicode="&#x457;" horiz-adv-x="569" 
 />
    <glyph glyph-name="afii10105" unicode="&#x458;" horiz-adv-x="455" 
 />
    <glyph glyph-name="afii10106" unicode="&#x459;" horiz-adv-x="1856" 
 />
    <glyph glyph-name="afii10107" unicode="&#x45a;" horiz-adv-x="1664" 
 />
    <glyph glyph-name="afii10108" unicode="&#x45b;" 
 />
    <glyph glyph-name="afii10109" unicode="&#x45c;" horiz-adv-x="896" 
 />
    <glyph glyph-name="afii10110" unicode="&#x45e;" horiz-adv-x="1024" 
 />
    <glyph glyph-name="afii10193" unicode="&#x45f;" horiz-adv-x="1131" 
 />
    <glyph glyph-name="afii10050" unicode="&#x490;" horiz-adv-x="1001" 
 />
    <glyph glyph-name="afii10098" unicode="&#x491;" horiz-adv-x="842" 
 />
    <glyph glyph-name="Wgrave" unicode="&#x1e80;" horiz-adv-x="1933" 
 />
    <glyph glyph-name="wgrave" unicode="&#x1e81;" horiz-adv-x="1479" 
 />
    <glyph glyph-name="Wacute" unicode="&#x1e82;" horiz-adv-x="1933" 
 />
    <glyph glyph-name="wacute" unicode="&#x1e83;" horiz-adv-x="1479" 
 />
    <glyph glyph-name="Wdieresis" unicode="&#x1e84;" horiz-adv-x="1933" 
 />
    <glyph glyph-name="wdieresis" unicode="&#x1e85;" horiz-adv-x="1479" 
 />
    <glyph glyph-name="Ygrave" unicode="&#x1ef2;" horiz-adv-x="1366" 
 />
    <glyph glyph-name="ygrave" unicode="&#x1ef3;" horiz-adv-x="1024" 
 />
    <glyph glyph-name="afii00208" unicode="&#x2015;" horiz-adv-x="2048" 
 />
    <glyph glyph-name="underscoredbl" unicode="&#x2017;" horiz-adv-x="1131" 
 />
    <glyph glyph-name="quotereversed" unicode="&#x201b;" horiz-adv-x="455" 
 />
    <glyph glyph-name="minute" unicode="&#x2032;" horiz-adv-x="384" 
 />
    <glyph glyph-name="second" unicode="&#x2033;" horiz-adv-x="725" 
 />
    <glyph glyph-name="exclamdbl" unicode="&#x203c;" horiz-adv-x="1024" 
 />
    <glyph glyph-name="uni203E" unicode="&#x203e;" horiz-adv-x="682" 
 />
    <glyph glyph-name="uni207F" unicode="&#x207f;" horiz-adv-x="747" 
 />
    <glyph glyph-name="lira" unicode="&#x20a4;" 
 />
    <glyph glyph-name="peseta" unicode="&#x20a7;" horiz-adv-x="2240" 
 />
    <glyph glyph-name="afii61248" unicode="&#x2105;" horiz-adv-x="1813" 
 />
    <glyph glyph-name="afii61289" unicode="&#x2113;" horiz-adv-x="662" 
 />
    <glyph glyph-name="afii61352" unicode="&#x2116;" horiz-adv-x="2197" 
 />
    <glyph glyph-name="estimated" unicode="&#x212e;" horiz-adv-x="1229" 
 />
    <glyph glyph-name="oneeighth" unicode="&#x215b;" horiz-adv-x="1708" 
 />
    <glyph glyph-name="threeeighths" unicode="&#x215c;" horiz-adv-x="1708" 
 />
    <glyph glyph-name="fiveeighths" unicode="&#x215d;" horiz-adv-x="1708" 
 />
    <glyph glyph-name="seveneighths" unicode="&#x215e;" horiz-adv-x="1708" 
 />
    <glyph glyph-name="arrowleft" unicode="&#x2190;" horiz-adv-x="2048" 
 />
    <glyph glyph-name="arrowup" unicode="&#x2191;" horiz-adv-x="1024" 
 />
    <glyph glyph-name="arrowright" unicode="&#x2192;" horiz-adv-x="2048" 
 />
    <glyph glyph-name="arrowdown" unicode="&#x2193;" horiz-adv-x="1024" 
 />
    <glyph glyph-name="arrowboth" unicode="&#x2194;" horiz-adv-x="2048" 
 />
    <glyph glyph-name="arrowupdn" unicode="&#x2195;" horiz-adv-x="1024" 
 />
    <glyph glyph-name="arrowupdnbse" unicode="&#x21a8;" horiz-adv-x="1024" 
 />
    <glyph glyph-name="orthogonal" unicode="&#x221f;" horiz-adv-x="2005" 
 />
    <glyph glyph-name="intersection" unicode="&#x2229;" horiz-adv-x="1472" 
 />
    <glyph glyph-name="equivalence" unicode="&#x2261;" horiz-adv-x="1195" 
 />
    <glyph glyph-name="house" unicode="&#x2302;" horiz-adv-x="1237" 
 />
    <glyph glyph-name="revlogicalnot" unicode="&#x2310;" horiz-adv-x="1196" 
 />
    <glyph glyph-name="integraltp" unicode="&#x2320;" horiz-adv-x="1237" 
 />
    <glyph glyph-name="integralbt" unicode="&#x2321;" horiz-adv-x="1237" 
 />
    <glyph glyph-name="SF100000" unicode="&#x2500;" horiz-adv-x="1451" 
 />
    <glyph glyph-name="SF110000" unicode="&#x2502;" horiz-adv-x="1280" 
 />
    <glyph glyph-name="SF010000" unicode="&#x250c;" horiz-adv-x="1451" 
 />
    <glyph glyph-name="SF030000" unicode="&#x2510;" horiz-adv-x="1451" 
 />
    <glyph glyph-name="SF020000" unicode="&#x2514;" horiz-adv-x="1451" 
 />
    <glyph glyph-name="SF040000" unicode="&#x2518;" horiz-adv-x="1451" 
 />
    <glyph glyph-name="SF080000" unicode="&#x251c;" horiz-adv-x="1451" 
 />
    <glyph glyph-name="SF090000" unicode="&#x2524;" horiz-adv-x="1451" 
 />
    <glyph glyph-name="SF060000" unicode="&#x252c;" horiz-adv-x="1451" 
 />
    <glyph glyph-name="SF070000" unicode="&#x2534;" horiz-adv-x="1451" 
 />
    <glyph glyph-name="SF050000" unicode="&#x253c;" horiz-adv-x="1451" 
 />
    <glyph glyph-name="SF430000" unicode="&#x2550;" horiz-adv-x="1451" 
 />
    <glyph glyph-name="SF240000" unicode="&#x2551;" horiz-adv-x="1451" 
 />
    <glyph glyph-name="SF510000" unicode="&#x2552;" horiz-adv-x="1451" 
 />
    <glyph glyph-name="SF520000" unicode="&#x2553;" horiz-adv-x="1451" 
 />
    <glyph glyph-name="SF390000" unicode="&#x2554;" horiz-adv-x="1451" 
 />
    <glyph glyph-name="SF220000" unicode="&#x2555;" horiz-adv-x="1451" 
 />
    <glyph glyph-name="SF210000" unicode="&#x2556;" horiz-adv-x="1451" 
 />
    <glyph glyph-name="SF250000" unicode="&#x2557;" horiz-adv-x="1451" 
 />
    <glyph glyph-name="SF500000" unicode="&#x2558;" horiz-adv-x="1451" 
 />
    <glyph glyph-name="SF490000" unicode="&#x2559;" horiz-adv-x="1451" 
 />
    <glyph glyph-name="SF380000" unicode="&#x255a;" horiz-adv-x="1451" 
 />
    <glyph glyph-name="SF280000" unicode="&#x255b;" horiz-adv-x="1451" 
 />
    <glyph glyph-name="SF270000" unicode="&#x255c;" horiz-adv-x="1451" 
 />
    <glyph glyph-name="SF260000" unicode="&#x255d;" horiz-adv-x="1451" 
 />
    <glyph glyph-name="SF360000" unicode="&#x255e;" horiz-adv-x="1451" 
 />
    <glyph glyph-name="SF370000" unicode="&#x255f;" horiz-adv-x="1451" 
 />
    <glyph glyph-name="SF420000" unicode="&#x2560;" horiz-adv-x="1451" 
 />
    <glyph glyph-name="SF190000" unicode="&#x2561;" horiz-adv-x="1451" 
 />
    <glyph glyph-name="SF200000" unicode="&#x2562;" horiz-adv-x="1451" 
 />
    <glyph glyph-name="SF230000" unicode="&#x2563;" horiz-adv-x="1451" 
 />
    <glyph glyph-name="SF470000" unicode="&#x2564;" horiz-adv-x="1451" 
 />
    <glyph glyph-name="SF480000" unicode="&#x2565;" horiz-adv-x="1451" 
 />
    <glyph glyph-name="SF410000" unicode="&#x2566;" horiz-adv-x="1451" 
 />
    <glyph glyph-name="SF450000" unicode="&#x2567;" horiz-adv-x="1451" 
 />
    <glyph glyph-name="SF460000" unicode="&#x2568;" horiz-adv-x="1451" 
 />
    <glyph glyph-name="SF400000" unicode="&#x2569;" horiz-adv-x="1451" 
 />
    <glyph glyph-name="SF540000" unicode="&#x256a;" horiz-adv-x="1451" 
 />
    <glyph glyph-name="SF530000" unicode="&#x256b;" horiz-adv-x="1451" 
 />
    <glyph glyph-name="SF440000" unicode="&#x256c;" horiz-adv-x="1451" 
 />
    <glyph glyph-name="upblock" unicode="&#x2580;" horiz-adv-x="1451" 
 />
    <glyph glyph-name="dnblock" unicode="&#x2584;" horiz-adv-x="1451" 
 />
    <glyph glyph-name="block" unicode="&#x2588;" horiz-adv-x="1451" 
 />
    <glyph glyph-name="lfblock" unicode="&#x258c;" horiz-adv-x="1451" 
 />
    <glyph glyph-name="rtblock" unicode="&#x2590;" horiz-adv-x="1451" 
 />
    <glyph glyph-name="ltshade" unicode="&#x2591;" horiz-adv-x="1451" 
 />
    <glyph glyph-name="shade" unicode="&#x2592;" horiz-adv-x="1451" 
 />
    <glyph glyph-name="dkshade" unicode="&#x2593;" horiz-adv-x="1493" 
 />
    <glyph glyph-name="filledbox" unicode="&#x25a0;" horiz-adv-x="1237" 
 />
    <glyph glyph-name="H22073" unicode="&#x25a1;" horiz-adv-x="1237" 
 />
    <glyph glyph-name="H18543" unicode="&#x25aa;" horiz-adv-x="726" 
 />
    <glyph glyph-name="H18551" unicode="&#x25ab;" horiz-adv-x="726" 
 />
    <glyph glyph-name="filledrect" unicode="&#x25ac;" horiz-adv-x="2048" 
 />
    <glyph glyph-name="triagup" unicode="&#x25b2;" horiz-adv-x="2027" 
 />
    <glyph glyph-name="triagrt" unicode="&#x25ba;" horiz-adv-x="2027" 
 />
    <glyph glyph-name="triagdn" unicode="&#x25bc;" horiz-adv-x="2027" 
 />
    <glyph glyph-name="triaglf" unicode="&#x25c4;" horiz-adv-x="2027" 
 />
    <glyph glyph-name="circle" unicode="&#x25cb;" horiz-adv-x="1237" 
 />
    <glyph glyph-name="H18533" unicode="&#x25cf;" horiz-adv-x="1237" 
 />
    <glyph glyph-name="invbullet" unicode="&#x25d8;" horiz-adv-x="1237" 
 />
    <glyph glyph-name="invcircle" unicode="&#x25d9;" horiz-adv-x="1237" 
 />
    <glyph glyph-name="openbullet" unicode="&#x25e6;" horiz-adv-x="726" 
 />
    <glyph glyph-name="smileface" unicode="&#x263a;" horiz-adv-x="2091" 
 />
    <glyph glyph-name="invsmileface" unicode="&#x263b;" horiz-adv-x="2155" 
 />
    <glyph glyph-name="sun" unicode="&#x263c;" horiz-adv-x="1877" 
 />
    <glyph glyph-name="female" unicode="&#x2640;" horiz-adv-x="1536" 
 />
    <glyph glyph-name="male" unicode="&#x2642;" horiz-adv-x="1536" 
 />
    <glyph glyph-name="spade" unicode="&#x2660;" horiz-adv-x="1088" 
 />
    <glyph glyph-name="club" unicode="&#x2663;" horiz-adv-x="1344" 
 />
    <glyph glyph-name="heart" unicode="&#x2665;" horiz-adv-x="1216" 
 />
    <glyph glyph-name="diamond" unicode="&#x2666;" horiz-adv-x="1045" 
 />
    <glyph glyph-name="musicalnote" unicode="&#x266a;" horiz-adv-x="1024" 
 />
    <glyph glyph-name="musicalnotedbl" unicode="&#x266b;" horiz-adv-x="1536" 
 />
    <glyph glyph-name="uniF004" unicode="&#xf004;" horiz-adv-x="682" 
 />
    <glyph glyph-name="uniF005" unicode="&#xf005;" horiz-adv-x="682" 
 />
    </font>
</defs>
</svg>
