<?xml version="1.0" standalone="no"?>
<!DOCTYPE svg PUBLIC "-//W3C//DTD SVG 1.1//EN" "http://www.w3.org/Graphics/SVG/1.1/DTD/svg11.dtd" >
<svg>
<metadata>
Created by FontForge 20110222 at Sat Jun 28 09:18:13 2014
 By Orthosie Webhosting
Vanessa Bays - ByTheButterfly.com
</metadata>
<defs>
<font id="PenelopeAnne" horiz-adv-x="325" >
  <font-face 
    font-family="Penelope Anne"
    font-weight="500"
    font-stretch="normal"
    units-per-em="1000"
    panose-1="2 0 6 3 0 0 0 0 0 0"
    ascent="800"
    descent="-200"
    x-height="696"
    cap-height="699"
    bbox="2 -203.267 1091.88 828.364"
    underline-thickness="50"
    underline-position="-100"
    unicode-range="U+0020-F8FF"
  />
<missing-glyph horiz-adv-x="364" 
d="M66 33h199v600h-199v-600zM33 0v666h265v-666h-265z" />
    <glyph glyph-name=".notdef" horiz-adv-x="364" 
d="M66 33h199v600h-199v-600zM33 0v666h265v-666h-265z" />
    <glyph glyph-name=".null" horiz-adv-x="0" 
 />
    <glyph glyph-name="nonmarkingreturn" horiz-adv-x="333" 
 />
    <glyph glyph-name="space" unicode=" " horiz-adv-x="300" 
 />
    <glyph glyph-name="exclam" unicode="!" horiz-adv-x="100" 
d="M58 685v-533q0 -12 -12 -12t-12 12v533q0 12 12 12t12 -12zM63 29q0 -12 -12 -12t-12 12t12 12t12 -12z" />
    <glyph glyph-name="quotedbl" unicode="&#x22;" horiz-adv-x="119" 
d="M111 688v-257q0 -12 -12 -12t-12 12v257q0 12 12 12t12 -12zM45 688v-257q0 -12 -12 -12t-12 12v257q0 12 12 12t12 -12z" />
    <glyph glyph-name="numbersign" unicode="#" horiz-adv-x="400" 
d="M162 397v-124h126v124h-126zM138 397h-99q-12 0 -12 12t12 12h99v194q0 12 12 12t12 -12v-194h126v191q0 12 12 12t12 -12v-191h78q12 0 12 -12t-12 -12h-78v-124h77q12 0 12 -12t-12 -12h-77v-170q0 -12 -12 -12t-12 12v170h-126v-167q0 -12 -12 -12t-12 12v167h-100
q-12 0 -12 12t12 12h100v124z" />
    <glyph glyph-name="dollar" unicode="$" horiz-adv-x="299" 
d="M267 510q-2 52 -14 88q-16 50 -49 66q-37 18 -74 -1t-47 -59q-13 -51 18 -118q14 -30 77 -128q24 -38 34 -55q13 -23 27.5 -56t20 -61t4 -62t-13.5 -66q-10 -29 -32.5 -44t-50.5 -16q-26 0 -51 11.5t-42 33.5q-34 46 -40 124t16 129q4 11 15 7t7 -15q-20 -48 -14.5 -119
t36.5 -112q27 -36 72.5 -34.5t61.5 43.5q10 29 11.5 59t-3.5 56t-18 56.5t-26 52.5l-34 55q-64 100 -79 131q-35 75 -20 134q13 50 60 74.5t95 1.5q43 -20 62 -80q13 -41 15 -96q0 -4 -3.5 -8t-8 -4t-8.5 3.5t-4 8.5zM174 762q2 -18 3 -31q0 -5 -3 -9t-8 -4t-9 3t-4 8
q-1 13 -3 31q0 5 3 8.5t8 4t8.5 -2.5t4.5 -8zM173 -40q0 -17 1 -29q0 -5 -3 -9t-8 -4t-9 3t-4 8q-1 14 -1 31q0 12 12 12t12 -12z" />
    <glyph glyph-name="percent" unicode="%" horiz-adv-x="360" 
d="M162 603q-6 -12 -5 -21q0 -9 7 -13q7 -5 19 -0.5t18 17t2 20.5q-4 7 -13 9q-17 4 -28 -12zM168 637q13 5 27 2q20 -4 29 -22q10 -19 -1 -42q-11 -21 -32 -29t-38 1q-20 10 -20 34q0 1 -1 1q-2 4 -1 9q3 13 10 24q4 9 11 19q7 9 16 3zM176 96q-6 -12 -5 -21q0 -9 7 -13
q7 -5 19 -0.5t18 17t2 20.5q-4 7 -13 9q-17 4 -28 -12zM182 130q13 5 27 2q20 -4 29 -22q10 -19 -1 -42q-11 -21 -32 -29t-38 1q-20 10 -20 34q0 1 -1 1q-2 4 -1 9q3 13 10 24q4 9 11 19q7 9 16 3zM351 693l-298 -685q-5 -11 -16 -6t-6 16l298 685q5 11 16 6t6 -16z" />
    <glyph glyph-name="ampersand" unicode="&#x26;" horiz-adv-x="358" 
d="M231 139q-65 107 -100 249q-23 -53 -38 -90q-60 -150 -38 -221q6 -16 18 -30t27 -20q26 -10 54 9q25 18 52 59q13 20 25 44zM258 140q38 -59 85 -107q9 -8 0.5 -16.5t-16.5 0.5q-45 44 -81 99q-10 -18 -20 -34q-29 -45 -59 -65q-38 -27 -75 -12q-21 8 -37 25.5t-22 38.5
q-26 81 37 238q13 31 53 119q-7 31 -12 62q-7 47 -1 110q4 40 14 62q15 33 43 31q23 -2 31 -31q5 -19 4 -51q-3 -50 -14 -84q-10 -34 -40 -101q32 -149 96 -259q15 34 32 77q4 11 15 7t7 -15q-20 -53 -40 -94zM139 465q18 41 27 68q9 31 12 77q1 28 -3 44q-4 12 -10 13
q-11 1 -19 -17q-9 -19 -12 -54q-6 -61 1 -104z" />
    <glyph glyph-name="quotesingle" unicode="'" horiz-adv-x="58" 
d="M41 684v-257q0 -12 -12 -12t-12 12v257q0 12 12 12t12 -12z" />
    <glyph glyph-name="parenleft" unicode="(" horiz-adv-x="194" 
d="M159 680q-86 -135 -109.5 -285t11.5 -294.5t120 -283.5q7 -10 -3.5 -16.5t-16.5 4.5q-88 142 -123.5 290t-11.5 303.5t113 293.5q6 11 16.5 4.5t3.5 -16.5z" />
    <glyph glyph-name="parenright" unicode=")" horiz-adv-x="200" 
d="M35 -179q89 139 117.5 285t-1 290t-113.5 288q-6 10 4 16t16 -4q87 -147 117.5 -295.5t1 -299t-121.5 -292.5q-6 -11 -16.5 -4.5t-3.5 16.5z" />
    <glyph glyph-name="asterisk" unicode="*" horiz-adv-x="300" 
d="M177 693q0 -13 2 -67q1 -17 1 -30l45 63q8 10 17.5 2.5t2.5 -16.5l-50 -69l26 5q10 3 25 7l24 6l15 3q12 2 14 -10t-10 -14l-14 -3l-24 -6q-14 -4 -24 -6q-21 -5 -34 -7q22 -24 65 -79q8 -9 -1.5 -16.5t-16.5 2.5l-55 67q0 -3 -1 -6v-20l-2 -29v-31q0 -12 -12 -12t-12 12
v31l2 30v19q1 6 1 10q-24 -30 -47 -52q-8 -9 -16.5 -0.5t0.5 16.5q22 23 47 55q-5 -1 -10 -1q-10 -2 -37.5 -7t-42.5 -8q-12 -2 -14 10t10 14q15 2 43 7.5t38 6.5q5 1 9 2q-24 25 -53 48q-9 7 -1.5 16.5t17.5 1.5q28 -23 53 -48q-1 15 -2 35q-2 54 -2 68q0 12 12 12t12 -12z
" />
    <glyph glyph-name="plus" unicode="+" horiz-adv-x="244" 
d="M22 312v24h102v117h24v-116h97v-24h-97v-105h-24v104h-102z" />
    <glyph glyph-name="comma" unicode="," horiz-adv-x="108" 
d="M83 53q27 -56 13 -104t-65 -80q-10 -7 -16.5 3.5t4.5 16.5q42 27 54 67t-12 85q-5 11 5.5 16.5t16.5 -4.5z" />
    <glyph glyph-name="hyphen" unicode="-" horiz-adv-x="191" 
d="M11 253v24h163v-24h-163z" />
    <glyph glyph-name="period" unicode="." horiz-adv-x="79" 
d="M51 18q0 -12 -12 -12t-12 12t12 12t12 -12z" />
    <glyph glyph-name="slash" unicode="/" horiz-adv-x="271" 
d="M257 686l-214 -672q-3 -11 -14.5 -7.5t-7.5 15.5q170 542 214 672q3 11 14.5 7.5t7.5 -15.5z" />
    <glyph glyph-name="zero" unicode="0" horiz-adv-x="360" 
d="M203 699h2q33 -3 61 -38q24 -30 43 -82q36 -103 40 -238q4 -141 -33 -235q-44 -112 -132 -109q-93 3 -137 119q-37 99 -29 243q9 139 54 236q53 111 130 104h1zM200 675q-60 6 -106 -90q-44 -93 -52 -228q-8 -137 28 -232q39 -102 114 -104q72 -2 110 94q35 88 31 225
q-4 132 -39 231q-17 48 -39 75q-21 27 -44 29h-3z" />
    <glyph glyph-name="one" unicode="1" horiz-adv-x="50" 
d="M48 683v-669q0 -12 -12 -12t-12 12v669q0 12 12 12t12 -12z" />
    <glyph glyph-name="two" unicode="2" horiz-adv-x="330" 
d="M52 542q28 93 67 126q29 25 65 30q35 4 65 -9t51 -42t23 -67q4 -67 -60 -146q-14 -19 -53 -61q-33 -37 -47 -56q-51 -70 -80 -164q-8 -26 -20 -74q-7 -29 -10 -46q-1 -5 -2 -9h26q11 0 39.5 0.5t45.5 0.5q129 2 154 -1q12 -2 10 -14t-14 -10q-23 3 -150 1
q-17 0 -45.5 -0.5t-39.5 -0.5h-27h-8h-3h-1h-1q-4 1 -6 3q-4 4 -5 10v7q1 7 3 17q3 18 11 48q12 49 21 76q29 96 82 170q14 19 49 58q38 42 53 60q57 72 54 129q-2 31 -19 54.5t-41 34t-53 7.5q-28 -4 -51 -24q-34 -29 -61 -116q-3 -11 -14.5 -7.5t-7.5 15.5z" />
    <glyph glyph-name="three" unicode="3" horiz-adv-x="342" 
d="M96 579q0 43 23 72t56 36t64 -9t43 -53q28 -76 -36 -155q-14 -19 -19 -23q21 -2 40 -13q31 -20 52 -66q33 -76 26 -172q-5 -69 -43.5 -119.5t-92.5 -66.5q-55 -18 -107 9.5t-78 99.5q-5 11 6 15.5t15 -7.5q25 -63 68 -86t89 -8q47 14 81.5 58.5t38.5 106.5q5 90 -25 161
q-16 39 -42 54q-28 18 -66 5q-2 -1 -3 -1h-2q-3 -1 -6 1q-9 5 -6 14q0 2 2 5q1 1 3 2q1 1 7 5q12 7 14 9q3 3 5.5 5t3.5 4l3 2l3 2l2 2q0 1 1.5 3t2.5 3t4 5t6 7q53 68 32 131q-10 28 -33 40t-48 7q-25 -6 -42.5 -28t-17.5 -57q0 -12 -12 -12t-12 12z" />
    <glyph glyph-name="four" unicode="4" horiz-adv-x="357" 
d="M274 688q2 10 12 10q12 0 12 -12v-364q29 1 43 2q5 0 9 -3t4 -8t-3 -9t-8 -4q-14 -1 -45 -2v-286q0 -12 -12 -12t-12 12v285q-52 -2 -97 -2q-60 1 -96 4q-21 2 -33 4q-7 2 -12 4q-8 4 -10 10q-1 4 -1 7q0 1 1 3l1 1v2l2 1l5 7l16 23l46 62l46 63l50 69q19 26 42.5 63
t39.5 70zM55 326q10 -2 28 -3q35 -3 94 -4q45 0 97 2v316q-21 -36 -47 -73l-62 -86q-36 -50 -49 -69l-46 -63z" />
    <glyph glyph-name="five" unicode="5" horiz-adv-x="329" 
d="M282 671q-26 2 -102 4h-62q-13 0 -20 -1h-4q-1 -5 -1 -13q-2 -15 -2 -42v-30v-23v-11q0 -2 -1 -11l-2 -15q6 5 13 8q38 18 82 6q48 -14 83 -73q29 -50 44 -124q13 -68 11.5 -136t-18.5 -107q-25 -59 -72.5 -83t-96.5 -9q-49 14 -79.5 58.5t-26.5 108.5q0 5 4 8t9 3t8 -4
t3 -9q-3 -55 22.5 -93t66 -49.5t79.5 8t61 71.5q15 35 16 98q2 63 -11 130q-14 71 -41 117q-29 51 -68 61q-36 10 -66 -4q-9 -4 -18 -15q-5 -6 -6 -7q-4 -4 -8 -4q-8 -2 -13 4q-2 3 -3 7q0 1 -1 3q0 3 1 8q0 6 1 18q1 5 2 17q1 9 1 10v10v24v30q0 27 2 43q1 10 2 17q1 4 2 6
q3 6 7 8q3 2 8 3q3 0 8 1q8 0 22 1h62q77 -2 104 -4q5 0 8 -4t3 -9t-4 -8t-9 -3z" />
    <glyph glyph-name="six" unicode="6" horiz-adv-x="311" 
d="M164 31q12 -3 24 -1q36 6 65 51q28 44 36 100t-9 93q-10 21 -31 26q-23 6 -44 -14q-19 -20 -34 -59q-13 -34 -20 -73.5t-5 -62.5q1 -23 18 -60zM274 604q-5 36 -28 56q-23 22 -54 8q-25 -11 -50 -49q-16 -25 -35 -67q-55 -124 -64 -247q-11 -153 62 -234q13 -15 27 -24
q-9 22 -10 42q-2 26 5 68t21 79q17 44 41 67q29 29 66 21q32 -8 47 -40q20 -45 10.5 -106.5t-39.5 -109.5q-35 -54 -81 -61q-13 -3 -26 -1q-1 -1 -3 -2q-11 -5 -16 6v1q-31 12 -60 44q-79 88 -68 252q9 128 66 255q19 42 37 70q29 44 60 58q46 21 81 -12q28 -27 35 -70
q2 -12 -10 -14t-14 10z" />
    <glyph glyph-name="seven" unicode="7" horiz-adv-x="314" 
d="M50 700q17 -2 125 -2q16 -1 42 -1h31h24h7h2h2q3 -1 5 -2q12 -9 6 -27q-2 -7 -14 -33q-37 -78 -63 -147q-104 -281 -69 -469q2 -12 -10 -14t-14 10q-36 192 71 481q27 73 64 149q10 22 12 28h-23h-31q-26 0 -42 1q-110 0 -127 2q-12 2 -10.5 13.5t12.5 10.5z" />
    <glyph glyph-name="eight" unicode="8" horiz-adv-x="300" 
d="M133 405q5 1 9 -2q1 -1 2 -1l8 -2l8 -2l6 2q12 4 25 21q27 37 37 99q10 64 -8 107q-18 45 -65 43q-33 -1 -54 -34q-20 -31 -24 -80q-4 -48 9 -90t38 -58q3 -2 9 -3zM188 384q49 -22 76 -76q26 -53 27 -115q1 -48 -12 -90t-43.5 -72t-73.5 -33q-85 -5 -119 69
q-29 62 -15 153q13 86 53 139q14 19 31 29q-33 20 -48 68.5t-11 101.5q5 55 28 91q28 43 72 45q64 3 90 -58q20 -49 8 -120q-10 -68 -41 -109q-11 -14 -22 -23zM139 374q-2 -1 -4 -1q-18 -6 -35 -29q-36 -47 -48 -128q-13 -84 12 -138q28 -60 96 -56q50 3 79 52.5t28 117.5
q-2 70 -34.5 121.5t-88.5 58.5q-3 0 -5 2z" />
    <glyph glyph-name="nine" unicode="9" horiz-adv-x="259" 
d="M257 683v-669q0 -12 -12 -12t-12 12v345q-44 -28 -118 -3q-85 27 -101 107q-13 68 26 139t97 87q53 15 96 -30v24q0 12 12 12t12 -12zM233 621q-38 59 -90 45q-48 -13 -82 -75q-35 -64 -23 -123q13 -66 85 -90q76 -25 109 11l1 1v230v1z" />
    <glyph glyph-name="colon" unicode=":" horiz-adv-x="65" 
d="M52 446q0 -12 -12 -12t-12 12t12 12t12 -12zM52 49q0 -12 -12 -12t-12 12t12 12t12 -12z" />
    <glyph glyph-name="semicolon" unicode=";" horiz-adv-x="127" 
d="M93 47q17 -51 8 -96q-12 -55 -62 -74q-11 -5 -15.5 6.5t7.5 15.5q37 15 46 57q9 38 -6 83q-4 12 7.5 15.5t14.5 -7.5zM85 455q0 -12 -12 -12t-12 12t12 12t12 -12z" />
    <glyph glyph-name="less" unicode="&#x3c;" horiz-adv-x="246" 
d="M45 277q0 4 -3 1q1 1 3 -1zM240 376q-47 -30 -127 -75q-3 -1 -19 -9l-24 -13l-16 -9q10 -8 18 -13l60 -32q75 -39 106 -52q11 -4 6.5 -15.5t-16.5 -6.5q-31 13 -107 52l-61 34q-29 17 -36 25q-3 4 -3 8t1 6l2 2q1 2 3 4q3 2 8 5q8 5 24 13l24 13q15 8 18 10q80 43 127 73
q10 7 16.5 -3.5t-4.5 -16.5z" />
    <glyph glyph-name="equal" unicode="=" horiz-adv-x="189" 
d="M24 322v24h160v-24h-160zM24 249v24h160v-24h-160z" />
    <glyph glyph-name="greater" unicode="&#x3e;" horiz-adv-x="270" 
d="M243 243q1 -2 3 0q-1 -1 -3 0zM53 136q52 37 124 80q3 2 18.5 10.5t23.5 13.5l15 9q-11 9 -19 13q-23 12 -61 30q-74 34 -107 47q-11 4 -7 15t15 7q37 -14 109 -47q36 -17 62 -31q30 -16 38 -24q6 -7 1 -15q-1 -2 -3 -5q-3 -2 -8 -5q-8 -6 -23 -14q-8 -5 -23.5 -13.5
t-18.5 -10.5q-74 -45 -122 -80q-10 -7 -17 3t3 17z" />
    <glyph glyph-name="question" unicode="?" horiz-adv-x="278" 
d="M29 552q1 4 3 15l3 17q1 5 3.5 14.5t5.5 16t7.5 15t10.5 15.5q27 32 68 43q40 12 74 0q38 -12 59 -45t14 -81q-13 -85 -105 -120q-6 -2 -62 -19q-14 -4 -21 -7q-6 -3 -8 -6q-5 -9 -7 -49q-1 -31 1 -88q1 -38 3 -89q3 -57 3 -71q0 -12 -12 -12t-12 12q0 14 -3 71
q-2 52 -3 88q-2 58 -1 90q2 46 11 60q5 9 18 15q8 5 24 9q55 17 60 19q79 30 90 101q6 39 -10 64.5t-46 34.5q-27 10 -60.5 0.5t-56.5 -36.5q-4 -5 -8 -11.5t-6 -11.5t-4.5 -14t-3 -13.5t-2.5 -15.5t-3 -15q-2 -12 -14 -10t-10 14zM92 21q0 -12 -12 -12t-12 12t12 12t12 -12
z" />
    <glyph glyph-name="at" unicode="@" horiz-adv-x="460" 
d="M267 453q0 8 -2 14q-5 18 -16 25q-12 6 -23 2q-12 -4 -23 -18q-24 -30 -37 -89q-13 -58 -7 -106q6 -49 28 -59q9 -4 20 7q12 12 25 42q18 43 28 97q2 11 4 26q0 3 1 12.5t1 14.5v5v6q0 4 -1 7q0 8 2 12v2zM269 304q-7 -24 -15 -43q-14 -33 -30 -49q-22 -24 -47 -12
q-34 16 -42 78q-6 51 8 114q14 64 41 99q16 20 34 26q21 7 43 -5q20 -11 27 -39q2 -9 4 -20q1 -2 1 -5q1 -2 1 -5q1 -4 0 -10q0 -8 -1 -32q-3 -55 -1 -87q3 -50 16 -73q6 -11 15 -14q10 -4 26 2q18 7 30 48q11 38 13 100q2 53 -3 103q-4 51 -10 71q-23 67 -80 102
q-61 36 -118 4q-53 -31 -86.5 -103t-41.5 -164q-9 -90 7 -172.5t53 -129.5q37 -49 82 -64.5t90 -1.5q43 14 80 51t58 89q4 12 15.5 7.5t6.5 -15.5q-23 -57 -63.5 -98t-89.5 -57q-53 -16 -104.5 2t-94.5 73q-39 51 -56 138t-8 180q9 96 44 174q36 77 96 111q70 40 143 -4
q30 -19 54 -49t35 -65q8 -23 12 -76q5 -52 3 -107q-2 -64 -14 -105q-15 -53 -45 -64q-23 -9 -42 -3q-17 7 -28 25q-15 25 -18 75z" />
    <glyph glyph-name="A" unicode="A" horiz-adv-x="447" 
d="M121 254h223l-103 378zM96 254l134 424q0 3 2 5q4 11 14 7q11 -3 9 -14q19 -75 56 -209l66 -245q29 -111 52 -210q2 -12 -9.5 -14.5t-14.5 8.5q-23 100 -55 224h-236l-75 -223q-3 -11 -14.5 -7.5t-7.5 15.5z" />
    <glyph glyph-name="B" unicode="B" horiz-adv-x="345" 
d="M52 674v-256q79 1 125.5 40t48.5 89q2 49 -42 86.5t-132 40.5zM52 393v-373q133 3 204 59q63 51 57 126q-7 74 -78 130.5t-183 57.5zM40 700q102 0 157.5 -45t52.5 -110q-2 -45 -32.5 -83t-83.5 -57q88 -20 142.5 -76t59.5 -124q8 -88 -65 -146q-81 -65 -233 -65
q-6 0 -10 5q-2 3 -2 7t2 7v675v3q3 9 12 9z" />
    <glyph glyph-name="C" unicode="C" horiz-adv-x="351" 
d="M265 516q-6 63 -22 106q-16 41 -38 52q-20 9 -45 -13q-32 -29 -66 -104t-44 -172.5t3 -179.5q11 -85 47.5 -131t79.5 -47.5t80.5 43.5t51.5 135q2 12 14 10t10 -14q-16 -96 -58 -147q-43 -53 -99 -51q-54 2 -96 55t-54 143q-13 84 -2.5 186t45.5 180q36 79 72 112
q37 33 72 16q29 -14 49 -64q18 -46 24 -113q0 -5 -3 -9t-8 -4t-9 3t-4 8z" />
    <glyph glyph-name="D" unicode="D" horiz-adv-x="383" 
d="M58 673l-1 -647q97 1 153 22q70 27 104.5 93t34.5 153q0 81 -28.5 160t-74.5 127q-66 68 -188 92zM45 700q69 -12 122.5 -35t96.5 -68q49 -51 79 -134t30 -169q0 -93 -37.5 -165.5t-117.5 -102.5q-62 -24 -176 -24q-12 0 -12 12q0 5 3 8l1 658q-4 4 -3 10q2 12 14 10z
" />
    <glyph glyph-name="E" unicode="E" 
d="M50 700h250q1 -5 1 -17t-12 -12l-232 1v-304l243 2q4 3 4 -9t-4 -17l-246 -2l2 -316l232 -1q12 0 12 -12t-12 -12l-251 -1l-4 8h-1v1q-1 3 -1 5q0 3 1 5l1 660q-1 3 -1 5q0 3 1 5q3 7 17 11z" />
    <glyph glyph-name="F" unicode="F" 
d="M25 8q0 13 0.5 37.5t0.5 37.5v2l1 594q-1 3 -1 5q0 3 1 5q3 7 11 7q27 -1 251 -1q12 0 12 -12t-12 -12q-220 0 -237 1v-302q50 -1 238 -1q12 0 12 -12t-12 -12q-188 0 -239 1v-338h-1q0 -12 -12.5 -12t-12.5 12z" />
    <glyph glyph-name="G" unicode="G" horiz-adv-x="348" 
d="M182 251h143q4 0 7 -2q11 -2 10 -13q-10 -120 -55 -184q-43 -62 -102 -55q-57 6 -100 76q-44 72 -54 188q-12 135 24 251q26 85 62 134q36 50 74 53q41 3 69 -46q26 -47 34 -135q0 -5 -3 -9t-8 -4t-9 3t-4 8q-8 83 -31 126q-20 35 -46 33q-27 -2 -57 -43
q-33 -46 -59 -128q-33 -109 -22 -241q9 -110 51 -178q36 -59 82 -64q45 -6 80 45q38 56 49 161h-135q-12 0 -12 12t12 12z" />
    <glyph glyph-name="H" unicode="H" horiz-adv-x="369" 
d="M347 688v-675q0 -12 -12 -12t-12 12v334h-272v-335q0 -12 -12 -12t-12 12v675q0 12 12 12t12 -12v-316h272v317q0 12 12 12t12 -12z" />
    <glyph glyph-name="I" unicode="I" 
d="M49 699q54 -1 245 -1q12 0 12 -12t-12 -12h-55h-62v-651h57h54q12 0 12 -12t-12 -12q-191 0 -245 1q-5 0 -8.5 3.5t-3.5 8.5t3.5 8.5t8.5 3.5q48 -1 110 -1v651q-58 0 -104 1q-5 0 -8.5 3.5t-3.5 8.5t3.5 8.5t8.5 3.5z" />
    <glyph glyph-name="J" unicode="J" 
d="M59 287q-9 -47 -3 -113.5t26 -109.5q17 -38 45 -38q27 0 37 39q7 25 9.5 57t1.5 60t0 60q2 112 2 431q-69 0 -120 1q-5 0 -8.5 3.5t-3.5 8.5t3.5 8.5t8.5 3.5q55 -1 131 -1h1h1h59h53q12 0 12 -12t-12 -12h-50h-51q0 -319 -2 -431v-44q0 -25 -0.5 -47t-3 -47t-7.5 -45
q-7 -27 -23.5 -42t-37.5 -15q-20 0 -38 14t-29 38q-21 47 -28 117.5t3 119.5q2 12 14 10t10 -14z" />
    <glyph glyph-name="K" unicode="K" horiz-adv-x="357" 
d="M48 343v-330q0 -12 -12 -12t-12 12v675q0 12 12 12t12 -12v-304l211 309q6 11 16.5 4.5t3.5 -16.5l-148 -222l219 -448q5 -11 -6 -16t-16 6l-213 436l-66 -93z" />
    <glyph glyph-name="L" unicode="L" horiz-adv-x="305" 
d="M21 13v675q0 12 11.5 12t11.5 -12v-663l237 1q12 0 12 -12t-6 -14l-254 1q-12 0 -12 12z" />
    <glyph glyph-name="M" unicode="M" horiz-adv-x="375" 
d="M206 417q-1 -6 -6 -8q-10 -6 -16 4l-42 71l-48 85q-22 37 -43 70q0 -97 0.5 -308t0.5 -322q0 -12 -12.5 -12t-12.5 12q0 112 -0.5 335.5t-0.5 335.5v2q0 12 12 12q11 0 13 -10q18 -27 38 -61l34 -56l37 -64l33 -59l71 117q59 96 77 132q7 11 17 6q11 -5 6 -16
q0 -111 0.5 -334.5t0.5 -335.5q0 -12 -12.5 -12t-12.5 12q0 111 -0.5 321t-0.5 305q-17 -30 -54 -90q-56 -90 -79 -132z" />
    <glyph glyph-name="N" unicode="N" horiz-adv-x="360" 
d="M347 685q0 -112 0.5 -336.5t0.5 -336.5q0 -12 -12 -12q-10 0 -12 10q0 1 -1 2l-75 158l-64 142l-75 166l-66 148q0 -91 0.5 -298.5t0.5 -318.5q0 -12 -12 -12t-12 12q0 112 -0.5 336.5t-0.5 336.5q0 12 12 12q9 0 12 -9q0 -1 1 -2l85 -191l107 -237l88 -190
q0 93 -0.5 301t-0.5 319q0 12 12 12t12 -12z" />
    <glyph glyph-name="O" unicode="O" horiz-adv-x="360" 
d="M203 699h2q33 -3 61 -38q24 -30 43 -82q36 -103 40 -238q4 -141 -33 -235q-44 -112 -132 -109q-93 3 -137 119q-37 99 -29 243q9 139 54 236q53 111 130 104h1zM200 675q-60 6 -106 -90q-44 -93 -52 -228q-8 -137 28 -232q39 -102 114 -104q72 -2 110 94q35 88 31 225
q-4 132 -39 231q-17 48 -39 75q-21 27 -44 29h-3z" />
    <glyph glyph-name="P" unicode="P" horiz-adv-x="299" 
d="M49 667v-350q104 22 162 88.5t58 139t-55 108.5q-61 40 -165 14zM37 689q119 31 190 -16q66 -43 66 -128q0 -83 -65 -156.5t-179 -95.5v-280q0 -12 -12 -12t-12 12v664q0 12 12 12z" />
    <glyph glyph-name="Q" unicode="Q" horiz-adv-x="372" 
d="M275 38l-1 -1q-31 -32 -65 -38q-41 -7 -81 21q-97 70 -102 258q-2 75 10.5 149.5t32.5 130.5q27 74 49 103q43 56 105 32h1q3 -1 5 -2q99 -72 125 -239q22 -139 -10 -280q-15 -64 -53 -115q39 -39 57 -59q8 -9 -1 -17t-17 1zM215 671q-46 17 -78 -25q-21 -26 -46 -96
q-19 -54 -31 -127q-12 -72 -10 -144q4 -177 92 -239q32 -23 62 -17q27 4 53 31l1 1l-39 41q-8 9 1 17t17 -1l37 -38q33 46 46 104q31 137 11 270q-25 156 -115 222q-1 0 -1 1z" />
    <glyph glyph-name="R" unicode="R" horiz-adv-x="331" 
d="M49 673v-288q99 14 157.5 68.5t60.5 114.5q2 61 -50 91q-60 35 -168 14zM37 695q122 25 192 -15q65 -38 62 -113q-2 -47 -34 -92.5t-88 -75.5l71 -178q53 -135 84 -207q5 -11 -6 -16t-16 6l-84 208l-70 176q-46 -20 -99 -27v-348q0 -12 -12 -12t-12 12v664q0 4 2 7
q1 9 10 11z" />
    <glyph glyph-name="S" unicode="S" horiz-adv-x="327" 
d="M291 601q-26 51 -62.5 68.5t-71.5 4.5q-34 -13 -55 -49q-20 -36 -14 -85q4 -34 38 -75q9 -12 21 -24l29 -30l25 -26q51 -55 81 -109t32 -123q2 -73 -32.5 -115t-87.5 -44t-101 34.5t-71 104.5q-4 11 7 15t15 -7q21 -61 63 -93t86 -30q42 1 70.5 35.5t26.5 99.5
q-2 63 -30 112.5t-77 102.5q-8 9 -25 27l-29 30q-12 13 -22 25q-38 46 -43 86q-7 58 17.5 101t67.5 59q44 17 89 -4.5t75 -80.5q5 -10 -5.5 -15.5t-16.5 5.5z" />
    <glyph glyph-name="T" unicode="T" horiz-adv-x="357" 
d="M46 695q62 -1 282 -1q14 0 14 -12t-14 -12h-63h-73v-657q0 -12 -13.5 -12t-13.5 12v657q-67 0 -119 1q-6 0 -10 3.5t-4 8.5t4 8.5t10 3.5z" />
    <glyph glyph-name="U" unicode="U" horiz-adv-x="349" 
d="M62 692q0 -18 -0.5 -84.5t0.5 -142.5q1 -74 6 -142q9 -127 31 -199q26 -85 68 -97q42 -13 72 25q26 31 36 81q25 124 32 251q7 128 7 305q0 12 12 12t12 -12q0 -116 -2 -191t-11 -179t-26 -190q-12 -57 -41 -93q-41 -49 -97 -33q-55 17 -85 114q-23 74 -32 204
q-5 69 -6 143q-1 76 -0.5 142.5t0.5 85.5q0 5 3.5 8.5t8.5 3.5t8.5 -3.5t3.5 -8.5z" />
    <glyph glyph-name="V" unicode="V" horiz-adv-x="400" 
d="M188 60q31 116 96 329l90 300q4 12 15.5 8.5t8.5 -14.5l-95 -312q-70 -231 -103 -358q2 -11 -9 -14t-15 9q-53 196 -154 676q-2 11 9.5 13.5t14.5 -9.5q94 -447 142 -628z" />
    <glyph glyph-name="W" unicode="W" horiz-adv-x="473" 
d="M249 342q21 -62 61 -162l48 -119q23 194 84 627q2 12 14 10t10 -14q-65 -463 -89 -672q-1 -11 -12 -11q-9 0 -12 8t-65 161q-32 79 -50 129q-17 -50 -54 -147l-53 -144q-4 -11 -15 -7q-1 0 -2 1q-7 2 -8 9q-32 208 -78 676q0 5 3 8.5t8 4t8.5 -2.5t4.5 -8
q43 -438 71 -631q6 14 45.5 119t57.5 161q0 9 8 11q12 4 15 -7z" />
    <glyph glyph-name="X" unicode="X" horiz-adv-x="331" 
d="M183 346l-128 -339q-4 -11 -15 -7t-7 15l138 366l-105 300q-4 11 7 15t15 -7l96 -272q55 150 96 273q3 11 14.5 7.5t7.5 -15.5q-44 -132 -106 -301q79 -226 135 -368q5 -11 -6.5 -15.5t-15.5 7.5q-54 136 -126 341z" />
    <glyph glyph-name="Y" unicode="Y" horiz-adv-x="331" 
d="M324 687l-156 -424q-4 -14 -51 -128q-33 -80 -46 -128q-4 -12 -18.5 -9t-10.5 15q16 52 47 130q47 114 53 128l28 77q-31 65 -82 190l-62 148q-5 11 8.5 15t18.5 -7l59 -142l71 -167l115 308q3 12 17 8.5t9 -14.5z" />
    <glyph glyph-name="Z" unicode="Z" horiz-adv-x="371" 
d="M74 696q63 -1 280 -1h1q12 0 12 -12q0 -5 -4 -9l-154 -300h40h40q12 0 12 -12t-12 -12h-43h-50q-99 -193 -158 -322q54 -1 262 -1q12 0 12 -12t-12 -12q-219 0 -281 1q-5 0 -8.5 3.5t-3.5 8.5t3 8q60 132 159 326q-40 0 -72 1q-5 0 -8.5 3.5t-3.5 8.5t3.5 8.5t8.5 3.5
q37 -1 85 -1l153 297q-191 0 -261 1q-5 0 -8.5 3.5t-3.5 8.5t3.5 8.5t8.5 3.5z" />
    <glyph glyph-name="bracketleft" unicode="[" horiz-adv-x="148" 
d="M50 725q9 -1 72 -1q12 0 12 -12t-12 -12h-63v-701h62q12 0 12 -12t-12 -12q-64 0 -74 1q-12 0 -12 12v724q0 8 8 11q3 2 7 2z" />
    <glyph glyph-name="backslash" unicode="\" horiz-adv-x="329" 
d="M46 685l149 -365l119 -286q5 -12 -6.5 -16.5t-15.5 6.5l-120 287l-148 366q-5 11 6.5 15.5t15.5 -7.5z" />
    <glyph glyph-name="bracketright" unicode="]" horiz-adv-x="130" 
d="M40 0q16 -2 59 -1v701q-42 -1 -60 1q-5 1 -8 4.5t-2.5 8.5t4 8t8.5 3q11 -1 70 -1h2q12 0 12 -12q0 -4 -2 -7v-713q1 -2 1 -5q0 -12 -12 -12q-64 0 -74 1q-5 1 -8 4.5t-2.5 8.5t4 8t8.5 3z" />
    <glyph glyph-name="asciicircum" unicode="^" horiz-adv-x="197" 
d="M31 439q29 95 42 151q11 44 24 77q0 1 1 5q2 4 3 7q2 5 5 8q5 4 10.5 4t9.5 -5t9 -18q4 -10 8 -26q7 -24 18 -72q27 -118 31 -130q4 -11 -7 -15t-15 7q-3 7 -32 133q-11 47 -18 71q-2 8 -4 14q-9 -26 -19 -66q-14 -56 -42 -151q-4 -12 -15.5 -8.5t-8.5 14.5z" />
    <glyph glyph-name="underscore" unicode="_" horiz-adv-x="433" 
d="M43 -30q22 -3 190.5 -1t189.5 2q12 0 12 -12t-12 -12q-21 0 -190 -2t-190 1q-5 0 -8.5 3.5t-3.5 8.5t3.5 8.5t8.5 3.5z" />
    <glyph glyph-name="grave" unicode="`" horiz-adv-x="171" 
d="M70 697q12 -11 44 -48q26 -30 43 -45q9 -8 1 -17t-17 -1q-18 16 -45 47q-30 36 -42 48q-9 8 -0.5 16.5t16.5 -0.5z" />
    <glyph glyph-name="a" unicode="a" horiz-adv-x="447" 
d="M121 254h223l-103 378zM96 254l134 424q0 3 2 5q4 11 14 7q11 -3 9 -14q19 -75 56 -209l66 -245q29 -111 52 -210q2 -12 -9.5 -14.5t-14.5 8.5q-23 100 -55 224h-236l-75 -223q-3 -11 -14.5 -7.5t-7.5 15.5z" />
    <glyph glyph-name="b" unicode="b" horiz-adv-x="345" 
d="M52 674v-256q79 1 125.5 40t48.5 89q2 49 -42 86.5t-132 40.5zM52 393v-373q133 3 204 59q63 51 57 126q-7 74 -78 130.5t-183 57.5zM40 700q102 0 157.5 -45t52.5 -110q-2 -45 -32.5 -83t-83.5 -57q88 -20 142.5 -76t59.5 -124q8 -88 -65 -146q-81 -65 -233 -65
q-6 0 -10 5q-2 3 -2 7t2 7v675v3q3 9 12 9z" />
    <glyph glyph-name="c" unicode="c" horiz-adv-x="351" 
d="M265 516q-6 63 -22 106q-16 41 -38 52q-20 9 -45 -13q-32 -29 -66 -104t-44 -172.5t3 -179.5q11 -85 47.5 -131t79.5 -47.5t80.5 43.5t51.5 135q2 12 14 10t10 -14q-16 -96 -58 -147q-43 -53 -99 -51q-54 2 -96 55t-54 143q-13 84 -2.5 186t45.5 180q36 79 72 112
q37 33 72 16q29 -14 49 -64q18 -46 24 -113q0 -5 -3 -9t-8 -4t-9 3t-4 8z" />
    <glyph glyph-name="d" unicode="d" horiz-adv-x="383" 
d="M58 673l-1 -647q97 1 153 22q70 27 104.5 93t34.5 153q0 81 -28.5 160t-74.5 127q-66 68 -188 92zM45 700q69 -12 122.5 -35t96.5 -68q49 -51 79 -134t30 -169q0 -93 -37.5 -165.5t-117.5 -102.5q-62 -24 -176 -24q-12 0 -12 12q0 5 3 8l1 658q-4 4 -3 10q2 12 14 10z
" />
    <glyph glyph-name="e" unicode="e" 
d="M50 700h250q1 -5 1 -17t-12 -12l-232 1v-304l243 2q4 3 4 -9t-4 -17l-246 -2l2 -316l232 -1q12 0 12 -12t-12 -12l-251 -1l-4 8h-1v1q-1 3 -1 5q0 3 1 5l1 660q-1 3 -1 5q0 3 1 5q3 7 17 11z" />
    <glyph glyph-name="f" unicode="f" 
d="M25 8q0 13 0.5 37.5t0.5 37.5v2l1 594q-1 3 -1 5q0 3 1 5q3 7 11 7q27 -1 251 -1q12 0 12 -12t-12 -12q-220 0 -237 1v-302q50 -1 238 -1q12 0 12 -12t-12 -12q-188 0 -239 1v-338h-1q0 -12 -12.5 -12t-12.5 12z" />
    <glyph glyph-name="g" unicode="g" horiz-adv-x="348" 
d="M182 251h143q4 0 7 -2q11 -2 10 -13q-10 -120 -55 -184q-43 -62 -102 -55q-57 6 -100 76q-44 72 -54 188q-12 135 24 251q26 85 62 134q36 50 74 53q41 3 69 -46q26 -47 34 -135q0 -5 -3 -9t-8 -4t-9 3t-4 8q-8 83 -31 126q-20 35 -46 33q-27 -2 -57 -43
q-33 -46 -59 -128q-33 -109 -22 -241q9 -110 51 -178q36 -59 82 -64q45 -6 80 45q38 56 49 161h-135q-12 0 -12 12t12 12z" />
    <glyph glyph-name="h" unicode="h" horiz-adv-x="369" 
d="M347 688v-675q0 -12 -12 -12t-12 12v334h-272v-335q0 -12 -12 -12t-12 12v675q0 12 12 12t12 -12v-316h272v317q0 12 12 12t12 -12z" />
    <glyph glyph-name="i" unicode="i" 
d="M49 699q54 -1 245 -1q12 0 12 -12t-12 -12h-55h-62v-651h57h54q12 0 12 -12t-12 -12q-191 0 -245 1q-5 0 -8.5 3.5t-3.5 8.5t3.5 8.5t8.5 3.5q48 -1 110 -1v651q-58 0 -104 1q-5 0 -8.5 3.5t-3.5 8.5t3.5 8.5t8.5 3.5z" />
    <glyph glyph-name="j" unicode="j" 
d="M59 287q-9 -47 -3 -113.5t26 -109.5q17 -38 45 -38q27 0 37 39q7 25 9.5 57t1.5 60t0 60q2 112 2 431q-69 0 -120 1q-5 0 -8.5 3.5t-3.5 8.5t3.5 8.5t8.5 3.5q55 -1 131 -1h1h1h59h53q12 0 12 -12t-12 -12h-50h-51q0 -319 -2 -431v-44q0 -25 -0.5 -47t-3 -47t-7.5 -45
q-7 -27 -23.5 -42t-37.5 -15q-20 0 -38 14t-29 38q-21 47 -28 117.5t3 119.5q2 12 14 10t10 -14z" />
    <glyph glyph-name="k" unicode="k" horiz-adv-x="357" 
d="M48 343v-330q0 -12 -12 -12t-12 12v675q0 12 12 12t12 -12v-304l211 309q6 11 16.5 4.5t3.5 -16.5l-148 -222l219 -448q5 -11 -6 -16t-16 6l-213 436l-66 -93z" />
    <glyph glyph-name="l" unicode="l" horiz-adv-x="305" 
d="M21 13v675q0 12 11.5 12t11.5 -12v-663l237 1q12 0 12 -12t-6 -14l-254 1q-12 0 -12 12z" />
    <glyph glyph-name="m" unicode="m" horiz-adv-x="375" 
d="M206 417q-1 -6 -6 -8q-10 -6 -16 4l-42 71l-48 85q-22 37 -43 70q0 -97 0.5 -308t0.5 -322q0 -12 -12.5 -12t-12.5 12q0 112 -0.5 335.5t-0.5 335.5v2q0 12 12 12q11 0 13 -10q18 -27 38 -61l34 -56l37 -64l33 -59l71 117q59 96 77 132q7 11 17 6q11 -5 6 -16
q0 -111 0.5 -334.5t0.5 -335.5q0 -12 -12.5 -12t-12.5 12q0 111 -0.5 321t-0.5 305q-17 -30 -54 -90q-56 -90 -79 -132z" />
    <glyph glyph-name="n" unicode="n" horiz-adv-x="360" 
d="M347 685q0 -112 0.5 -336.5t0.5 -336.5q0 -12 -12 -12q-10 0 -12 10q0 1 -1 2l-75 158l-64 142l-75 166l-66 148q0 -91 0.5 -298.5t0.5 -318.5q0 -12 -12 -12t-12 12q0 112 -0.5 336.5t-0.5 336.5q0 12 12 12q9 0 12 -9q0 -1 1 -2l85 -191l107 -237l88 -190
q0 93 -0.5 301t-0.5 319q0 12 12 12t12 -12z" />
    <glyph glyph-name="o" unicode="o" horiz-adv-x="360" 
d="M203 699h2q33 -3 61 -38q24 -30 43 -82q36 -103 40 -238q4 -141 -33 -235q-44 -112 -132 -109q-93 3 -137 119q-37 99 -29 243q9 139 54 236q53 111 130 104h1zM200 675q-60 6 -106 -90q-44 -93 -52 -228q-8 -137 28 -232q39 -102 114 -104q72 -2 110 94q35 88 31 225
q-4 132 -39 231q-17 48 -39 75q-21 27 -44 29h-3z" />
    <glyph glyph-name="p" unicode="p" horiz-adv-x="299" 
d="M49 667v-350q104 22 162 88.5t58 139t-55 108.5q-61 40 -165 14zM37 689q119 31 190 -16q66 -43 66 -128q0 -83 -65 -156.5t-179 -95.5v-280q0 -12 -12 -12t-12 12v664q0 12 12 12z" />
    <glyph glyph-name="q" unicode="q" horiz-adv-x="372" 
d="M275 38l-1 -1q-31 -32 -65 -38q-41 -7 -81 21q-97 70 -102 258q-2 75 10.5 149.5t32.5 130.5q27 74 49 103q43 56 105 32h1q3 -1 5 -2q99 -72 125 -239q22 -139 -10 -280q-15 -64 -53 -115q39 -39 57 -59q8 -9 -1 -17t-17 1zM215 671q-46 17 -78 -25q-21 -26 -46 -96
q-19 -54 -31 -127q-12 -72 -10 -144q4 -177 92 -239q32 -23 62 -17q27 4 53 31l1 1l-39 41q-8 9 1 17t17 -1l37 -38q33 46 46 104q31 137 11 270q-25 156 -115 222q-1 0 -1 1z" />
    <glyph glyph-name="r" unicode="r" horiz-adv-x="331" 
d="M49 673v-288q99 14 157.5 68.5t60.5 114.5q2 61 -50 91q-60 35 -168 14zM37 695q122 25 192 -15q65 -38 62 -113q-2 -47 -34 -92.5t-88 -75.5l71 -178q53 -135 84 -207q5 -11 -6 -16t-16 6l-84 208l-70 176q-46 -20 -99 -27v-348q0 -12 -12 -12t-12 12v664q0 4 2 7
q1 9 10 11z" />
    <glyph glyph-name="s" unicode="s" horiz-adv-x="327" 
d="M291 601q-26 51 -62.5 68.5t-71.5 4.5q-34 -13 -55 -49q-20 -36 -14 -85q4 -34 38 -75q9 -12 21 -24l29 -30l25 -26q51 -55 81 -109t32 -123q2 -73 -32.5 -115t-87.5 -44t-101 34.5t-71 104.5q-4 11 7 15t15 -7q21 -61 63 -93t86 -30q42 1 70.5 35.5t26.5 99.5
q-2 63 -30 112.5t-77 102.5q-8 9 -25 27l-29 30q-12 13 -22 25q-38 46 -43 86q-7 58 17.5 101t67.5 59q44 17 89 -4.5t75 -80.5q5 -10 -5.5 -15.5t-16.5 5.5z" />
    <glyph glyph-name="t" unicode="t" horiz-adv-x="357" 
d="M46 695q62 -1 282 -1q14 0 14 -12t-14 -12h-63h-73v-657q0 -12 -13.5 -12t-13.5 12v657q-67 0 -119 1q-6 0 -10 3.5t-4 8.5t4 8.5t10 3.5z" />
    <glyph glyph-name="u" unicode="u" horiz-adv-x="349" 
d="M62 692q0 -18 -0.5 -84.5t0.5 -142.5q1 -74 6 -142q9 -127 31 -199q26 -85 68 -97q42 -13 72 25q26 31 36 81q25 124 32 251q7 128 7 305q0 12 12 12t12 -12q0 -116 -2 -191t-11 -179t-26 -190q-12 -57 -41 -93q-41 -49 -97 -33q-55 17 -85 114q-23 74 -32 204
q-5 69 -6 143q-1 76 -0.5 142.5t0.5 85.5q0 5 3.5 8.5t8.5 3.5t8.5 -3.5t3.5 -8.5z" />
    <glyph glyph-name="v" unicode="v" horiz-adv-x="400" 
d="M188 60q31 116 96 329l90 300q4 12 15.5 8.5t8.5 -14.5l-95 -312q-70 -231 -103 -358q2 -11 -9 -14t-15 9q-53 196 -154 676q-2 11 9.5 13.5t14.5 -9.5q94 -447 142 -628z" />
    <glyph glyph-name="w" unicode="w" horiz-adv-x="473" 
d="M249 342q21 -62 61 -162l48 -119q23 194 84 627q2 12 14 10t10 -14q-65 -463 -89 -672q-1 -11 -12 -11q-9 0 -12 8t-65 161q-32 79 -50 129q-17 -50 -54 -147l-53 -144q-4 -11 -15 -7q-1 0 -2 1q-7 2 -8 9q-32 208 -78 676q0 5 3 8.5t8 4t8.5 -2.5t4.5 -8
q43 -438 71 -631q6 14 45.5 119t57.5 161q0 9 8 11q12 4 15 -7z" />
    <glyph glyph-name="x" unicode="x" horiz-adv-x="331" 
d="M183 346l-128 -339q-4 -11 -15 -7t-7 15l138 366l-105 300q-4 11 7 15t15 -7l96 -272q55 150 96 273q3 11 14.5 7.5t7.5 -15.5q-44 -132 -106 -301q79 -226 135 -368q5 -11 -6.5 -15.5t-15.5 7.5q-54 136 -126 341z" />
    <glyph glyph-name="y" unicode="y" horiz-adv-x="331" 
d="M324 687l-156 -424q-4 -14 -51 -128q-33 -80 -46 -128q-4 -12 -18.5 -9t-10.5 15q16 52 47 130q47 114 53 128l28 77q-31 65 -82 190l-62 148q-5 11 8.5 15t18.5 -7l59 -142l71 -167l115 308q3 12 17 8.5t9 -14.5z" />
    <glyph glyph-name="z" unicode="z" horiz-adv-x="371" 
d="M74 696q63 -1 280 -1h1q12 0 12 -12q0 -5 -4 -9l-154 -300h40h40q12 0 12 -12t-12 -12h-43h-50q-99 -193 -158 -322q54 -1 262 -1q12 0 12 -12t-12 -12q-219 0 -281 1q-5 0 -8.5 3.5t-3.5 8.5t3 8q60 132 159 326q-40 0 -72 1q-5 0 -8.5 3.5t-3.5 8.5t3.5 8.5t8.5 3.5
q37 -1 85 -1l153 297q-191 0 -261 1q-5 0 -8.5 3.5t-3.5 8.5t3.5 8.5t8.5 3.5z" />
    <glyph glyph-name="braceleft" unicode="{" horiz-adv-x="241" 
d="M221 696q-25 2 -43 -21q-17 -21 -28 -62q-10 -38 -19 -139q-9 -103 -40 -151q-4 -5 -19 -20q-10 -9 -12 -14v-1q13 13 28 -19.5t25 -74.5q7 -33 8 -88q1 -60 4 -80q6 -38 27.5 -63.5t70.5 -39.5q12 -4 8.5 -15.5t-14.5 -8.5q-57 16 -83 47t-33 77q-3 21 -4 82
q-1 53 -8 83q-4 18 -10 30t-19 29t-20 27t-2 23q3 10 18 24q13 12 15 16q27 41 36 139q9 100 20 143q12 46 32 71q26 33 64 30q5 0 8 -4t3 -9t-4 -8t-9 -3z" />
    <glyph glyph-name="bar" unicode="|" horiz-adv-x="431" 
d="M213 556q16 49 47 85q20 23 46 32q27 9 53 3t44 -27.5t22 -55.5q10 -85 -46 -234q-14 -37 -30 -73l-41 -89q-24 -52 -26 -58q-10 -21 -26 -69q-17 -50 -26 -71q-5 -11 -16 -6q-9 4 -7 14q-10 43 -30 93.5t-35 83.5t-43 90l-22 44l-23 46q-8 16 -19.5 42.5t-17 47.5
t-10.5 46.5t-5 51.5q1 26 6 53q6 33 24 53.5t44 25.5q24 5 49 -5.5t44 -33.5q30 -37 44 -89zM199 460q5 105 -48 169q-32 39 -71 31q-38 -8 -48 -59q-5 -25 -6 -49q0 -24 4.5 -48t9.5 -43t16 -45l20 -42q7 -16 22 -45l23 -45q76 -155 101 -239l11 33q16 46 27 71q3 6 26 57
l40 88q15 35 30 74q55 143 45 223q-6 52 -48 62q-41 9 -75 -28q-54 -60 -54 -157q0 -2 -1 -4v-6q0 -4 -4 -7.5t-8.5 -3.5t-8 4t-3.5 9z" />
    <glyph glyph-name="braceright" unicode="}" horiz-adv-x="226" 
d="M41 -75q49 0 72 83q11 37 20 138t41 151q5 7 19 20q10 10 13 15q-4 7 -18.5 25.5t-22.5 33.5t-12 36q-6 31 -6 87q0 58 -4 80q-6 39 -27.5 65t-69.5 39q-12 4 -8.5 15.5t14.5 8.5q56 -16 82 -47.5t33 -76.5q4 -24 4 -84q0 -54 6 -83q3 -17 9 -29t19.5 -29t20.5 -27
q8 -13 2 -25q-5 -8 -19 -21q-12 -12 -15 -17q-28 -43 -37 -139q-9 -100 -20 -142q-29 -101 -96 -101q-12 0 -12 12t12 12z" />
    <glyph glyph-name="asciitilde" unicode="~" horiz-adv-x="400" 
d="M53 255q1 24 12 48t32 36q38 20 81 -19q11 -9 32 -33q22 -25 31 -34q31 -30 53 -23q32 12 68 100q4 11 15.5 6.5t6.5 -16.5q-40 -97 -82 -112q-36 -13 -78 28q-9 9 -32 35q-19 22 -30 31q-31 28 -53 15q-14 -7 -22.5 -25.5t-9.5 -38.5q0 -5 -4 -8t-9 -3t-8 4t-3 9z" />
    <glyph glyph-name="exclamdown" unicode="&#xa1;" horiz-adv-x="65" 
d="M46 421v-533q0 -12 -12 -12t-12 12v533q0 12 12 12t12 -12zM45 486q0 -12 -12 -12t-12 12t12 12t12 -12z" />
    <glyph glyph-name="cent" unicode="&#xa2;" horiz-adv-x="272" 
d="M130 30q2 426 1 436q-21 -19 -39 -49.5t-26 -59.5q-13 -45 -17.5 -93.5t2.5 -100t27 -87.5q21 -36 45 -44q4 -1 7 -2zM223 431q-18 44 -41 52q-12 4 -27 -2q1 -25 -1 -449q6 2 12 5q23 13 41.5 40.5t25.5 58.5q3 12 15 9t9 -15q-9 -35 -30.5 -66.5t-48.5 -46.5
q-12 -7 -24 -10v-20q0 -12 -12 -12t-12 12v19q-7 1 -14 3q-34 11 -58 55q-23 40 -30.5 95.5t-3 106.5t17.5 97q10 35 33 72t50 56q3 3 6 5q0 23 -1 46q0 5 3.5 8.5t8.5 3.5t8.5 -3.5t3.5 -8.5q0 -17 1 -36q18 5 35 -1q33 -11 55 -66q5 -11 -6.5 -15.5t-15.5 7.5z" />
    <glyph glyph-name="sterling" unicode="&#xa3;" horiz-adv-x="364" 
d="M262 574q7 23 -15 54q-23 31 -57 45q-35 14 -60 -2q-33 -21 -44 -87q-14 -78 6 -209l6 -39h15h15q12 0 12 -12t-12 -12h-14h-12q14 -94 14 -151q0 -41 -6 -75q4 2 7 3q27 7 65 -13q12 -6 31 -18q23 -15 30 -19q32 -18 50 -17q21 2 36 35q5 11 16 6t6 -16q-21 -46 -56 -49
q-26 -2 -64 21q-7 4 -31 19q-18 11 -29 17q-30 16 -48 10q-4 -1 -13 -8q-4 -4 -9 -8l-1 -3v-1l-1 -1l-1 -4l-5 -12q-3 -8 -5 -12q-2 -3 -2 -4q-1 -2 -2 -3l-2 -2l-1 -1q-1 -1 -4.5 -2t-6.5 1q-10 3 -12 12q-2 7 1 15q4 10 15 23l6 6q12 43 12 100q0 55 -15 151q-21 0 -38 1
q-5 0 -8 4t-3 9t4 8t9 3q14 -1 32 -1l-5 36q-20 134 -6 216q13 76 55 103q36 23 82 4q40 -16 67 -53q29 -40 20 -74q-3 -12 -15 -9t-9 15z" />
    <glyph glyph-name="currency" unicode="&#xa4;" horiz-adv-x="330" 
d="M223 421q-20 13 -42 12q-34 0 -62 -30t-32.5 -69t20.5 -72q30 -36 68 -33q35 4 61 36q17 21 23.5 47t-1.5 54t-32 50q-2 2 -3 5zM73 471q11 -8 27 -21l18 -15q29 22 63 22q46 1 85 -42q8 6 33 29q9 8 17 -1t-1 -17q-28 -26 -41 -34q16 -38 11 -73.5t-28 -64.5
q6 -7 20 -20q15 -14 22 -22q8 -9 -1 -17t-17 1l-21 21q-13 12 -19 19q-29 -27 -64 -30q-38 -4 -71 23q-17 -20 -35 -33q-10 -7 -17 3t3 17q15 11 32 30q-22 26 -26 59t6.5 62t30.5 51l-15 13q-15 13 -26 20q-10 7 -3 17t17 3z" />
    <glyph glyph-name="yen" unicode="&#xa5;" horiz-adv-x="293" 
d="M79 381q26 -2 60 -2q-22 58 -58 165l-48 142q-4 11 7 15t15 -7l49 -142l58 -167l94 308q3 12 14.5 8.5t7.5 -14.5l-92 -307q47 1 65 1q12 0 12 -12t-12 -12q-16 0 -73 -1l-17 -56q53 1 82 1q12 0 12 -12t-12 -12q-29 0 -89 -2l-4 -12q-4 -14 -42 -128q-27 -80 -38 -128
q-3 -12 -15 -9t-9 15q13 52 39 130q38 114 43 128l1 4q-35 -1 -60 -1q-12 0 -12 12t12 12q27 0 67 1l15 49l-3 7q-41 0 -71 2q-5 0 -8 4t-3 9t4 8t9 3z" />
    <glyph glyph-name="brokenbar" unicode="&#xa6;" horiz-adv-x="87" 
d="M57 343q2 -30 1 -74q0 -8 -0.5 -22.5t-0.5 -26.5v-23q0 -12 -12 -12t-12 12l1 73q1 48 -1 71q0 5 3 9t8 4t9 -3t4 -8zM57 579q2 -30 1 -74q0 -8 -0.5 -22.5t-0.5 -26.5v-23q0 -12 -12 -12t-12 12l1 73q1 48 -1 71q0 5 3 9t8 4t9 -3t4 -8z" />
    <glyph glyph-name="section" unicode="&#xa7;" horiz-adv-x="207" 
d="M183 485q-12 29 -32.5 40.5t-44.5 7.5q-22 -4 -36.5 -18t-14.5 -31q0 -20 32 -64l33 -41q23 -28 33 -42q39 -51 43 -82q3 -23 -9 -39t-38 -26q17 -27 26 -43q40 -75 22 -114q-12 -25 -38.5 -33t-53.5 -1q-28 9 -47.5 32t-19.5 58q0 12 12 12t12 -12q0 -26 14 -43t36 -23
q20 -6 38 -0.5t25 20.5q13 28 -21 93q-6 9 -29 47.5t-29 54.5q-7 18 -6.5 42.5t8.5 42.5q7 17 18 23l-48 60q-37 50 -37 78q0 27 21 47.5t50 25.5q32 5 60 -10.5t43 -53.5q5 -11 -6.5 -15.5t-15.5 7.5zM145 307q-11 17 -18 17q-3 0 -7 -10q-6 -14 -6.5 -34t4.5 -34
q5 -13 19 -35q1 1 2 1q21 7 29 18q6 9 5 22q-3 19 -24 51q-3 1 -4 4z" />
    <glyph glyph-name="dieresis" unicode="&#xa8;" horiz-adv-x="171" 
d="M51 641q0 -12 -12 -12t-12 12t12 12t12 -12zM148 640q0 -12 -12 -12t-12 12t12 12t12 -12z" />
    <glyph glyph-name="copyright" unicode="&#xa9;" horiz-adv-x="374" 
d="M227 693q3 -1 5 -2q99 -72 125 -239q22 -139 -10 -280q-8 -34 -26.5 -71.5t-43.5 -63.5q-31 -32 -65 -38q-41 -7 -81 21q-97 70 -102 258q-2 75 10.5 149.5t32.5 130.5q27 74 49 103q43 56 105 32h1zM218 671q-46 17 -78 -25q-21 -26 -46 -96q-19 -54 -31 -127
q-12 -72 -10 -144q4 -177 92 -239q32 -23 62 -17q27 4 53 31q22 23 39 58q17 34 24 66q31 138 11 270q-25 156 -115 222q-1 0 -1 1zM229 443q-15 12 -28 11q-10 0 -20 -10q-22 -22 -30 -72q-9 -51 3 -92q13 -42 40 -47q16 -3 24.5 -0.5t17.5 13.5q7 9 16.5 1.5t1.5 -17.5
q-13 -16 -28 -21q-14 -4 -36 0q-42 9 -59 64q-13 46 -4 103q10 58 37 85q16 16 36 17q22 1 43 -15q10 -8 2.5 -17.5t-16.5 -2.5z" />
    <glyph glyph-name="ordfeminine" unicode="&#xaa;" horiz-adv-x="200" 
d="M76 677q15 16 25 21q14 7 34 8q23 1 38 -12q12 -11 17 -32q5 -24 -1 -84q-7 -62 -4 -86q4 -37 28 -46q12 -4 7.5 -15.5t-15.5 -6.5q-21 8 -32 27q-36 -34 -76 -32q-45 3 -63 40q-16 31 -7 74q9 42 38.5 72t69.5 26q19 -2 29 -8q2 -1 5 -3q1 24 -2 37t-10 19t-21.5 6
t-23.5 -5q-7 -4 -20 -16q-8 -9 -16.5 -0.5t0.5 16.5zM162 590q-5 10 -10 13t-19 4q-29 3 -52 -20.5t-30 -58.5q-8 -34 4 -58q13 -25 44 -27q19 -1 32.5 6.5t32.5 25.5v1q-2 6 -3 14q-3 26 4 90l1 6q-3 1 -4 4z" />
    <glyph glyph-name="guillemotleft" unicode="&#xab;" horiz-adv-x="225" 
d="M203 323q-19 -16 -56 -41q-12 -8 -16 -12l-5 -5q3 -3 10 -8q14 -9 66 -35q11 -6 5.5 -16.5t-15.5 -5.5q-54 27 -69 37q-12 8 -16 15q-8 10 -4 21q3 7 12 15q6 5 18 13q36 25 54 40q10 8 17.5 -1.5t-1.5 -16.5zM122 323q-19 -16 -56 -41q-12 -8 -16 -12l-5 -5q3 -3 10 -8
q14 -9 66 -35q11 -6 5.5 -16.5t-15.5 -5.5q-54 27 -69 37q-12 8 -16 15q-8 10 -4 21q3 7 12 15q6 5 18 13q36 25 54 40q10 8 17.5 -1.5t-1.5 -16.5z" />
    <glyph glyph-name="logicalnot" unicode="&#xac;" horiz-adv-x="331" 
d="M50 347q16 -3 126 -1q55 1 74 1h25q6 -1 9 -1q6 -1 9 -3q3 -3 5 -7q1 -2 2 -6q1 -5 3 -13q2 -13 4 -37q7 -60 8 -64q2 -12 -9.5 -14.5t-14.5 8.5q-1 7 -7 68q-3 23 -5 35q-1 6 -2 9q-1 1 -3 1h-24q-16 0 -73 -1q-113 -2 -131 1q-12 2 -10 14t14 10z" />
    <glyph glyph-name="registered" unicode="&#xae;" horiz-adv-x="371" 
d="M224 693q3 -1 5 -2q99 -72 125 -239q22 -139 -10 -280q-8 -34 -26.5 -71.5t-43.5 -63.5q-31 -32 -65 -38q-41 -7 -81 21q-97 70 -102 258q-2 75 10.5 149.5t32.5 130.5q27 74 49 103q43 56 105 32h1zM135 438q2 -30 2 -65q31 -13 52 0q20 12 25 38q6 27 -6 44t-38 12
q-25 -4 -35 -29zM215 671q-46 17 -78 -25q-21 -26 -46 -96q-19 -54 -31 -127q-12 -72 -10 -144q4 -177 92 -239q32 -23 62 -17q27 4 53 31q22 23 39 58q17 34 24 66q31 138 11 270q-25 156 -115 222q-1 0 -1 1zM113 448q15 36 53 43q41 8 62 -23q18 -25 10 -61
q-8 -37 -36 -54q22 -41 50 -122q4 -11 -7 -15t-15 7q-28 80 -50 119v2q-20 -4 -43 3q0 -19 -0.5 -60t-0.5 -62q0 -12 -12 -12t-12 12q0 21 0.5 66t0.5 79.5t-2 65.5q0 3 1 6q0 3 1 6z" />
    <glyph glyph-name="macron" unicode="&#xaf;" horiz-adv-x="300" 
d="M32 625h232q12 0 12 -12t-12 -12h-232q-12 0 -12 12t12 12z" />
    <glyph glyph-name="degree" unicode="&#xb0;" horiz-adv-x="183" 
d="M136 595q-20 16 -39 14q-21 -2 -36 -25q-15 -21 -14.5 -51t19.5 -48q20 -19 41 -14q19 5 33 28q14 21 13.5 49t-17.5 47zM168 589q11 -27 8.5 -53.5t-15.5 -48.5q-19 -32 -48 -39q-34 -9 -63 19q-27 26 -27.5 65.5t18.5 65.5q22 31 54 35q23 2 46 -12q3 -1 6 -3.5t5 -4.5
q7 -6 14 -13q4 -5 2 -11z" />
    <glyph glyph-name="plusminus" unicode="&#xb1;" horiz-adv-x="198" 
d="M38 321v24l55 1v61h24v-60l61 1v-24l-61 -1v-71h-24v70zM44 192v24h136v-24h-136z" />
    <glyph glyph-name="uni00B2" unicode="&#xb2;" horiz-adv-x="203" 
d="M34 626q10 24 34.5 37.5t49.5 13.5q29 0 46 -17q20 -19 18 -53q-2 -23 -22 -47q-7 -8 -19 -19l-21 -20q-53 -52 -58 -111q0 -4 -2 -8q20 5 62 -6q36 -9 55 0q10 5 15.5 -5.5t-5.5 -16.5q-26 -13 -71 -1q-38 10 -53 4l-2 -2q-2 -3 -5 -5q-6 -5 -14 -2q-11 3 -12 15
q0 5 3 13q0 2 1.5 5.5t1.5 4.5q2 4 2 6q6 68 66 126l21 20q11 11 17 18q15 18 16 33q1 22 -10 33t-30 11t-37 -10t-25 -27q-5 -11 -16 -6t-6 16z" />
    <glyph glyph-name="uni00B3" unicode="&#xb3;" horiz-adv-x="212" 
d="M42 667q26 27 60.5 24.5t53.5 -25.5q22 -28 2 -59q-11 -16 -32 -29q14 -6 26 -16q28 -24 39 -59.5t-2 -73.5q-9 -22 -34.5 -34t-54.5 -12t-52.5 13.5t-28.5 40.5q-2 12 10 14t14 -10q2 -15 18 -24.5t39.5 -9.5t42 9t24.5 23q10 27 1 56t-32 49q-20 18 -47 15l-18 -6
l-1 -1h-2q-3 -1 -5 0q-8 2 -9 10q-1 6 3 10l2 2q1 0 2 1l6 3q10 3 15 4q42 17 56 38q11 16 -1 31q-13 15 -36.5 16.5t-40.5 -16.5q-7 -9 -16.5 -1.5t-1.5 17.5z" />
    <glyph glyph-name="acute" unicode="&#xb4;" horiz-adv-x="200" 
d="M178 693l-23 -31l-25 -34l-24 -28q-14 -18 -28 -31q-8 -9 -16.5 -0.5t0.5 16.5q12 13 26 30l23 28q9 11 25 33t22 31q8 10 17.5 2.5t2.5 -16.5z" />
    <glyph glyph-name="uni00B5" unicode="&#xb5;" horiz-adv-x="262" 
d="M57 403q0 -34 -1 -95.5t-1 -112.5t2 -96q0 -11 1 -23q16 -30 30 -44t37 -14q33 0 54 42q19 39 28 110q10 87 2 217q0 5 3 9t8 4t9 -3t4 -8q8 -133 -3 -222q-5 -50 -17 -86q8 -45 31 -70q8 -9 -1 -17t-17 1q-18 21 -28 49q-27 -50 -73 -50q-37 0 -63 31l5 -54
q7 -81 6 -131q0 -5 -3.5 -8.5t-8.5 -3.5t-8.5 3.5t-3.5 8.5q1 45 -6 129q-7 85 -8 100q-1 3 -1 6q-1 12 -1 24q-2 44 -2 95t1 113t1 96q0 12 12 12q5 0 8.5 -3.5t3.5 -8.5z" />
    <glyph glyph-name="paragraph" unicode="&#xb6;" horiz-adv-x="455" 
d="M230 296q0 13 -2 120t-2 162q-27 -7 -53 -22q-77 -46 -105 -105q-33 -69 33 -119q37 -29 80 -34q23 -3 49 -2zM314 305q-4 276 -4 282q-33 1 -60 -3q0 -42 0.5 -90.5t1.5 -106t2 -90.5q27 2 60 8zM314 280q-32 -5 -60 -7q2 -172 -5 -291q0 -5 -4 -8t-9 -3t-8 4t-3 9
q7 118 5 288q-28 -1 -51 2q-50 6 -92 38q-81 63 -41 149q31 66 115 115q21 13 44.5 20.5t41.5 11t44.5 3.5t41 -1t45 -4t42.5 -4q5 0 8 -4t3 -9t-4 -8t-9 -3q-13 1 -41.5 4t-42.5 4q0 -63 2.5 -189t2 -225t-5.5 -189q0 -5 -4 -8t-9 -3t-8 4t-3 9q7 120 5 295z" />
    <glyph glyph-name="periodcentered" unicode="&#xb7;" horiz-adv-x="75" 
d="M59 332q0 -12 -12 -12t-12 12t12 12t12 -12z" />
    <glyph glyph-name="cedilla" unicode="&#xb8;" horiz-adv-x="209" 
d="M130 -12q-10 -18 -34 -47q-2 -3 -4 -5q2 -1 5 -1h11h10q32 -1 48 -10q28 -15 27 -51q-1 -27 -20.5 -44t-47.5 -23q-24 -6 -51.5 -1t-42.5 22q-8 9 1 17t17 -1q9 -10 29 -14t42 0q22 5 35.5 16.5t13.5 27.5q1 22 -14 30q-12 6 -38 7h-10h-11q-12 1 -18 4q-6 2 -10 7
q-3 6 -2 13q1 9 12 22q22 27 32 43q6 10 16 4t4 -16z" />
    <glyph glyph-name="uni00B9" unicode="&#xb9;" horiz-adv-x="75" 
d="M43 677q0 -38 1.5 -113.5t1.5 -113.5q0 -12 -12 -12t-12 12q0 38 -1.5 113.5t-1.5 113.5q0 12 12 12t12 -12z" />
    <glyph glyph-name="ordmasculine" unicode="&#xba;" horiz-adv-x="197" 
d="M145 595q-20 16 -39 14q-21 -2 -36 -25q-15 -21 -14.5 -51t19.5 -48q20 -19 41 -14q19 5 33 28q14 21 13.5 49t-17.5 47zM177 589q11 -27 8.5 -53.5t-15.5 -48.5q-19 -32 -48 -39q-34 -9 -63 19q-27 26 -27.5 65.5t18.5 65.5q22 31 54 35q23 2 46 -12q3 -1 6 -3.5t5 -4.5
q7 -6 14 -13q4 -5 2 -11z" />
    <glyph glyph-name="guillemotright" unicode="&#xbb;" horiz-adv-x="249" 
d="M61 344l55 -36q12 -7 17 -12q9 -9 10 -17q2 -10 -6 -20q-5 -6 -17 -13q-12 -9 -63 -37q-11 -5 -16.5 5.5t4.5 16.5q51 27 62 35q9 5 12 9v1q0 1 -2 2q-4 4 -14 10l-56 36q-10 7 -3 17t17 3zM157 342l55 -36q12 -7 17 -12q9 -9 10 -17q2 -10 -6 -20q-5 -6 -17 -13
q-12 -9 -63 -37q-11 -5 -16.5 5.5t4.5 16.5q51 27 62 35q9 5 12 9v1q0 1 -2 2q-4 4 -14 10l-56 36q-10 7 -3 17t17 3z" />
    <glyph glyph-name="onequarter" unicode="&#xbc;" horiz-adv-x="401" 
d="M128 596q3 -22 4 -47.5t1.5 -41.5t0 -48.5t-0.5 -42.5q0 -12 -12 -12t-12 12q0 11 0.5 43t0 47.5t-1.5 40.5t-4 45q-1 12 10.5 13.5t13.5 -9.5zM52 112q98 273 200 499q5 11 16 6t6 -16q-104 -233 -200 -497q-4 -11 -15 -7t-7 15zM260 371q4 -28 9 -82q2 -26 5 -30
q4 -4 23 -5q9 0 36 1l-16 103q-2 12 10 14t14 -10q7 -47 17 -107h18q12 0 12 -12t-12 -12h-14l12 -69q2 -12 -10 -14t-14 10l-13 73q-32 -1 -40 -1q-31 1 -41 14q-9 10 -11 43q-5 54 -9 80q-2 12 10 14t14 -10z" />
    <glyph glyph-name="onehalf" unicode="&#xbd;" horiz-adv-x="389" 
d="M128 596q3 -22 4 -47.5t1.5 -41.5t0 -48.5t-0.5 -42.5q0 -12 -12 -12t-12 12q0 11 0.5 43t0 47.5t-1.5 40.5t-4 45q-1 12 10.5 13.5t13.5 -9.5zM52 112q98 273 200 499q5 11 16 6t6 -16q-104 -233 -200 -497q-4 -11 -15 -7t-7 15zM208 337q3 22 18.5 37t35.5 19
q21 3 37.5 -9.5t20.5 -38.5q4 -34 -24 -76q-6 -9 -23 -31q-14 -19 -20 -28l-15 -27q9 1 22 0q7 0 21 -2q12 -1 16 -1q16 -1 31 -0.5t25 6.5q11 5 16.5 -5.5t-4.5 -16.5q-15 -7 -35.5 -8.5t-32.5 0.5q-6 0 -19 1q-13 2 -19 2q-20 1 -28 -3l-1 -1q-2 -5 -4 -7q-5 -6 -12 -6
q-10 0 -12 9q-1 3 0 7q0 3 2 8q3 7 9 19q10 21 20 37q6 11 21 31q17 21 22 30q23 34 20 58q-4 32 -30 28q-13 -2 -22.5 -12t-11.5 -24q-2 -11 -13.5 -9.5t-10.5 13.5z" />
    <glyph glyph-name="threequarters" unicode="&#xbe;" horiz-adv-x="400" 
d="M65 112q98 273 200 499q5 11 16 6t6 -16q-104 -233 -200 -497q-4 -11 -15 -7t-7 15zM273 371q4 -28 9 -82q2 -26 5 -30q4 -4 23 -5q9 0 36 1l-16 103q-2 12 10 14t14 -10q7 -47 17 -107h18q12 0 12 -12t-12 -12h-14l12 -69q2 -12 -10 -14t-14 10l-13 73q-32 -1 -40 -1
q-31 1 -41 14q-9 10 -11 43q-5 54 -9 80q-2 12 10 14t14 -10zM47 577q20 21 39 28q15 5 28 1q14 -5 22 -22q8 -22 1 -43t-24 -34v-1q16 -8 25 -22q17 -26 8 -60q-10 -33 -38 -47q-33 -16 -70 6q-10 6 -4 16t16 4q26 -15 47 -5q19 10 25.5 33t-4.5 40q-12 19 -44 19h-2h-1
q-3 1 -5 3q-5 4 -5 10q0 4 4 8l4 2q1 1 2 1t4 1q5 1 6 1q12 5 18 9q11 9 15.5 23t-0.5 26q-3 8 -8 10q-5 1 -12 -2q-14 -5 -31 -21q-8 -9 -16.5 -0.5t0.5 16.5z" />
    <glyph glyph-name="questiondown" unicode="&#xbf;" horiz-adv-x="284" 
d="M277 -36q-1 -2 -3 -15t-3 -17t-4 -14.5t-5.5 -16.5t-7.5 -14.5t-11 -15.5q-27 -32 -67 -43q-41 -11 -75 2q-38 12 -58.5 45.5t-13.5 81.5q13 83 107 119q15 6 63 20l21 6l7 4q2 4 4 16q2 11 3 32q2 37 2 89l-2 93q-2 56 -2 67q0 12 12 12t12 -12q0 -11 2 -67l2 -92
q0 -57 -2 -91q-1 -21 -3 -35q-3 -16 -8 -24q-4 -8 -17 -14l-24 -8q-48 -13 -62 -18q-81 -31 -91 -101q-6 -38 10 -64.5t46 -36.5q27 -10 60 -1t56 36q5 5 9 12l5 11q2 4 5 14t3.5 12.5t3 16.5t2.5 15q2 12 14 10t10 -14zM255 479q0 -12 -12 -12t-12 12t12 12t12 -12z" />
    <glyph glyph-name="Agrave" unicode="&#xc0;" horiz-adv-x="454" 
d="M139 254h223l-103 378zM114 254l134 424q0 3 2 5q4 11 14 7q11 -3 9 -14q19 -75 56 -209l66 -245q29 -111 52 -210q2 -12 -9.5 -14.5t-14.5 8.5q-23 100 -55 224h-236l-75 -223q-3 -11 -14.5 -7.5t-7.5 15.5zM229 785q14 -9 38.5 -28t29.5 -22q10 -7 3 -17t-17 -3l-29 23
q-25 18 -39 27q-10 7 -3 17t17 3z" />
    <glyph glyph-name="Aacute" unicode="&#xc1;" horiz-adv-x="456" 
d="M141 254h223l-103 378zM116 254l134 424q0 3 2 5q4 11 14 7q11 -3 9 -14q19 -75 56 -209l66 -245q29 -111 52 -210q2 -12 -9.5 -14.5t-14.5 8.5q-23 100 -55 224h-236l-75 -223q-3 -11 -14.5 -7.5t-7.5 15.5zM223 724l31 32q20 20 27 26q8 9 16.5 0.5t-0.5 -16.5
q-6 -7 -26 -28t-32 -32q-8 -8 -16.5 0.5t0.5 17.5z" />
    <glyph glyph-name="Acircumflex" unicode="&#xc2;" horiz-adv-x="448" 
d="M133 254h223l-103 378zM108 254l134 424q0 3 2 5q4 11 14 7q11 -3 9 -14q19 -75 56 -209l66 -245q29 -111 52 -210q2 -12 -9.5 -14.5t-14.5 8.5q-23 100 -55 224h-236l-75 -223q-3 -11 -14.5 -7.5t-7.5 15.5zM196 730l35 41q7 8 12 12q8 6 16 4q8 -1 15 -7q4 -4 11 -13
l35 -43q8 -9 -1 -17t-17 1q-11 12 -36 44q-6 7 -9 10l-1 1q-2 -2 -7 -8l-35 -41q-8 -9 -17 -1t-1 17z" />
    <glyph glyph-name="Atilde" unicode="&#xc3;" horiz-adv-x="445" 
d="M130 254h223l-103 378zM105 254l134 424q0 3 2 5q4 11 14 7q11 -3 9 -14q19 -75 56 -209l66 -245q29 -111 52 -210q2 -12 -9.5 -14.5t-14.5 8.5q-23 100 -55 224h-236l-75 -223q-3 -11 -14.5 -7.5t-7.5 15.5zM193 724q11 20 21 30q11 11 21.5 11t19.5 -9l8 -14q4 -7 5 -9
l1 1q6 7 14 23q6 11 16.5 5.5t5.5 -15.5q-10 -20 -18 -29q-10 -11 -20 -11t-18 10l-7 14q-4 7 -6 9v1q-3 -2 -5 -4q-8 -7 -18 -25q-6 -10 -16 -4t-4 16z" />
    <glyph glyph-name="Adieresis" unicode="&#xc4;" horiz-adv-x="448" 
d="M133 254h223l-103 378zM108 254l134 424q0 3 2 5q4 11 14 7q11 -3 9 -14q19 -75 56 -209l66 -245q29 -111 52 -210q2 -12 -9.5 -14.5t-14.5 8.5q-23 100 -55 224h-236l-75 -223q-3 -11 -14.5 -7.5t-7.5 15.5zM248 738q0 -12 -12 -12t-12 12t12 12t12 -12zM296 736
q0 -12 -12 -12t-12 12t12 12t12 -12z" />
    <glyph glyph-name="Aring" unicode="&#xc5;" horiz-adv-x="448" 
d="M133 254h223l-103 378zM108 254l134 424q0 3 2 5v1q-22 6 -32 24t-8 39q2 18 13 33t29 20q5 7 13 5q26 -6 38.5 -27t10.5 -44q-2 -19 -13 -34t-28 -18v-6q19 -75 56 -209l66 -245q29 -111 52 -210q2 -12 -9.5 -14.5t-14.5 8.5q-23 100 -55 224h-236l-75 -223
q-3 -11 -14.5 -7.5t-7.5 15.5zM262 778q-14 0 -23 -9.5t-10.5 -24t5.5 -25.5t21 -13q11 -2 19.5 6.5t9.5 23.5q3 30 -21 42h-1z" />
    <glyph glyph-name="AE" unicode="&#xc6;" horiz-adv-x="627" 
d="M127 262h227l-119 375zM239 690q30 0 90 1t90 1q12 0 12 -12t-12 -12q-30 0 -86 -1t-82 -1l127 -402q39 2 107 2q12 0 12 -12t-12 -12q-64 0 -99 -2q38 -122 64 -219q26 -1 64 -1q8 0 33 0.5t38 0.5q12 0 12 -12t-12 -12q-13 0 -38 -0.5t-33 -0.5q-41 0 -69 2l-1 -1
q-11 -3 -15 9q-27 102 -68 232h-241l-68 -230q-4 -12 -15.5 -8.5t-8.5 14.5l73 245v3h1l120 420q4 12 15 9q1 -1 2 -1z" />
    <glyph glyph-name="Ccedilla" unicode="&#xc7;" horiz-adv-x="340" 
d="M268 516q-6 63 -22 106q-16 41 -38 52q-20 9 -45 -13q-32 -29 -66 -104t-44 -172.5t3 -179.5q11 -85 47.5 -131t79.5 -47.5t80.5 43.5t51.5 135q2 12 14 10t10 -14q-14 -91 -54 -142.5t-92 -55.5q-7 -13 -28 -34q32 -1 55 -15q20 -11 25 -29q7 -21 -6 -45
q-10 -18 -41 -26q-25 -6 -58 -4q-31 1 -59 8q-30 7 -43 18q-10 7 -2.5 16.5t17 2t33.5 -13.5q26 -6 55 -7q30 -2 51 4q21 5 25 14q9 15 5 26q-3 9 -14 16q-25 14 -58 11h-2q-3 -1 -5 -2q-15 -2 -19 10q-1 3 -1 5t1 4l1 1q0 1 1 2l2 2q1 2 5 5l14 14q12 11 18 19
q-49 10 -85.5 62t-47.5 134q-13 84 -2.5 186t45.5 180q36 79 72 112q37 33 72 16q29 -14 49 -64q18 -46 24 -113q0 -5 -3 -9t-8 -4t-9 3t-4 8z" />
    <glyph glyph-name="Egrave" unicode="&#xc8;" 
d="M41 696q26 -1 245 -1q12 0 12 -12t-12 -12q-215 0 -232 1v-298q50 -1 235 -1q12 0 12 -12t-12 -12q-185 0 -235 1l-1 -324q17 -1 232 -1q12 0 12 -12t-12 -12q-219 0 -245 1q-7 0 -10 6h-1v1q-1 3 -1 5q0 3 1 5l1 660q-1 3 -1 5q0 3 1 5q3 7 11 7zM140 785q32 -22 67 -43
q10 -6 4 -16t-16 -4l-69 43q-10 7 -3 17t17 3z" />
    <glyph glyph-name="Eacute" unicode="&#xc9;" horiz-adv-x="328" 
d="M44 696q26 -1 245 -1q12 0 12 -12t-12 -12q-215 0 -232 1v-298q50 -1 235 -1q12 0 12 -12t-12 -12q-185 0 -235 1l-1 -324q17 -1 232 -1q12 0 12 -12t-12 -12q-219 0 -245 1q-7 0 -10 6h-1v1q-1 3 -1 5q0 3 1 5l1 660q-1 3 -1 5q0 3 1 5q3 7 11 7zM124 747q32 11 56 38
q8 9 17 1t1 -17q-28 -32 -66 -44q-12 -4 -15.5 7.5t7.5 14.5z" />
    <glyph glyph-name="Ecircumflex" unicode="&#xca;" 
d="M44 696q26 -1 245 -1q12 0 12 -12t-12 -12q-215 0 -232 1v-298q50 -1 235 -1q12 0 12 -12t-12 -12q-185 0 -235 1l-1 -324q17 -1 232 -1q12 0 12 -12t-12 -12q-219 0 -245 1q-7 0 -10 6h-1v1q-1 3 -1 5q0 3 1 5l1 660q-1 3 -1 5q0 3 1 5q3 7 11 7zM100 753q18 15 31 32
q2 2 4.5 5.5t3.5 4.5q5 7 11 8q9 2 16 -6q3 -3 9 -11l31 -43q8 -9 -1.5 -16.5t-16.5 2.5q-15 17 -33 44l-1 2l-4 -5q-14 -18 -34 -35q-10 -8 -17.5 1.5t1.5 16.5z" />
    <glyph glyph-name="Edieresis" unicode="&#xcb;" horiz-adv-x="333" 
d="M44 696q26 -1 245 -1q12 0 12 -12t-12 -12q-215 0 -232 1v-298q50 -1 235 -1q12 0 12 -12t-12 -12q-185 0 -235 1l-1 -324q17 -1 232 -1q12 0 12 -12t-12 -12q-219 0 -245 1q-7 0 -10 6h-1v1q-1 3 -1 5q0 3 1 5l1 660q-1 3 -1 5q0 3 1 5q3 7 11 7zM124 747q0 -12 -12 -12
t-12 12t12 12t12 -12zM193 746q0 -12 -12 -12t-12 12t12 12t12 -12z" />
    <glyph glyph-name="Igrave" unicode="&#xcc;" horiz-adv-x="328" 
d="M49 699q54 -1 245 -1q12 0 12 -12t-12 -12h-55h-62v-651h57h54q12 0 12 -12t-12 -12q-191 0 -245 1q-5 0 -8.5 3.5t-3.5 8.5t3.5 8.5t8.5 3.5q48 -1 110 -1v651q-58 0 -104 1q-5 0 -8.5 3.5t-3.5 8.5t3.5 8.5t8.5 3.5zM131 797q40 -33 55 -52q7 -9 -2.5 -16.5t-17.5 2.5
q-12 16 -51 48q-9 7 -1.5 16.5t17.5 1.5z" />
    <glyph glyph-name="Iacute" unicode="&#xcd;" 
d="M49 699q54 -1 245 -1q12 0 12 -12t-12 -12h-55h-62v-651h57h54q12 0 12 -12t-12 -12q-191 0 -245 1q-5 0 -8.5 3.5t-3.5 8.5t3.5 8.5t8.5 3.5q48 -1 110 -1v651q-58 0 -104 1q-5 0 -8.5 3.5t-3.5 8.5t3.5 8.5t8.5 3.5zM130 765q18 8 47 34q9 8 17 -1t-1 -17
q-32 -28 -53 -38q-11 -5 -16 6t6 16z" />
    <glyph glyph-name="Icircumflex" unicode="&#xce;" horiz-adv-x="326" 
d="M49 699q54 -1 245 -1q12 0 12 -12t-12 -12h-55h-62v-651h57h54q12 0 12 -12t-12 -12q-191 0 -245 1q-5 0 -8.5 3.5t-3.5 8.5t3.5 8.5t8.5 3.5q48 -1 110 -1v651q-58 0 -104 1q-5 0 -8.5 3.5t-3.5 8.5t3.5 8.5t8.5 3.5zM105 756q16 11 29 33q2 4 5.5 10t4.5 7q6 10 10 15
q9 9 20 7q9 -2 19 -12q14 -17 41 -71q5 -10 -5.5 -15.5t-16.5 5.5q-25 51 -38 65q-2 3 -3 4q-3 -3 -6 -10q-1 -1 -4.5 -7.5t-6.5 -9.5q-15 -27 -35 -41q-10 -7 -17 3t3 17z" />
    <glyph glyph-name="Idieresis" unicode="&#xcf;" horiz-adv-x="328" 
d="M49 699q54 -1 245 -1q12 0 12 -12t-12 -12h-55h-62v-651h57h54q12 0 12 -12t-12 -12q-191 0 -245 1q-5 0 -8.5 3.5t-3.5 8.5t3.5 8.5t8.5 3.5q48 -1 110 -1v651q-58 0 -104 1q-5 0 -8.5 3.5t-3.5 8.5t3.5 8.5t8.5 3.5zM149 754q0 -12 -12 -12t-12 12t12 12t12 -12z
M212 757q0 -12 -12 -12t-12 12t12 12t12 -12z" />
    <glyph glyph-name="Eth" unicode="&#xd0;" horiz-adv-x="447" 
d="M124 345v-319q97 1 153 22q70 27 104.5 93t34.5 153q0 81 -28.5 160t-74.5 127q-66 68 -188 92v-304h36q12 0 12 -12t-12 -12h-37zM112 700q69 -12 122.5 -35t96.5 -68q49 -51 79 -134t30 -169q0 -93 -37.5 -165.5t-117.5 -102.5q-62 -24 -176 -24q-12 0 -12 12q0 5 3 8
v323q-24 0 -43 1q-5 0 -8 4t-3 9t4 8t9 3q18 -1 42 -1v311q-4 4 -3 10q2 12 14 10z" />
    <glyph glyph-name="Ntilde" unicode="&#xd1;" horiz-adv-x="372" 
d="M359 685q0 -112 0.5 -336.5t0.5 -336.5q0 -12 -12 -12q-10 0 -12 10q0 1 -1 2l-75 158l-64 142l-75 166l-66 148q0 -91 0.5 -298.5t0.5 -318.5q0 -12 -12 -12t-12 12q0 112 -0.5 336.5t-0.5 336.5q0 12 12 12q9 0 12 -9q0 -1 1 -2l85 -191l107 -237l88 -190
q0 93 -0.5 301t-0.5 319q0 12 12 12t12 -12zM100 726q3 2 5 3.5t5 4.5l5 5q13 11 25 13q20 3 42 -13q6 -4 15 -12l13 -10q8 -6 12 -4q9 5 19 35q3 11 14.5 7.5t7.5 -15.5q-13 -39 -29.5 -48t-37.5 5q-5 4 -14 12l-14 11q-14 10 -24 8q-6 -1 -13 -7q-16 -14 -17 -15
q-10 -7 -17 3t3 17z" />
    <glyph glyph-name="Ograve" unicode="&#xd2;" horiz-adv-x="386" 
d="M239 693q3 -1 5 -2q99 -72 125 -239q22 -139 -10 -280q-8 -34 -26.5 -71.5t-43.5 -63.5q-31 -32 -65 -38q-41 -7 -81 21q-97 70 -102 258q-2 75 10.5 149.5t32.5 130.5q27 74 49 103q43 56 105 32h1zM230 671q-46 17 -78 -25q-21 -26 -46 -96q-19 -54 -31 -127
q-12 -72 -10 -144q4 -177 92 -239q32 -23 62 -17q27 4 53 31q22 23 39 58q17 34 24 66q31 138 11 270q-25 156 -115 222q-1 0 -1 1zM151 780q9 -6 19 -14t21 -18t15 -14q10 -7 2.5 -16.5t-16.5 -1.5q-5 4 -23 20t-30 22q-10 6 -4.5 16.5t16.5 5.5z" />
    <glyph glyph-name="Oacute" unicode="&#xd3;" horiz-adv-x="371" 
d="M227 693q3 -1 5 -2q99 -72 125 -239q22 -139 -10 -280q-8 -34 -26.5 -71.5t-43.5 -63.5q-31 -32 -65 -38q-41 -7 -81 21q-97 70 -102 258q-2 75 10.5 149.5t32.5 130.5q27 74 49 103q43 56 105 32h1zM218 671q-46 17 -78 -25q-21 -26 -46 -96q-19 -54 -31 -127
q-12 -72 -10 -144q4 -177 92 -239q32 -23 62 -17q27 4 53 31q22 23 39 58q17 34 24 66q31 138 11 270q-25 156 -115 222q-1 0 -1 1zM141 748q10 6 58 49q9 8 17 -1t-1 -17q-49 -43 -60 -51q-10 -7 -17 3t3 17z" />
    <glyph glyph-name="Ocircumflex" unicode="&#xd4;" horiz-adv-x="377" 
d="M233 693q3 -1 5 -2q99 -72 125 -239q22 -139 -10 -280q-8 -34 -26.5 -71.5t-43.5 -63.5q-31 -32 -65 -38q-41 -7 -81 21q-97 70 -102 258q-2 75 10.5 149.5t32.5 130.5q27 74 49 103q43 56 105 32h1zM224 671q-46 17 -78 -25q-21 -26 -46 -96q-19 -54 -31 -127
q-12 -72 -10 -144q4 -177 92 -239q32 -23 62 -17q27 4 53 31q22 23 39 58q17 34 24 66q31 138 11 270q-25 156 -115 222q-1 0 -1 1zM148 735q26 47 31 54q6 10 10 14q9 8 18 6q7 -1 14 -9q3 -4 9 -13q17 -28 26 -40q7 -10 -3 -17t-17 3q-9 13 -27 42q-3 5 -5 8q-3 -2 -5 -7
q-4 -6 -31 -53q-5 -10 -15.5 -4.5t-4.5 16.5z" />
    <glyph glyph-name="Otilde" unicode="&#xd5;" horiz-adv-x="383" 
d="M236 693q3 -1 5 -2q99 -72 125 -239q22 -139 -10 -280q-8 -34 -26.5 -71.5t-43.5 -63.5q-31 -32 -65 -38q-41 -7 -81 21q-97 70 -102 258q-2 75 10.5 149.5t32.5 130.5q27 74 49 103q43 56 105 32h1zM227 671q-46 17 -78 -25q-21 -26 -46 -96q-19 -54 -31 -127
q-12 -72 -10 -144q4 -177 92 -239q32 -23 62 -17q27 4 53 31q22 23 39 58q17 34 24 66q31 138 11 270q-25 156 -115 222q-1 0 -1 1zM137 748q23 30 46 27q14 -2 33 -19q11 -10 14 -9q5 0 16 23q5 11 16 6t6 -16q-17 -36 -36 -37q-14 -1 -32 16q-13 11 -19 12q-10 1 -24 -17
q-8 -10 -17.5 -2.5t-2.5 16.5z" />
    <glyph glyph-name="Odieresis" unicode="&#xd6;" horiz-adv-x="377" 
d="M233 693q3 -1 5 -2q99 -72 125 -239q22 -139 -10 -280q-8 -34 -26.5 -71.5t-43.5 -63.5q-31 -32 -65 -38q-41 -7 -81 21q-97 70 -102 258q-2 75 10.5 149.5t32.5 130.5q27 74 49 103q43 56 105 32h1zM224 671q-46 17 -78 -25q-21 -26 -46 -96q-19 -54 -31 -127
q-12 -72 -10 -144q4 -177 92 -239q32 -23 62 -17q27 4 53 31q22 23 39 58q17 34 24 66q31 138 11 270q-25 156 -115 222q-1 0 -1 1zM170 755q0 -12 -12 -12t-12 12t12 12t12 -12zM236 757q0 -12 -12 -12t-12 12t12 12t12 -12z" />
    <glyph glyph-name="multiply" unicode="&#xd7;" horiz-adv-x="235" 
d="M54 356l18 14l56 -85l70 81l17 -16l-74 -85l68 -103l-19 -14l-65 99l-72 -83l-17 16l76 87z" />
    <glyph glyph-name="Oslash" unicode="&#xd8;" horiz-adv-x="377" 
d="M336 470l-254 -333q24 -65 69 -97q32 -23 62 -17q27 4 53 31q22 23 39 58q17 34 24 66q31 138 11 270zM233 693q3 -1 5 -2q99 -72 125 -239q22 -139 -10 -280q-8 -34 -26.5 -71.5t-43.5 -63.5q-31 -32 -65 -38q-41 -7 -81 21q-97 70 -102 258q-2 75 10.5 149.5
t32.5 130.5q27 74 49 103q43 56 105 32h1zM224 671q-46 17 -78 -25q-21 -26 -46 -96q-19 -54 -31 -127t-10 -144q1 -63 14 -113l256 335q-30 115 -104 169q-1 0 -1 1z" />
    <glyph glyph-name="Ugrave" unicode="&#xd9;" horiz-adv-x="346" 
d="M59 692q0 -18 -0.5 -84.5t0.5 -142.5q1 -74 6 -142q9 -127 31 -199q26 -85 68 -97q42 -13 72 25q26 31 36 81q25 124 32 251q7 128 7 305q0 12 12 12t12 -12q0 -116 -2 -191t-11 -179t-26 -190q-12 -57 -41 -93q-41 -49 -97 -33q-55 17 -85 114q-23 74 -32 204
q-5 69 -6 143q-1 76 -0.5 142.5t0.5 85.5q0 5 3.5 8.5t8.5 3.5t8.5 -3.5t3.5 -8.5zM168 771q44 -33 60 -43q10 -6 4 -16t-16 -4q-18 11 -62 43q-10 8 -2.5 17.5t16.5 2.5z" />
    <glyph glyph-name="Uacute" unicode="&#xda;" horiz-adv-x="349" 
d="M62 692q0 -18 -0.5 -84.5t0.5 -142.5q1 -74 6 -142q9 -127 31 -199q26 -85 68 -97q42 -13 72 25q26 31 36 81q25 124 32 251q7 128 7 305q0 12 12 12t12 -12q0 -116 -2 -191t-11 -179t-26 -190q-12 -57 -41 -93q-41 -49 -97 -33q-55 17 -85 114q-23 74 -32 204
q-5 69 -6 143q-1 76 -0.5 142.5t0.5 85.5q0 5 3.5 8.5t8.5 3.5t8.5 -3.5t3.5 -8.5zM162 734q6 4 24 19q16 13 26 20t17 -3t-3 -17q-10 -6 -25 -19q-18 -15 -25 -20q-9 -7 -16.5 2.5t2.5 17.5z" />
    <glyph glyph-name="Ucircumflex" unicode="&#xdb;" horiz-adv-x="346" 
d="M59 692q0 -18 -0.5 -84.5t0.5 -142.5q1 -74 6 -142q9 -127 31 -199q26 -85 68 -97q42 -13 72 25q26 31 36 81q25 124 32 251q7 128 7 305q0 12 12 12t12 -12q0 -116 -2 -191t-11 -179t-26 -190q-12 -57 -41 -93q-41 -49 -97 -33q-55 17 -85 114q-23 74 -32 204
q-5 69 -6 143q-1 76 -0.5 142.5t0.5 85.5q0 5 3.5 8.5t8.5 3.5t8.5 -3.5t3.5 -8.5zM133 741q15 16 33 46l10 18q3 5 4.5 7t3.5 3q5 4 11 3q10 -3 19 -17q5 -8 12 -24l11 -23q5 -11 8 -14q8 -9 -1 -17t-17 1q-5 5 -11 19l-11 24q-7 14 -11 21l-8 -13q-19 -33 -37 -50
q-8 -9 -16.5 -0.5t0.5 16.5z" />
    <glyph glyph-name="Udieresis" unicode="&#xdc;" horiz-adv-x="343" 
d="M56 692q0 -18 -0.5 -84.5t0.5 -142.5q1 -74 6 -142q9 -127 31 -199q26 -85 68 -97q42 -13 72 25q26 31 36 81q25 124 32 251q7 128 7 305q0 12 12 12t12 -12q0 -116 -2 -191t-11 -179t-26 -190q-12 -57 -41 -93q-41 -49 -97 -33q-55 17 -85 114q-23 74 -32 204
q-5 69 -6 143q-1 76 -0.5 142.5t0.5 85.5q0 5 3.5 8.5t8.5 3.5t8.5 -3.5t3.5 -8.5zM170 761q0 -12 -12 -12t-12 12t12 12t12 -12zM236 761q0 -12 -12 -12t-12 12t12 12t12 -12z" />
    <glyph glyph-name="Yacute" unicode="&#xdd;" horiz-adv-x="328" 
d="M128 731l65 60q8 9 16.5 0.5t-0.5 -16.5q-29 -30 -65 -62q-9 -8 -17 1t1 17zM324 687l-156 -424q-4 -14 -51 -128q-33 -80 -46 -128q-4 -12 -18.5 -9t-10.5 15q16 52 47 130q47 114 53 128l28 77q-31 65 -82 190l-62 148q-5 11 8.5 15t18.5 -7l59 -142l71 -167l115 308
q3 12 17 8.5t9 -14.5z" />
    <glyph glyph-name="Thorn" unicode="&#xde;" horiz-adv-x="281" 
d="M58 186v-161q0 -12 -12 -12t-12 12q0 416 -6 644q0 5 3.5 8.5t8.5 3.5t8.5 -3.5t3.5 -8.5q2 -81 3 -171q89 30 152 -4t72 -102q10 -71 -47 -131t-174 -75zM56 473q1 -116 2 -263q55 8 97 27t64 45t31 53t5 54q-8 57 -62 85q-55 29 -137 -1z" />
    <glyph glyph-name="germandbls" unicode="&#xdf;" horiz-adv-x="266" 
d="M96 445l-1 -1q1 0 1 1zM48 17q-6 12 -10 38q-3 23 -5 57q-3 58 -2 152q1 122 8 258q3 61 13 102q9 36 23 55q20 27 49 20q22 -6 28 -38q4 -21 2 -55q-5 -61 -19 -94q-13 -31 -20 -42l4 1q27 11 49 7q43 -10 68.5 -45t32.5 -78.5t0 -94.5q-9 -76 -43.5 -142.5t-80.5 -91.5
q-17 -8 -31 -6t-22 16q-11 19 -7 58q4 33 17 66q14 35 31 48q10 7 17 -3t-3 -17q-12 -8 -23 -37q-12 -30 -15 -60q-3 -31 4 -43q2 -4 5 -4q6 -1 15 4q40 20 72 82q31 60 40 133q10 76 -11 127q-21 53 -72 64q-13 3 -34 -5q-29 -12 -41 -13q-9 0 -13 7q-3 6 1 13q1 2 5 7
q9 10 13 15q7 11 20 44q12 29 17 86q2 30 -1 49q-4 16 -11 18q-13 4 -24 -10q-11 -15 -18 -47q-10 -38 -13 -98q-7 -135 -8 -256q-1 -94 2 -150q2 -33 5 -55t8 -30q5 -11 -5.5 -16.5t-16.5 4.5z" />
    <glyph glyph-name="agrave" unicode="&#xe0;" horiz-adv-x="454" 
d="M139 254h223l-103 378zM114 254l134 424q0 3 2 5q4 11 14 7q11 -3 9 -14q19 -75 56 -209l66 -245q29 -111 52 -210q2 -12 -9.5 -14.5t-14.5 8.5q-23 100 -55 224h-236l-75 -223q-3 -11 -14.5 -7.5t-7.5 15.5zM229 785q14 -9 38.5 -28t29.5 -22q10 -7 3 -17t-17 -3l-29 23
q-25 18 -39 27q-10 7 -3 17t17 3z" />
    <glyph glyph-name="aacute" unicode="&#xe1;" horiz-adv-x="456" 
d="M141 254h223l-103 378zM116 254l134 424q0 3 2 5q4 11 14 7q11 -3 9 -14q19 -75 56 -209l66 -245q29 -111 52 -210q2 -12 -9.5 -14.5t-14.5 8.5q-23 100 -55 224h-236l-75 -223q-3 -11 -14.5 -7.5t-7.5 15.5zM223 724l31 32q20 20 27 26q8 9 16.5 0.5t-0.5 -16.5
q-6 -7 -26 -28t-32 -32q-8 -8 -16.5 0.5t0.5 17.5z" />
    <glyph glyph-name="acircumflex" unicode="&#xe2;" horiz-adv-x="448" 
d="M133 254h223l-103 378zM108 254l134 424q0 3 2 5q4 11 14 7q11 -3 9 -14q19 -75 56 -209l66 -245q29 -111 52 -210q2 -12 -9.5 -14.5t-14.5 8.5q-23 100 -55 224h-236l-75 -223q-3 -11 -14.5 -7.5t-7.5 15.5zM196 730l35 41q7 8 12 12q8 6 16 4q8 -1 15 -7q4 -4 11 -13
l35 -43q8 -9 -1 -17t-17 1q-11 12 -36 44q-6 7 -9 10l-1 1q-2 -2 -7 -8l-35 -41q-8 -9 -17 -1t-1 17z" />
    <glyph glyph-name="atilde" unicode="&#xe3;" horiz-adv-x="445" 
d="M130 254h223l-103 378zM105 254l134 424q0 3 2 5q4 11 14 7q11 -3 9 -14q19 -75 56 -209l66 -245q29 -111 52 -210q2 -12 -9.5 -14.5t-14.5 8.5q-23 100 -55 224h-236l-75 -223q-3 -11 -14.5 -7.5t-7.5 15.5zM193 724q11 20 21 30q11 11 21.5 11t19.5 -9l8 -14q4 -7 5 -9
l1 1q6 7 14 23q6 11 16.5 5.5t5.5 -15.5q-10 -20 -18 -29q-10 -11 -20 -11t-18 10l-7 14q-4 7 -6 9v1q-3 -2 -5 -4q-8 -7 -18 -25q-6 -10 -16 -4t-4 16z" />
    <glyph glyph-name="adieresis" unicode="&#xe4;" horiz-adv-x="448" 
d="M133 254h223l-103 378zM108 254l134 424q0 3 2 5q4 11 14 7q11 -3 9 -14q19 -75 56 -209l66 -245q29 -111 52 -210q2 -12 -9.5 -14.5t-14.5 8.5q-23 100 -55 224h-236l-75 -223q-3 -11 -14.5 -7.5t-7.5 15.5zM248 738q0 -12 -12 -12t-12 12t12 12t12 -12zM296 736
q0 -12 -12 -12t-12 12t12 12t12 -12z" />
    <glyph glyph-name="aring" unicode="&#xe5;" horiz-adv-x="448" 
d="M133 254h223l-103 378zM108 254l134 424q0 3 2 5v1q-22 6 -32 24t-8 39q2 18 13 33t29 20q5 7 13 5q26 -6 38.5 -27t10.5 -44q-2 -19 -13 -34t-28 -18v-6q19 -75 56 -209l66 -245q29 -111 52 -210q2 -12 -9.5 -14.5t-14.5 8.5q-23 100 -55 224h-236l-75 -223
q-3 -11 -14.5 -7.5t-7.5 15.5zM262 778q-14 0 -23 -9.5t-10.5 -24t5.5 -25.5t21 -13q11 -2 19.5 6.5t9.5 23.5q3 30 -21 42h-1z" />
    <glyph glyph-name="ae" unicode="&#xe6;" horiz-adv-x="627" 
d="M127 262h227l-119 375zM239 690q30 0 90 1t90 1q12 0 12 -12t-12 -12q-30 0 -86 -1t-82 -1l127 -402q39 2 107 2q12 0 12 -12t-12 -12q-64 0 -99 -2q38 -122 64 -219q26 -1 64 -1q8 0 33 0.5t38 0.5q12 0 12 -12t-12 -12q-13 0 -38 -0.5t-33 -0.5q-41 0 -69 2l-1 -1
q-11 -3 -15 9q-27 102 -68 232h-241l-68 -230q-4 -12 -15.5 -8.5t-8.5 14.5l73 245v3h1l120 420q4 12 15 9q1 -1 2 -1z" />
    <glyph glyph-name="ccedilla" unicode="&#xe7;" horiz-adv-x="340" 
d="M268 516q-6 63 -22 106q-16 41 -38 52q-20 9 -45 -13q-32 -29 -66 -104t-44 -172.5t3 -179.5q11 -85 47.5 -131t79.5 -47.5t80.5 43.5t51.5 135q2 12 14 10t10 -14q-14 -91 -54 -142.5t-92 -55.5q-7 -13 -28 -34q32 -1 55 -15q20 -11 25 -29q7 -21 -6 -45
q-10 -18 -41 -26q-25 -6 -58 -4q-31 1 -59 8q-30 7 -43 18q-10 7 -2.5 16.5t17 2t33.5 -13.5q26 -6 55 -7q30 -2 51 4q21 5 25 14q9 15 5 26q-3 9 -14 16q-25 14 -58 11h-2q-3 -1 -5 -2q-15 -2 -19 10q-1 3 -1 5t1 4l1 1q0 1 1 2l2 2q1 2 5 5l14 14q12 11 18 19
q-49 10 -85.5 62t-47.5 134q-13 84 -2.5 186t45.5 180q36 79 72 112q37 33 72 16q29 -14 49 -64q18 -46 24 -113q0 -5 -3 -9t-8 -4t-9 3t-4 8z" />
    <glyph glyph-name="egrave" unicode="&#xe8;" 
d="M41 696q26 -1 245 -1q12 0 12 -12t-12 -12q-215 0 -232 1v-298q50 -1 235 -1q12 0 12 -12t-12 -12q-185 0 -235 1l-1 -324q17 -1 232 -1q12 0 12 -12t-12 -12q-219 0 -245 1q-7 0 -10 6h-1v1q-1 3 -1 5q0 3 1 5l1 660q-1 3 -1 5q0 3 1 5q3 7 11 7zM140 785q32 -22 67 -43
q10 -6 4 -16t-16 -4l-69 43q-10 7 -3 17t17 3z" />
    <glyph glyph-name="eacute" unicode="&#xe9;" horiz-adv-x="328" 
d="M44 696q26 -1 245 -1q12 0 12 -12t-12 -12q-215 0 -232 1v-298q50 -1 235 -1q12 0 12 -12t-12 -12q-185 0 -235 1l-1 -324q17 -1 232 -1q12 0 12 -12t-12 -12q-219 0 -245 1q-7 0 -10 6h-1v1q-1 3 -1 5q0 3 1 5l1 660q-1 3 -1 5q0 3 1 5q3 7 11 7zM124 747q32 11 56 38
q8 9 17 1t1 -17q-28 -32 -66 -44q-12 -4 -15.5 7.5t7.5 14.5z" />
    <glyph glyph-name="ecircumflex" unicode="&#xea;" 
d="M44 696q26 -1 245 -1q12 0 12 -12t-12 -12q-215 0 -232 1v-298q50 -1 235 -1q12 0 12 -12t-12 -12q-185 0 -235 1l-1 -324q17 -1 232 -1q12 0 12 -12t-12 -12q-219 0 -245 1q-7 0 -10 6h-1v1q-1 3 -1 5q0 3 1 5l1 660q-1 3 -1 5q0 3 1 5q3 7 11 7zM100 753q18 15 31 32
q2 2 4.5 5.5t3.5 4.5q5 7 11 8q9 2 16 -6q3 -3 9 -11l31 -43q8 -9 -1.5 -16.5t-16.5 2.5q-15 17 -33 44l-1 2l-4 -5q-14 -18 -34 -35q-10 -8 -17.5 1.5t1.5 16.5z" />
    <glyph glyph-name="edieresis" unicode="&#xeb;" horiz-adv-x="333" 
d="M44 696q26 -1 245 -1q12 0 12 -12t-12 -12q-215 0 -232 1v-298q50 -1 235 -1q12 0 12 -12t-12 -12q-185 0 -235 1l-1 -324q17 -1 232 -1q12 0 12 -12t-12 -12q-219 0 -245 1q-7 0 -10 6h-1v1q-1 3 -1 5q0 3 1 5l1 660q-1 3 -1 5q0 3 1 5q3 7 11 7zM124 747q0 -12 -12 -12
t-12 12t12 12t12 -12zM193 746q0 -12 -12 -12t-12 12t12 12t12 -12z" />
    <glyph glyph-name="igrave" unicode="&#xec;" horiz-adv-x="328" 
d="M49 699q54 -1 245 -1q12 0 12 -12t-12 -12h-55h-62v-651h57h54q12 0 12 -12t-12 -12q-191 0 -245 1q-5 0 -8.5 3.5t-3.5 8.5t3.5 8.5t8.5 3.5q48 -1 110 -1v651q-58 0 -104 1q-5 0 -8.5 3.5t-3.5 8.5t3.5 8.5t8.5 3.5zM131 797q40 -33 55 -52q7 -9 -2.5 -16.5t-17.5 2.5
q-12 16 -51 48q-9 7 -1.5 16.5t17.5 1.5z" />
    <glyph glyph-name="iacute" unicode="&#xed;" 
d="M49 699q54 -1 245 -1q12 0 12 -12t-12 -12h-55h-62v-651h57h54q12 0 12 -12t-12 -12q-191 0 -245 1q-5 0 -8.5 3.5t-3.5 8.5t3.5 8.5t8.5 3.5q48 -1 110 -1v651q-58 0 -104 1q-5 0 -8.5 3.5t-3.5 8.5t3.5 8.5t8.5 3.5zM130 765q18 8 47 34q9 8 17 -1t-1 -17
q-32 -28 -53 -38q-11 -5 -16 6t6 16z" />
    <glyph glyph-name="icircumflex" unicode="&#xee;" horiz-adv-x="326" 
d="M49 699q54 -1 245 -1q12 0 12 -12t-12 -12h-55h-62v-651h57h54q12 0 12 -12t-12 -12q-191 0 -245 1q-5 0 -8.5 3.5t-3.5 8.5t3.5 8.5t8.5 3.5q48 -1 110 -1v651q-58 0 -104 1q-5 0 -8.5 3.5t-3.5 8.5t3.5 8.5t8.5 3.5zM105 756q16 11 29 33q2 4 5.5 10t4.5 7q6 10 10 15
q9 9 20 7q9 -2 19 -12q14 -17 41 -71q5 -10 -5.5 -15.5t-16.5 5.5q-25 51 -38 65q-2 3 -3 4q-3 -3 -6 -10q-1 -1 -4.5 -7.5t-6.5 -9.5q-15 -27 -35 -41q-10 -7 -17 3t3 17z" />
    <glyph glyph-name="idieresis" unicode="&#xef;" horiz-adv-x="328" 
d="M49 699q54 -1 245 -1q12 0 12 -12t-12 -12h-55h-62v-651h57h54q12 0 12 -12t-12 -12q-191 0 -245 1q-5 0 -8.5 3.5t-3.5 8.5t3.5 8.5t8.5 3.5q48 -1 110 -1v651q-58 0 -104 1q-5 0 -8.5 3.5t-3.5 8.5t3.5 8.5t8.5 3.5zM149 754q0 -12 -12 -12t-12 12t12 12t12 -12z
M212 757q0 -12 -12 -12t-12 12t12 12t12 -12z" />
    <glyph glyph-name="eth" unicode="&#xf0;" horiz-adv-x="447" 
d="M124 345v-319q97 1 153 22q70 27 104.5 93t34.5 153q0 81 -28.5 160t-74.5 127q-66 68 -188 92v-304h36q12 0 12 -12t-12 -12h-37zM112 700q69 -12 122.5 -35t96.5 -68q49 -51 79 -134t30 -169q0 -93 -37.5 -165.5t-117.5 -102.5q-62 -24 -176 -24q-12 0 -12 12q0 5 3 8
v323q-24 0 -43 1q-5 0 -8 4t-3 9t4 8t9 3q18 -1 42 -1v311q-4 4 -3 10q2 12 14 10z" />
    <glyph glyph-name="ntilde" unicode="&#xf1;" horiz-adv-x="372" 
d="M359 685q0 -112 0.5 -336.5t0.5 -336.5q0 -12 -12 -12q-10 0 -12 10q0 1 -1 2l-75 158l-64 142l-75 166l-66 148q0 -91 0.5 -298.5t0.5 -318.5q0 -12 -12 -12t-12 12q0 112 -0.5 336.5t-0.5 336.5q0 12 12 12q9 0 12 -9q0 -1 1 -2l85 -191l107 -237l88 -190
q0 93 -0.5 301t-0.5 319q0 12 12 12t12 -12zM100 726q3 2 5 3.5t5 4.5l5 5q13 11 25 13q20 3 42 -13q6 -4 15 -12l13 -10q8 -6 12 -4q9 5 19 35q3 11 14.5 7.5t7.5 -15.5q-13 -39 -29.5 -48t-37.5 5q-5 4 -14 12l-14 11q-14 10 -24 8q-6 -1 -13 -7q-16 -14 -17 -15
q-10 -7 -17 3t3 17z" />
    <glyph glyph-name="ograve" unicode="&#xf2;" horiz-adv-x="386" 
d="M239 693q3 -1 5 -2q99 -72 125 -239q22 -139 -10 -280q-8 -34 -26.5 -71.5t-43.5 -63.5q-31 -32 -65 -38q-41 -7 -81 21q-97 70 -102 258q-2 75 10.5 149.5t32.5 130.5q27 74 49 103q43 56 105 32h1zM230 671q-46 17 -78 -25q-21 -26 -46 -96q-19 -54 -31 -127
q-12 -72 -10 -144q4 -177 92 -239q32 -23 62 -17q27 4 53 31q22 23 39 58q17 34 24 66q31 138 11 270q-25 156 -115 222q-1 0 -1 1zM151 780q9 -6 19 -14t21 -18t15 -14q10 -7 2.5 -16.5t-16.5 -1.5q-5 4 -23 20t-30 22q-10 6 -4.5 16.5t16.5 5.5z" />
    <glyph glyph-name="oacute" unicode="&#xf3;" horiz-adv-x="371" 
d="M227 693q3 -1 5 -2q99 -72 125 -239q22 -139 -10 -280q-8 -34 -26.5 -71.5t-43.5 -63.5q-31 -32 -65 -38q-41 -7 -81 21q-97 70 -102 258q-2 75 10.5 149.5t32.5 130.5q27 74 49 103q43 56 105 32h1zM218 671q-46 17 -78 -25q-21 -26 -46 -96q-19 -54 -31 -127
q-12 -72 -10 -144q4 -177 92 -239q32 -23 62 -17q27 4 53 31q22 23 39 58q17 34 24 66q31 138 11 270q-25 156 -115 222q-1 0 -1 1zM141 748q10 6 58 49q9 8 17 -1t-1 -17q-49 -43 -60 -51q-10 -7 -17 3t3 17z" />
    <glyph glyph-name="ocircumflex" unicode="&#xf4;" horiz-adv-x="377" 
d="M233 693q3 -1 5 -2q99 -72 125 -239q22 -139 -10 -280q-8 -34 -26.5 -71.5t-43.5 -63.5q-31 -32 -65 -38q-41 -7 -81 21q-97 70 -102 258q-2 75 10.5 149.5t32.5 130.5q27 74 49 103q43 56 105 32h1zM224 671q-46 17 -78 -25q-21 -26 -46 -96q-19 -54 -31 -127
q-12 -72 -10 -144q4 -177 92 -239q32 -23 62 -17q27 4 53 31q22 23 39 58q17 34 24 66q31 138 11 270q-25 156 -115 222q-1 0 -1 1zM148 735q26 47 31 54q6 10 10 14q9 8 18 6q7 -1 14 -9q3 -4 9 -13q17 -28 26 -40q7 -10 -3 -17t-17 3q-9 13 -27 42q-3 5 -5 8q-3 -2 -5 -7
q-4 -6 -31 -53q-5 -10 -15.5 -4.5t-4.5 16.5z" />
    <glyph glyph-name="otilde" unicode="&#xf5;" horiz-adv-x="383" 
d="M236 693q3 -1 5 -2q99 -72 125 -239q22 -139 -10 -280q-8 -34 -26.5 -71.5t-43.5 -63.5q-31 -32 -65 -38q-41 -7 -81 21q-97 70 -102 258q-2 75 10.5 149.5t32.5 130.5q27 74 49 103q43 56 105 32h1zM227 671q-46 17 -78 -25q-21 -26 -46 -96q-19 -54 -31 -127
q-12 -72 -10 -144q4 -177 92 -239q32 -23 62 -17q27 4 53 31q22 23 39 58q17 34 24 66q31 138 11 270q-25 156 -115 222q-1 0 -1 1zM137 748q23 30 46 27q14 -2 33 -19q11 -10 14 -9q5 0 16 23q5 11 16 6t6 -16q-17 -36 -36 -37q-14 -1 -32 16q-13 11 -19 12q-10 1 -24 -17
q-8 -10 -17.5 -2.5t-2.5 16.5z" />
    <glyph glyph-name="odieresis" unicode="&#xf6;" horiz-adv-x="377" 
d="M233 693q3 -1 5 -2q99 -72 125 -239q22 -139 -10 -280q-8 -34 -26.5 -71.5t-43.5 -63.5q-31 -32 -65 -38q-41 -7 -81 21q-97 70 -102 258q-2 75 10.5 149.5t32.5 130.5q27 74 49 103q43 56 105 32h1zM224 671q-46 17 -78 -25q-21 -26 -46 -96q-19 -54 -31 -127
q-12 -72 -10 -144q4 -177 92 -239q32 -23 62 -17q27 4 53 31q22 23 39 58q17 34 24 66q31 138 11 270q-25 156 -115 222q-1 0 -1 1zM170 755q0 -12 -12 -12t-12 12t12 12t12 -12zM236 757q0 -12 -12 -12t-12 12t12 12t12 -12z" />
    <glyph glyph-name="divide" unicode="&#xf7;" horiz-adv-x="240" 
d="M32 217v24l195 1v-24zM131 146q0 -12 -12 -12t-12 12t12 12t12 -12zM136 299q0 -12 -12 -12t-12 12t12 12t12 -12z" />
    <glyph glyph-name="oslash" unicode="&#xf8;" horiz-adv-x="377" 
d="M336 470l-254 -333q24 -65 69 -97q32 -23 62 -17q27 4 53 31q22 23 39 58q17 34 24 66q31 138 11 270zM233 693q3 -1 5 -2q99 -72 125 -239q22 -139 -10 -280q-8 -34 -26.5 -71.5t-43.5 -63.5q-31 -32 -65 -38q-41 -7 -81 21q-97 70 -102 258q-2 75 10.5 149.5
t32.5 130.5q27 74 49 103q43 56 105 32h1zM224 671q-46 17 -78 -25q-21 -26 -46 -96q-19 -54 -31 -127t-10 -144q1 -63 14 -113l256 335q-30 115 -104 169q-1 0 -1 1z" />
    <glyph glyph-name="ugrave" unicode="&#xf9;" horiz-adv-x="346" 
d="M59 692q0 -18 -0.5 -84.5t0.5 -142.5q1 -74 6 -142q9 -127 31 -199q26 -85 68 -97q42 -13 72 25q26 31 36 81q25 124 32 251q7 128 7 305q0 12 12 12t12 -12q0 -116 -2 -191t-11 -179t-26 -190q-12 -57 -41 -93q-41 -49 -97 -33q-55 17 -85 114q-23 74 -32 204
q-5 69 -6 143q-1 76 -0.5 142.5t0.5 85.5q0 5 3.5 8.5t8.5 3.5t8.5 -3.5t3.5 -8.5zM168 771q44 -33 60 -43q10 -6 4 -16t-16 -4q-18 11 -62 43q-10 8 -2.5 17.5t16.5 2.5z" />
    <glyph glyph-name="uacute" unicode="&#xfa;" horiz-adv-x="349" 
d="M62 692q0 -18 -0.5 -84.5t0.5 -142.5q1 -74 6 -142q9 -127 31 -199q26 -85 68 -97q42 -13 72 25q26 31 36 81q25 124 32 251q7 128 7 305q0 12 12 12t12 -12q0 -116 -2 -191t-11 -179t-26 -190q-12 -57 -41 -93q-41 -49 -97 -33q-55 17 -85 114q-23 74 -32 204
q-5 69 -6 143q-1 76 -0.5 142.5t0.5 85.5q0 5 3.5 8.5t8.5 3.5t8.5 -3.5t3.5 -8.5zM162 734q6 4 24 19q16 13 26 20t17 -3t-3 -17q-10 -6 -25 -19q-18 -15 -25 -20q-9 -7 -16.5 2.5t2.5 17.5z" />
    <glyph glyph-name="ucircumflex" unicode="&#xfb;" horiz-adv-x="346" 
d="M59 692q0 -18 -0.5 -84.5t0.5 -142.5q1 -74 6 -142q9 -127 31 -199q26 -85 68 -97q42 -13 72 25q26 31 36 81q25 124 32 251q7 128 7 305q0 12 12 12t12 -12q0 -116 -2 -191t-11 -179t-26 -190q-12 -57 -41 -93q-41 -49 -97 -33q-55 17 -85 114q-23 74 -32 204
q-5 69 -6 143q-1 76 -0.5 142.5t0.5 85.5q0 5 3.5 8.5t8.5 3.5t8.5 -3.5t3.5 -8.5zM133 741q15 16 33 46l10 18q3 5 4.5 7t3.5 3q5 4 11 3q10 -3 19 -17q5 -8 12 -24l11 -23q5 -11 8 -14q8 -9 -1 -17t-17 1q-5 5 -11 19l-11 24q-7 14 -11 21l-8 -13q-19 -33 -37 -50
q-8 -9 -16.5 -0.5t0.5 16.5z" />
    <glyph glyph-name="udieresis" unicode="&#xfc;" horiz-adv-x="343" 
d="M56 692q0 -18 -0.5 -84.5t0.5 -142.5q1 -74 6 -142q9 -127 31 -199q26 -85 68 -97q42 -13 72 25q26 31 36 81q25 124 32 251q7 128 7 305q0 12 12 12t12 -12q0 -116 -2 -191t-11 -179t-26 -190q-12 -57 -41 -93q-41 -49 -97 -33q-55 17 -85 114q-23 74 -32 204
q-5 69 -6 143q-1 76 -0.5 142.5t0.5 85.5q0 5 3.5 8.5t8.5 3.5t8.5 -3.5t3.5 -8.5zM170 761q0 -12 -12 -12t-12 12t12 12t12 -12zM236 761q0 -12 -12 -12t-12 12t12 12t12 -12z" />
    <glyph glyph-name="yacute" unicode="&#xfd;" horiz-adv-x="334" 
d="M129 731l65 60q8 9 16.5 0.5t-0.5 -16.5q-29 -30 -65 -62q-9 -8 -17 1t1 17zM324 687l-156 -424q-4 -14 -51 -128q-33 -80 -46 -128q-4 -12 -18.5 -9t-10.5 15q16 52 47 130q47 114 53 128l28 77q-31 65 -82 190l-62 148q-5 11 8.5 15t18.5 -7l59 -142l71 -167l115 308
q3 12 17 8.5t9 -14.5z" />
    <glyph glyph-name="thorn" unicode="&#xfe;" horiz-adv-x="281" 
d="M58 186v-161q0 -12 -12 -12t-12 12q0 416 -6 644q0 5 3.5 8.5t8.5 3.5t8.5 -3.5t3.5 -8.5q2 -81 3 -171q89 30 152 -4t72 -102q10 -71 -47 -131t-174 -75zM56 473q1 -116 2 -263q55 8 97 27t64 45t31 53t5 54q-8 57 -62 85q-55 29 -137 -1z" />
    <glyph glyph-name="ydieresis" unicode="&#xff;" horiz-adv-x="331" 
d="M156 736q0 -12 -12 -12t-12 12t12 12t12 -12zM213 738q0 -12 -12 -12t-12 12t12 12t12 -12zM324 687l-156 -424q-4 -14 -51 -128q-33 -80 -46 -128q-4 -12 -18.5 -9t-10.5 15q16 52 47 130q47 114 53 128l28 77q-31 65 -82 190l-62 148q-5 11 8.5 15t18.5 -7l59 -142
l71 -167l115 308q3 12 17 8.5t9 -14.5z" />
    <glyph glyph-name="OE" unicode="&#x152;" horiz-adv-x="458" 
d="M230 671q-46 17 -78 -25q-21 -26 -46 -96q-19 -54 -31 -127q-12 -72 -10 -144q4 -177 92 -239q32 -23 62 -17q27 4 53 31q22 23 39 58q17 34 24 66q31 138 11 270q-25 156 -115 222q-1 0 -1 1zM209 701q36 0 106 -2.5t106 -2.5q12 0 12 -12t-12 -12q-24 0 -50.5 0.5
t-58.5 2t-50 1.5q84 -74 107 -224q5 -34 7 -69q18 -2 54 -2q12 0 12 -12t-12 -12q-35 0 -53 2q2 -96 -18 -187q-8 -34 -26.5 -71.5t-43.5 -63.5q-6 -6 -12 -11q62 2 147 2q12 0 12 -12t-12 -12q-112 0 -187 -4q-3 0 -5 1l-8 -2q-41 -7 -81 21q-97 70 -102 258
q-2 75 10.5 149.5t32.5 130.5q27 74 49 103q31 40 71 39q3 1 5 1z" />
    <glyph glyph-name="oe" unicode="&#x153;" horiz-adv-x="452" 
d="M224 671q-46 17 -78 -25q-21 -26 -46 -96q-19 -54 -31 -127q-12 -72 -10 -144q4 -177 92 -239q32 -23 62 -17q27 4 53 31q22 23 39 58q17 34 24 66q31 138 11 270q-25 156 -115 222q-1 0 -1 1zM203 701q36 0 106 -2.5t106 -2.5q12 0 12 -12t-12 -12q-24 0 -50.5 0.5
t-58.5 2t-50 1.5q84 -74 107 -224q5 -34 7 -69q18 -2 54 -2q12 0 12 -12t-12 -12q-35 0 -53 2q2 -96 -18 -187q-8 -34 -26.5 -71.5t-43.5 -63.5q-6 -6 -12 -11q62 2 147 2q12 0 12 -12t-12 -12q-112 0 -187 -4q-3 0 -5 1l-8 -2q-41 -7 -81 21q-97 70 -102 258
q-2 75 10.5 149.5t32.5 130.5q27 74 49 103q31 40 71 39q3 1 5 1z" />
    <glyph glyph-name="endash" unicode="&#x2013;" horiz-adv-x="366" 
d="M167 603q-6 -12 -5 -21q0 -9 7 -13q7 -5 19 -0.5t18 17t2 20.5q-4 7 -13 9q-17 4 -28 -12zM173 637q13 5 27 2q20 -4 29 -22q10 -19 -1 -42q-11 -21 -32 -29t-38 1q-20 10 -20 34q0 1 -1 1q-2 4 -1 9q3 13 10 24q4 9 11 19q7 9 16 3zM295 89q-6 -12 -5 -21q0 -9 7 -13
q7 -5 19 -0.5t18 17t2 20.5q-4 7 -13 9q-17 4 -28 -12zM301 123q13 5 27 2q20 -4 29 -22q10 -19 -1 -42q-11 -21 -32 -29t-38 1q-20 10 -20 34q0 1 -1 1q-2 4 -1 9q3 13 10 24q4 9 11 19q7 9 16 3zM181 96q-6 -12 -5 -21q0 -9 7 -13q7 -5 19 -0.5t18 17t2 20.5q-4 7 -13 9
q-17 4 -28 -12zM187 130q13 5 27 2q20 -4 29 -22q10 -19 -1 -42q-11 -21 -32 -29t-38 1q-20 10 -20 34q0 1 -1 1q-2 4 -1 9q3 13 10 24q4 9 11 19q7 9 16 3zM356 693l-298 -685q-5 -11 -16 -6t-6 16l298 685q5 11 16 6t6 -16z" />
    <glyph glyph-name="quoteleft" unicode="&#x2018;" horiz-adv-x="154" 
d="M130 680q-56 -43 -67 -103q-12 -65 46 -102q11 -6 4.5 -16.5t-16.5 -3.5q-72 46 -58 126q6 33 27 65q20 31 50 54q9 7 16.5 -2.5t-2.5 -17.5z" />
    <glyph glyph-name="quoteright" unicode="&#x2019;" horiz-adv-x="119" 
d="M26 473q55 49 65 107q10 64 -50 100q-10 6 -4 16t16 4q75 -43 61 -124q-11 -67 -72 -121q-9 -8 -17 1t1 17z" />
    <glyph glyph-name="quotedblleft" unicode="&#x201c;" horiz-adv-x="200" 
d="M139 687q-26 -17 -45 -45q-19 -27 -26 -58q-16 -69 34 -110q9 -7 1.5 -16.5t-17.5 -1.5q-61 50 -42 134q8 35 30 66.5t53 50.5q10 7 16.5 -3.5t-4.5 -16.5zM213 680q-56 -43 -67 -103q-12 -65 46 -102q11 -6 4.5 -16.5t-16.5 -3.5q-72 46 -58 126q6 33 27 65q20 31 50 54
q9 7 16.5 -2.5t-2.5 -17.5z" />
    <glyph glyph-name="quotedblright" unicode="&#x201d;" horiz-adv-x="168" 
d="M134 698q29 -36 35 -80.5t-6.5 -86t-38.5 -77.5q-7 -10 -17 -3t-3 17q37 53 42 108q5 57 -30 108q-8 9 1.5 16.5t16.5 -2.5zM59 695q29 -36 35 -80.5t-6.5 -86t-38.5 -77.5q-7 -10 -17 -3t-3 17q37 53 42 109t-30 107q-8 9 1.5 16.5t16.5 -2.5z" />
    <glyph glyph-name="Euro" unicode="&#x20ac;" horiz-adv-x="398" 
d="M325 516q-6 63 -22 106q-16 41 -38 52q-20 9 -45 -13q-32 -29 -66 -104q-32 -71 -43 -162h26q12 0 12 -12t-12 -12h-28q-4 -48 -2 -96h29q12 0 12 -12t-12 -12h-28q2 -22 5 -46q11 -85 47 -131q37 -46 80 -47.5t80.5 43.5t51.5 135q2 12 14 10t10 -14q-16 -96 -58 -147
q-43 -53 -99 -51q-54 2 -96 55t-54 143q-3 24 -5 49q-25 -1 -40 -1q-12 0 -12 12t12 12q15 0 39 1q-2 49 2 97h-47q-12 0 -12 12t12 12h49q11 97 45 172q36 79 72 112q37 33 72 16q29 -14 49 -64q18 -46 24 -113q0 -5 -3 -9t-8 -4t-9 3t-4 8z" />
    <glyph glyph-name="trademark" unicode="&#x2122;" horiz-adv-x="449" 
d="M38 653q16 1 44.5 3.5t33.5 3.5q46 4 79 4q12 0 12 -12t-12 -12q-30 0 -72 -4q9 -154 9 -201q0 -12 -12 -12t-12 12q0 47 -9 199q-44 -4 -59 -5q-5 0 -9 3t-4 8t3 9t8 4zM209 433q15 61 15 150q0 20 2 58l-1 5q-1 3 -1 4v2q-1 2 0 5q2 4 6 6q5 3 11 1l4 -4l2 -2v-1t4 -11
l11 -24q6 -14 12 -26q11 -23 19 -34l3 -3q2 3 4 8q5 14 13 40l13 40l5 13q1 3 1 4q1 1 1 2q1 1 1 2l2 2q4 3 9 3q6 0 11 -6q2 -2 3 -6q3 -5 6 -15q1 -5 4 -15.5t4 -14.5q4 -16 15.5 -52.5t19.5 -65.5t12 -55q2 -12 -10 -14t-14 10q-4 26 -11.5 53.5t-19 63.5t-16.5 54
q0 2 -4 17l-9 -27l-14 -41l-6 -15l-3 -6q-3 -4 -7 -6q-10 -4 -20 3q-6 5 -12 13q-9 13 -21 37l-5 10v-12q0 -91 -15 -156q-3 -11 -14.5 -8.5t-9.5 14.5z" />
    <glyph glyph-name="uni3000" unicode="&#x3000;" horiz-adv-x="1000" 
 />
    <glyph glyph-name="uniF8FF" unicode="&#xf8ff;" horiz-adv-x="1109" 
d="M586 496q0 19 -2 36q-5 32 -14 47q-5 6 -9 7.5t-10 -1.5q-11 -5 -8 -20q3 -17 21 -42q10 -14 22 -27zM892 716l-25 -43q1 -7 3 -15q4 -25 13 -45l2 -4q8 14 9 40q1 10 0 32q-1 25 -1 29q0 2 -1 6zM849 640l-5 -9q8 -9 13 -18q-5 13 -8 27zM832 607q-5 -11 -8 -20
q-11 -31 -5 -41q2 -4 7 -2q10 4 16 16q8 22 -10 47zM733 511q3 6 1 19q-3 13 -10 30q1 -10 2 -19q4 -20 7 -30zM367 361v-2q-2 -26 -13 -40q-15 -20 -41 -13q-37 11 -54 53q-16 37 -11 78q6 45 31 63q27 19 63 -1q1 3 2 5q7 12 21 16q21 4 42 -11q9 -7 18 -17q-1 12 -1 21
q1 30 21 41q21 13 45 2q17 -9 35 -30q11 -13 28 -37q14 -22 19 -27q2 -2 7 -9l4 -5v2q1 6 2 14q-23 20 -41 45q-21 29 -25 52q-5 33 22 46q15 7 28 2q12 -4 21 -17q12 -19 18 -57q4 -29 2 -60q16 -12 25 -14h4q2 2 3 9q1 16 -6 54q-13 60 -13 65q-3 17 -2 27q1 16 9 23
q25 22 58 3q5 -3 10 -7q1 12 3 22q3 14 8 22q7 12 19 15q14 3 31 -3t22 -9l23 -15q12 -9 22 -18l10 17l7 13q-4 64 34 88q5 4 11 5q13 2 18 -8q3 -5 2 -13q0 -1 -1 -3q2 0 4 -1q13 -7 37 -41q30 -40 41 -52q23 -25 41 -27q19 -2 39 26q7 10 17 3t3 -17q-28 -40 -63 -36
q-25 4 -54 35q-12 13 -43 54q-7 10 -12 16q0 -2 1 -26q1 -22 0 -35q-2 -45 -25 -65q-8 -7 -16 -1q-4 2 -7 6q-2 3 -5 8q7 -23 -1 -44q-9 -22 -30 -30q-25 -9 -37 13q-10 21 4 61q6 15 14 32q-10 10 -25 20l-21 14q-6 4 -16.5 7.5t-20.5 1.5q-1 0 -2 -3q-4 -5 -6 -15
q-3 -16 -3 -41q6 -8 12 -17q19 -32 24 -60q7 -38 -18 -48q-7 -3 -15 1q-7 3 -10 9q-7 11 -11 41q-5 29 -6 61v4q-11 13 -21 19q-18 10 -30 0q-1 0 -1 -6q-1 -8 1 -23q1 -4 13 -63q9 -42 7 -61q-2 -16 -10 -24q-10 -10 -27 -7q-9 2 -22 10v-2q-3 -12 -7 -19q-4 -5 -9 -7
q-6 -1 -11.5 1t-11.5 9q-3 3 -8 10q-4 5 -6 7q-5 6 -21 29q-16 24 -26 35q-15 18 -28 24q-12 6 -22 0q-8 -5 -9 -22t7 -44q6 -20 15 -42l13 -25q2 -3 4 -10q2 -3 2 -5v-2q1 -3 0 -5q-1 -5 -6 -7q-5 -3 -10 -1l-5 4l-1 1q0 1 -1 1l-17 38q-15 26 -28 45q-15 20 -28 29t-22 7
q-4 -1 -5 -3q-2 -4 -2 -12q1 -15 13 -46q3 -9 10 -27t10 -25q5 -13 6 -22q3 -13 -2 -20q-3 -6 -9 -7q-7 -1 -12 4q-3 2 -5 8q-1 2 -2 4.5t-1.5 4t-1.5 1.5zM385 127q15 22 24 40q23 46 12 79q-4 11 -10 14q-5 2 -21 3q-33 1 -65 -13q11 -37 53 -126zM591 24q-1 10 -4 20
q-12 47 -51.5 66t-91.5 10q-22 -4 -43 -12l-9 -13l1 -3q21 -46 32 -79q38 6 114 10q27 1 52 1zM589 0q-23 0 -48 -1q-72 -3 -109 -9q10 -38 10 -69q0 -12 -12 -12t-12 12q0 29 -10 64q-83 -18 -127 -68q-15 -17 -20 -41q-7 -27 9 -37q37 -24 95 -16.5t115 41.5
q44 27 73.5 62.5t35.5 73.5zM348 77q-18 -15 -30 -33q9 7 13 11t17 22zM647 200q-4 3 -7 7q-20 23 -25 42v4q-13 14 -22 13q-11 -1 -17 -21q-7 -25 1.5 -53.5t33.5 -43.5q3 -2 12 -3l9 -1q12 5 15 31q1 12 0 25zM869 370q-24 -30 -22 -55q0 -15 9 -18q10 -3 21 12
q12 16 5 38q-4 11 -13 23zM861 163q0 1 -1 4q-4 12 -24 37q-12 15 -30 36q14 -30 27 -50q11 -17 20 -24q4 -4 8 -3zM647 250q14 -16 18 -24q3 -6 4 -14q10 -8 17 -9q0 4 -2 10q0 1 -7 19q-2 6 -3 8q-1 5 1 9q3 5 8 6q3 2 7 1q8 -2 20 -14q2 -1 5 -4l7 -7q3 -3 6 -5
q10 -9 16 -11q5 -1 8 2q11 10 7 43q-4 30 -15 49l-7 14l-11 14q-1 0 -1 1h-1q-1 3 -1 5q-2 7 5 12q3 1 5.5 1.5t3.5 -0.5h2l3 -2q1 0 1.5 -0.5t1.5 -2.5q-2 9 -3 16q-3 25 0 41q3 21 16 31q20 15 54 3q28 -10 55 -34l3 -3q26 25 64 46q11 6 16.5 -4.5t-4.5 -15.5
q-36 -21 -60 -43q12 -17 18 -33q12 -34 -7 -60q-22 -29 -48 -21q-25 7 -26 40q-2 35 30 74l-3 2q-22 21 -46 29q-22 8 -32 0q-4 -3 -6 -14q-2 -14 0 -35q4 -27 15 -63l26 -31l28 -32l20 -25q23 -29 28 -45q4 -12 1 -21q-5 -11 -18 -14q-14 -5 -29 9q-11 9 -24 29
q-15 23 -30 56q-2 -23 -15 -34q-13 -12 -31 -6q-11 3 -24 14l-4 3q2 -9 1 -15q-2 -9 -10 -13q-7 -4 -17 -3q-5 1 -12 4v-11q-5 -40 -29 -50q-9 -4 -24 -1q-12 3 -19 7q-33 19 -44 55.5t-2 67.5q11 36 38 39q28 2 56 -40zM26 587q5 -56 35 -123.5t69 -121.5q26 -36 56 -54
q15 -9 22 -7q7 3 9 25q6 90 -40 182q-32 64 -67 121q-7 10 3.5 16.5t16.5 -4.5q35 -56 69 -123q49 -97 42 -194q-3 -37 -24 -45q-18 -7 -43 8q-35 21 -64 61q-40 56 -71.5 126.5t-36.5 130.5q0 5 3 9t8 4t9 -3t4 -8zM339 472q-29 20 -46 8t-21 -45q-4 -36 9 -66
q13 -32 38 -39q11 -3 16 3q6 8 8 28q1 18 -2 41q-16 29 -20 56v3q1 6 5 9q7 5 13 1l2 -2v2q-1 1 -2 1zM205 150q24 61 74 100.5t113 36.5q21 -1 30 -5q14 -8 21 -28q15 -42 -13 -98l-8 -16l18 4q59 10 107.5 -13t63.5 -81q3 -14 4 -27l21 -2q21 -3 33 -8q20 -8 17 -24
q-2 -9 -9 -18l-5 -7l-4 -4q-6 -11 -16.5 -4.5t-3.5 16.5q2 4 5 8l5 5q2 3 3 5l-1 1q-9 4 -27 6q-9 1 -19 2q-7 -45 -41 -85q-33 -40 -81 -70q-40 -24 -81 -36q-43 -13 -84.5 -11t-70.5 22t-19 63q7 30 26 51q49 55 138 75q-9 28 -26 65q-23 -31 -26 -34q-8 -8 -37 -28
q-1 0 -4 -3t-5 -4q-4 -3 -8 -4q-8 -2 -13 4q-4 5 -3 12q15 59 78 97q-41 88 -53 125q-52 -33 -77 -96q-4 -12 -15.5 -7.5t-6.5 15.5z" />
  </font>
</defs>
</svg>
