<?xml version="1.0" standalone="no"?>
<!DOCTYPE svg PUBLIC "-//W3C//DTD SVG 1.1//EN" "http://www.w3.org/Graphics/SVG/1.1/DTD/svg11.dtd" >
<svg>
<metadata>
Created by FontForge 20110222 at Sat Jun 28 09:21:42 2014
 By Orthosie Webhosting
Copyright (c) 2013 by NimaVisual. All rights reserved.
</metadata>
<defs>
<font id="Trench-Thin" horiz-adv-x="526" >
  <font-face 
    font-family="Trench"
    font-weight="100"
    font-stretch="normal"
    units-per-em="1000"
    panose-1="2 0 5 3 0 0 0 2 0 4"
    ascent="750"
    descent="-250"
    x-height="423"
    cap-height="559"
    bbox="-147 -228 764 747.45"
    underline-thickness="50"
    underline-position="-50"
    unicode-range="U+0020-2122"
  />
<missing-glyph horiz-adv-x="500" 
 />
    <glyph glyph-name=".notdef" horiz-adv-x="500" 
 />
    <glyph glyph-name=".null" horiz-adv-x="0" 
 />
    <glyph glyph-name="nonmarkingreturn" horiz-adv-x="333" 
 />
    <glyph glyph-name="space" unicode=" " horiz-adv-x="222" 
 />
    <glyph glyph-name="exclam" unicode="!" horiz-adv-x="171" 
d="M34 546v-417q0 -14 -14 -14q-13 0 -13 14v417q0 14 13 14q14 0 14 -14zM20 40q8 0 14.5 -6t6.5 -14t-6.5 -14t-14.5 -6t-14 6t-6 14t6 14t14 6z" />
    <glyph glyph-name="quotedbl" unicode="&#x22;" horiz-adv-x="291" 
d="M103 517v-15q0 -23 -16 -23q-15 0 -15 23v15v52v14q0 24 15 24q16 0 16 -24v-14v-52zM31 517v-15q0 -23 -15 -23q-16 0 -16 23v15v52v14q0 24 16 24q15 0 15 -24v-14v-52z" />
    <glyph glyph-name="numbersign" unicode="#" horiz-adv-x="669" 
d="M159 188l-105 -181q-3 -7 -11 -7q-14 0 -14 14q0 2 2 6l97 168h-115q-13 0 -13 13q0 14 13 14h131l75 130h-206q-13 0 -13 14q0 13 13 13h221l45 77q2 4 20.5 38.5t31 53.5t19.5 19q5 0 9.5 -4t4.5 -9q0 -3 -2 -7l-97 -168h136l44 77q3 6 12 22.5t16.5 30t16 28
t15.5 22.5t12 8q13 0 13 -14q0 -4 -1 -6l-98 -168h115q14 0 14 -13q0 -14 -14 -14h-130l-75 -130h205q14 0 14 -14q0 -13 -14 -13h-221l-104 -181q-4 -7 -12 -7q-14 0 -14 14q0 2 2 6l98 168h-136zM250 345l-76 -130h136l75 130h-135z" />
    <glyph glyph-name="dollar" unicode="$" horiz-adv-x="616" 
d="M499 426v-1q0 -13 -14 -13q-13 0 -13 13q0 44 -31 75l-9 9l-1 -1q-28 23 -65 23h-101v-240l11 -1q40 -6 67.5 -11.5t60.5 -17t53 -27t33.5 -41t13.5 -58.5q0 -55 -39.5 -94t-93.5 -39h-106v-43q0 -13 -13 -13q-14 0 -14 13v43h-105q-55 0 -94 39l-3 3q-34 38 -36 86v5
q0 13 13 13q14 0 14 -13q0 -41 27 -71l4 -4q31 -31 75 -31h105v239l-10 1q-108 15 -164.5 49.5t-56.5 106.5q0 55 39 94l3 3q38 36 90 36h99v43q0 14 14 14q13 0 13 -14v-43h101q52 0 90 -36l4 -3q37 -39 39 -93zM74 508l-1 1l-8 -9q-32 -32 -32 -75q0 -29 13 -51t30.5 -34
t47.5 -22t49 -13.5t51 -7.5l14 -2v236h-99q-37 0 -65 -23zM265 29h106q43 0 74.5 31.5t31.5 74.5q0 28 -12 49.5t-29 33.5t-43.5 21t-48 13t-50.5 8q-10 1 -15 2l-14 2v-235z" />
    <glyph glyph-name="percent" unicode="%" horiz-adv-x="627" 
d="M53 5q-4 -5 -11 -5q-13 0 -13 13q0 5 3 9q60 73 180 219.5t181 219.5q4 5 26 34t37.5 46.5t22.5 17.5q13 0 13 -13q0 -4 -3 -9q-73 -88 -218.5 -265.5t-217.5 -266.5zM91 559q37 0 63.5 -27t26.5 -64t-26.5 -64t-63.5 -27t-64 27t-27 64t27 64t64 27zM138 515
q-20 20 -47 20t-47 -20t-20 -47q0 -26 19.5 -46t47.5 -20q27 0 46.5 19.5t19.5 46.5q0 28 -19 47zM430 181q37 0 64 -27t27 -64t-27 -64t-64 -27t-64 27t-27 64t27 64t64 27zM477 137q-19 19 -47 19q-27 0 -46.5 -19.5t-19.5 -46.5q0 -28 20 -47.5t46 -19.5q27 0 47 20
t20 47t-20 47z" />
    <glyph glyph-name="ampersand" unicode="&#x26;" horiz-adv-x="624" 
d="M129 515l-1 1l-9 -9q-25 -25 -25 -61q0 -35 25 -60.5t60 -25.5h342q13 0 13 -13q0 -14 -13 -14h-54v-220q0 -47 -33 -80l-3 -3q-33 -30 -77 -30h-174q-74 0 -127 53t-53 127q0 50 27.5 95t73.5 67l17 8l-14 13q-35 32 -37 83q0 47 33 80l3 3q33 30 77 30h139q14 0 14 -13
q0 -14 -14 -14h-139q-29 0 -51 -17zM406 44v-1l9 9q25 25 25 61v220h-262q-61 0 -106 -45.5t-45 -107.5q0 -63 45 -108t108 -45h174q29 0 52 17z" />
    <glyph glyph-name="quotesingle" unicode="'" horiz-adv-x="211" 
d="M30 517v-15q0 -23 -15 -23q-16 0 -16 23v15v52v14q0 24 16 24q15 0 15 -24v-14v-52z" />
    <glyph glyph-name="parenleft" unicode="(" horiz-adv-x="277" 
d="M132 559q14 0 14 -13t-14 -13q-48 -2 -74 -31l-9 -10q-20 -23 -22 -65v-432q2 -42 22 -65l9 -10q33 -31 74 -31q14 0 14 -13t-14 -13q-54 0 -93 39l-3 3q-36 38 -36 90v432q0 52 36 90l3 4q40 38 93 38z" />
    <glyph glyph-name="parenright" unicode=")" horiz-adv-x="280" 
d="M14 559q53 0 93 -38l3 -4q36 -38 36 -90v-432q0 -52 -36 -90l-3 -3q-39 -39 -93 -39q-14 0 -14 13t14 13q41 0 74 31l9 10q20 23 22 65v432q-2 42 -22 65l-9 10q-26 29 -74 31q-14 0 -14 13t14 13z" />
    <glyph glyph-name="asterisk" unicode="*" horiz-adv-x="331" 
d="M98 352v71l-50 -50q-4 -4 -8 -4q-11 0 -11 11q0 4 3 9l50 50h-71q-11 0 -11 11t11 11h71l-50 51q-3 3 -3 7q0 12 10 12q5 0 9 -3l50 -51v72q0 11 11 11q12 0 12 -11v-72l50 51q3 3 7 3q12 0 12 -12q0 -4 -3 -7l-51 -51h72q11 0 11 -11t-11 -11h-72l51 -50q3 -5 3 -9
q0 -11 -12 -11q-3 0 -7 4l-50 50v-71q0 -11 -12 -11q-11 0 -11 11z" />
    <glyph glyph-name="plus" unicode="+" horiz-adv-x="557" 
d="M238 211v-197q0 -14 -14 -14q-13 0 -13 14v197h-197q-14 0 -14 13q0 14 14 14h197v197q0 14 13 14q14 0 14 -14v-197h197q14 0 14 -14q0 -13 -14 -13h-197z" />
    <glyph glyph-name="comma" unicode="," horiz-adv-x="177" 
d="M87 51l-55 -96q-9 -14 -22 -6q-14 7 -6 22q1 1 4 7t16.5 29t35.5 60q7 14 21 6q14 -9 6 -22z" />
    <glyph glyph-name="hyphen" unicode="-" horiz-adv-x="499" 
d="M14 211q-14 0 -14 13q0 14 14 14h421q14 0 14 -14q0 -13 -14 -13h-421z" />
    <glyph glyph-name="period" unicode="." horiz-adv-x="189" 
d="M27 54q11 0 19 -8t8 -19t-8 -19t-19 -8t-19 8t-8 19t8 19t19 8z" />
    <glyph glyph-name="slash" unicode="/" horiz-adv-x="445" 
d="M26 7q-7 -12 -18 -5q-13 6 -5 18q264 458 308 533q6 13 18 5q11 -6 5 -18q-206 -356 -308 -533z" />
    <glyph glyph-name="zero" unicode="0" horiz-adv-x="588" 
d="M235 559q96 0 165.5 -69.5t69.5 -165.5v-89q0 -96 -69.5 -165.5t-165.5 -69.5t-165.5 69.5t-69.5 165.5v89q0 96 69.5 165.5t165.5 69.5zM27 324v-89q0 -85 61.5 -146.5t146.5 -61.5q88 0 147 61h1q60 60 60 147v89q0 87 -60 147h-1q-59 61 -147 61q-85 0 -146.5 -61
t-61.5 -147z" />
    <glyph glyph-name="one" unicode="1" horiz-adv-x="195" 
d="M13 559h12q2 0 9 0.5t10.5 0t8.5 -1.5t7.5 -4t2.5 -8v-533q0 -13 -13 -13t-13 13v519h-76q-13 0 -13 14q0 5 2.5 8t7.5 4t8.5 1.5t11 0t8.5 -0.5h13h14z" />
    <glyph glyph-name="two" unicode="2" horiz-adv-x="585" 
d="M26 0h-13q-13 0 -13 13v121q0 25 7.5 46t17.5 35t29.5 26t33.5 18.5t40.5 13t39.5 8.5t40.5 6t35.5 5q32 4 44.5 6t43 7.5t45 11t37 16t33 23t19 30.5t8.5 40q0 42 -32 76l-9 8q-29 23 -66 23h-222q-38 0 -66 -23l-10 -8q-31 -33 -31 -76q0 -13 -13 -13q-14 0 -14 13v1
q0 56 39 93l4 4q38 36 91 36h222q52 0 91 -36l3 -4q40 -40 40 -94q0 -36 -13.5 -62.5t-33.5 -41t-49.5 -25t-54 -14.5t-56.5 -9t-47 -9q-33 -5 -45 -6.5t-42 -7.5t-43 -11t-34.5 -15.5t-30.5 -22t-17 -29.5t-8 -39v-107h455q13 0 13 -14q0 -13 -13 -13h-456z" />
    <glyph glyph-name="three" unicode="3" horiz-adv-x="564" 
d="M13 360h261h1q35 0 60 25t25 61t-25 61l-9 9l-1 -1q-23 17 -51 17h-261q-13 0 -13 14q0 13 13 13h261q44 0 77 -30l3 -3q33 -33 33 -80q0 -45 -33 -80h-1q-2 -2 -4 -3l-13 -13l16 -8q48 -24 75 -67.5t27 -94.5q0 -74 -53 -127t-127 -53h-261q-13 0 -13 13q0 12 13 14h261
q62 0 107.5 45t45.5 108q0 62 -45 107.5t-106 45.5h-1h-262q-13 0 -13 14q0 13 13 13z" />
    <glyph glyph-name="four" unicode="4" horiz-adv-x="500" 
d="M11 225h1q8 -2 12 -2h328v266q0 14 13 14q6 0 10 -4.5t4 -9.5v-476q0 -13 -14 -13q-13 0 -13 13v186h-328q-14 0 -26 6l-2 1q-27 16 -27 47q0 12 7 28l158 273q5 6 11 6q12 0 12 -12q0 -2 -2 -6l-158 -274q-4 -8 -4 -15q0 -16 15 -26z" />
    <glyph glyph-name="five" unicode="5" horiz-adv-x="564" 
d="M27 360h258q73 -2 125.5 -54.5t52.5 -125.5q0 -74 -53.5 -127t-126.5 -53h-270q-13 0 -13 13q0 14 13 14h270q62 0 107.5 45t45.5 108t-45.5 108t-107.5 45h-270q-13 0 -13 14v199q0 13 13 13h330q13 0 13 -13q0 -12 -13 -14h-316v-172z" />
    <glyph glyph-name="six" unicode="6" horiz-adv-x="549" 
d="M177 360h104q74 0 127 -53t53 -127t-53 -127t-127 -53h-101q-74 0 -127 53t-53 127v94q0 118 83 201l1 1q83 83 201 83h62q13 0 13 -13q0 -14 -13 -14h-75q-99 -5 -169 -75l-1 -1q-55 -53 -71 -139l-7 -38l29 28q55 53 124 53zM193 333h-13q-63 0 -108 -45t-45 -108
t45 -108t108 -45h101q63 0 108.5 45t45.5 108t-45.5 108t-108.5 45h-88z" />
    <glyph glyph-name="seven" unicode="7" horiz-adv-x="428" 
d="M338 534h-1q-8 2 -12 2h-375q-12 0 -12 12t12 12h375q15 0 25 -6l3 -1q27 -17 27 -47q0 -14 -8 -27l-207 -359l-66 -114q-3 -6 -10 -6q-12 0 -12 11q0 5 2 7l272 473q5 7 5 15q0 18 -15 26z" />
    <glyph glyph-name="eight" unicode="8" horiz-adv-x="603" 
d="M403 529l2 -3q33 -31 33 -80q0 -23 -9.5 -48.5t-27.5 -34.5l-14 -13l17 -8q48 -23 74.5 -67t27.5 -95q0 -73 -53.5 -126.5t-126.5 -53.5h-146q-74 0 -127 53t-53 127q0 50 27.5 95t73.5 67l17 8l-14 13q-35 32 -37 83q0 47 33 80l3 3q33 30 77 30h146q44 0 77 -30z
M129 515l-1 1l-9 -9q-25 -25 -25 -61q0 -35 25 -60.5t60 -25.5h1h147q34 0 59.5 25.5t25.5 60.5q0 37 -26 61l-8 9l-1 -1q-23 17 -51 17h-146q-29 0 -51 -17zM178 333q-61 0 -106 -45.5t-45 -107.5q0 -63 45 -108t108 -45h146q61 0 107 45t46 108t-45 108t-107 45h-149z" />
    <glyph glyph-name="nine" unicode="9" horiz-adv-x="580" 
d="M284 199h-104q-74 0 -127 53.5t-53 126.5t53 126.5t127 53.5h101q74 0 127 -53t53 -127v-94q0 -118 -83 -201v-1q-85 -83 -202 -83h-61q-14 0 -14 13q0 14 14 14h74q98 5 170 75v1q58 58 72 139l6 38l-28 -28q-53 -53 -125 -53zM269 226h12q63 0 108.5 45t45.5 108
t-45.5 108t-108.5 45h-101q-63 0 -108 -45t-45 -108t45 -108t108 -45h89z" />
    <glyph glyph-name="colon" unicode=":" horiz-adv-x="221" 
d="M27 54q11 0 19 -8t8 -19t-8 -19t-19 -8t-19 8t-8 19t8 19t19 8zM27 423q11 0 19 -8t8 -19t-8 -19t-19 -8t-19 8t-8 19t8 19t19 8z" />
    <glyph glyph-name="semicolon" unicode=";" horiz-adv-x="232" 
d="M60 423q11 0 19 -8t8 -19t-8 -19t-19 -8t-19 8t-8 19t8 19t19 8zM85 51l-55 -96q-5 -8 -14 -8q-16 0 -16 16q0 2 2 8q1 1 4 7t16.5 29t35.5 60q5 8 13 8q7 0 11.5 -5t4.5 -11q0 -5 -2 -8z" />
    <glyph glyph-name="less" unicode="&#x3c;" horiz-adv-x="523" 
d="M50 356l355 148q1 1 5 1q11 0 11 -12q0 -9 -7 -12l-355 -148q-34 -14 -34 -52t34 -52l355 -148q7 -3 7 -12q0 -12 -11 -12q-4 0 -5 1l-355 148q-50 23 -50 75q0 51 50 75z" />
    <glyph glyph-name="equal" unicode="=" horiz-adv-x="549" 
d="M14 141q-14 0 -14 14t14 14h307q13 0 13 -14t-13 -14h-307zM14 280q-14 0 -14 14q0 5 4 9.5t10 4.5h307q5 0 9 -4.5t4 -9.5q0 -14 -13 -14h-307z" />
    <glyph glyph-name="greater" unicode="&#x3e;" horiz-adv-x="520" 
d="M50 356l355 148q1 1 5 1q11 0 11 -12q0 -9 -7 -12l-355 -148q-34 -14 -34 -52t34 -52l355 -148q7 -3 7 -12q0 -12 -11 -12q-4 0 -5 1l-355 148q-50 23 -50 75q0 51 50 75z" />
    <glyph glyph-name="question" unicode="?" horiz-adv-x="539" 
d="M381 524l3 -4q40 -40 40 -94q0 -30 -9.5 -53.5t-28.5 -39.5t-38 -27t-48.5 -18.5t-49 -11t-49.5 -7.5l-11 -1v-139q0 -13 -13 -13q-6 0 -9.5 4t-4.5 12.5t-1 15.5t0.5 17.5t0.5 14.5v13v23v13q0 4 -0.5 14.5t-0.5 17.5t1 15t4.5 12.5t9.5 4.5h1q38 5 62 9t57 14t52.5 23
t33.5 35.5t14 51.5q0 42 -32 76l-9 8q-29 23 -66 23h-180q-38 0 -66 -23l-10 -8q-31 -33 -31 -76q0 -13 -14 -13q-13 0 -13 13v1q0 56 39 93l3 4q39 36 92 36h180q52 0 91 -36zM177 41q8 0 14 -6.5t6 -14.5t-6 -14t-14 -6t-14.5 6t-6.5 14t6.5 14.5t14.5 6.5z" />
    <glyph glyph-name="at" unicode="@" horiz-adv-x="694" 
d="M248 559h162q69 0 119.5 -50.5t50.5 -120.5v-75q0 -70 -50 -120.5t-120 -50.5h-111q-55 0 -93.5 39t-38.5 94t38.5 94t93.5 39h254l-4 15q-13 48 -51.5 78.5t-87.5 30.5h-175q-85 0 -146.5 -61t-61.5 -147v-89q0 -85 61.5 -146.5t146.5 -61.5h308q13 0 13 -14
q0 -13 -13 -13h-308q-96 0 -165.5 69.5t-69.5 165.5v89q0 96 69.5 165.5t165.5 69.5h13zM359 169h51q58 0 100.5 42.5t42.5 101.5v68h-254q-43 0 -74 -31t-31 -75t30.5 -75t74.5 -31h60z" />
    <glyph glyph-name="A" unicode="A" horiz-adv-x="655" 
d="M339 544l1 -1h1q21 -15 32 -40l203 -486v-4q0 -13 -12 -13q-9 0 -10 7l-61 146h-409l-61 -146q-3 -7 -11 -7q-12 0 -12 12q0 3 1 5l203 486q11 27 34 41l2 2q22 13 48 13q28 0 51 -15zM263 530v2l-12 -8q-18 -13 -25 -30l-132 -317h389l-133 317q-7 19 -23 29l-1 1
q-17 11 -38 11q-12 0 -25 -5z" />
    <glyph glyph-name="B" unicode="B" horiz-adv-x="580" 
d="M386 529l2 -3q34 -32 34 -80q0 -22 -10 -48t-28 -35l-13 -13l16 -8q48 -24 75 -67.5t27 -94.5q0 -74 -53.5 -127t-126.5 -53h-196q-44 0 -77 30l-3 3q-33 33 -33 80v333q0 47 33 80l3 3q33 30 77 30h196q44 0 77 -30zM61 43v1q23 -17 52 -17h196q61 0 107 45t46 108
q0 62 -45 107.5t-107 45.5h-283v-220q0 -36 25 -61zM61 515v1l-9 -9q-25 -25 -25 -61v-86h283q35 0 60 25t25 61t-25 61l-9 9l-1 -1q-23 17 -51 17h-196q-29 0 -52 -17z" />
    <glyph glyph-name="C" unicode="C" horiz-adv-x="542" 
d="M235 559h197q14 0 14 -13q0 -14 -14 -14h-197q-85 0 -146.5 -61t-61.5 -147v-89q0 -85 61.5 -146.5t146.5 -61.5h197q14 0 14 -14q0 -13 -14 -13h-197q-97 0 -166 69.5t-69 165.5v89q0 96 69.5 165.5t165.5 69.5z" />
    <glyph glyph-name="D" unicode="D" horiz-adv-x="573" 
d="M36 30l-3 3q-33 33 -33 80v333q0 47 33 80l3 3q33 30 77 30h139q96 0 165.5 -69.5t69.5 -165.5v-89q0 -96 -69 -165.5t-166 -69.5h-139q-44 0 -77 30zM61 43v1q23 -17 52 -17h139q85 0 147 61t62 147v89q0 86 -62 147t-147 61h-139q-29 0 -52 -17v1l-9 -9
q-25 -25 -25 -61v-333q0 -36 25 -61z" />
    <glyph glyph-name="E" unicode="E" horiz-adv-x="542" 
d="M235 559h197q14 0 14 -13q0 -14 -14 -14h-197q-85 0 -146.5 -61t-61.5 -147v-31h370q13 0 13 -13q0 -14 -13 -14h-370v-31q0 -85 61.5 -146.5t146.5 -61.5h197q14 0 14 -14q0 -13 -14 -13h-197q-96 0 -165.5 69.5t-69.5 165.5v89q0 96 69.5 165.5t165.5 69.5z" />
    <glyph glyph-name="F" unicode="F" horiz-adv-x="464" 
d="M0 26v301q1 96 70.5 164t164.5 68h99q13 0 13 -13q0 -14 -13 -14h-99q-85 0 -146.5 -61t-61.5 -147v-145h307q13 0 13 -14q0 -13 -13 -13h-307v-139q0 -13 -14 -13q-13 0 -13 13v13z" />
    <glyph glyph-name="G" unicode="G" horiz-adv-x="625" 
d="M248 360h116q74 0 127 -53t53 -127t-53 -127t-127 -53h-129q-97 0 -166 69.5t-69 165.5v89q0 96 69.5 165.5t165.5 69.5h247q14 0 14 -13q0 -14 -14 -14h-247q-85 0 -146.5 -61t-61.5 -147v-89q0 -85 61.5 -146.5t146.5 -61.5h129q62 0 107.5 45t45.5 108t-45.5 108
t-107.5 45h-128q-14 0 -14 14q0 13 14 13h12z" />
    <glyph glyph-name="H" unicode="H" horiz-adv-x="588" 
d="M27 179h418v367q0 13 13 13t13 -13v-533q0 -13 -13 -13t-13 13v139h-418v-139q0 -13 -14 -13q-13 0 -13 13v533q0 13 13 13q14 0 14 -13v-367z" />
    <glyph glyph-name="I" unicode="I" horiz-adv-x="165" 
d="M27 546v-533q0 -13 -14 -13q-13 0 -13 13v533q0 13 13 13q14 0 14 -13z" />
    <glyph glyph-name="J" unicode="J" horiz-adv-x="351" 
d="M195 219v327q0 13 13 13q14 0 14 -13v-375q0 -71 -50 -121t-121 -50h-38q-13 0 -13 14q0 13 13 13h38q59 0 101.5 42.5t42.5 101.5v48z" />
    <glyph glyph-name="K" unicode="K" horiz-adv-x="531" 
d="M194 293q82 4 139 65.5t57 142.5v45q0 13 14 13q13 0 13 -13v-45q0 -65 -34.5 -122.5t-93.5 -86.5l-22 -11l23 -11q61 -29 96.5 -87t36.5 -125v-45q0 -13 -13 -13q-14 0 -14 13v45q0 85 -61.5 146.5t-146.5 61.5h-161v-253q0 -13 -14 -13q-13 0 -13 13v533q0 13 13 13
q14 0 14 -13v-253h167z" />
    <glyph glyph-name="L" unicode="L" horiz-adv-x="417" 
d="M323 27h13q13 0 13 -14q0 -13 -13 -13h-165q-71 0 -121 50t-50 121v375q0 13 13 13q14 0 14 -13v-375q0 -59 42.5 -101.5t101.5 -42.5h152z" />
    <glyph glyph-name="M" unicode="M" horiz-adv-x="802" 
d="M94 517l-70 -508q-2 -10 -12 -10q-12 0 -12 11v2l71 508q1 17 14 27t30 10q29 0 40 -28l185 -494q4 -12 19 -12q13 0 18 12l185 494q10 28 40 28q17 0 30 -10t14 -27l71 -508v-2q0 -11 -12 -11q-10 0 -12 10l-70 508q-3 12 -18 17q-16 0 -21 -13l-185 -494
q-10 -28 -40 -28q-31 0 -41 28l-185 494q-5 13 -21 13q-15 -5 -18 -17z" />
    <glyph glyph-name="N" unicode="N" horiz-adv-x="655" 
d="M24 513v-499q0 -12 -12 -12t-12 12v499q0 20 14 33t32 13q25 0 36 -18l394 -508q5 -9 16 -9q10 0 16.5 6.5t6.5 15.5v499q0 12 12 12t12 -12v-499q0 -19 -13.5 -32.5t-32.5 -13.5q-25 0 -36 18l-394 508q-7 9 -16 9q-10 0 -16.5 -6.5t-6.5 -15.5z" />
    <glyph glyph-name="O" unicode="O" horiz-adv-x="687" 
d="M235 559h110q96 0 165.5 -69.5t69.5 -165.5v-89q0 -96 -70 -165.5t-165 -69.5h-110q-97 0 -166 69.5t-69 165.5v89q0 96 69.5 165.5t165.5 69.5zM27 324v-89q0 -85 61.5 -146.5t146.5 -61.5h110q85 0 146.5 61.5t61.5 146.5v89q0 85 -61.5 146.5t-146.5 61.5h-110
q-85 0 -146.5 -61t-61.5 -147z" />
    <glyph glyph-name="P" unicode="P" horiz-adv-x="562" 
d="M311 199h-284v-186q0 -13 -14 -13q-13 0 -13 13v433q0 47 33 80l3 3q33 30 77 30h196q73 0 126.5 -53.5t53.5 -126.5t-52.5 -125.5t-125.5 -54.5zM296 226h13q61 0 107 45t46 108t-46 108t-107 45h-196q-29 0 -52 -17v1l-9 -9q-25 -25 -25 -61v-220h269z" />
    <glyph glyph-name="Q" unicode="Q" horiz-adv-x="694" 
d="M235 559h110q96 0 165.5 -69.5t69.5 -165.5v-89q0 -86 -56 -151l-7 -9l52 -53q4 -4 4 -10q0 -5 -4 -9t-9 -4q-6 0 -9 4l-54 53l-8 -7q-64 -49 -144 -49h-110q-97 0 -166 69.5t-69 165.5v89q0 96 69.5 165.5t165.5 69.5zM553 235v89q0 85 -61.5 146.5t-146.5 61.5h-110
q-85 0 -146.5 -61t-61.5 -147v-89q0 -85 61.5 -146.5t146.5 -61.5h110q68 0 122 39l12 9l-36 35q-24 24 -77 78t-83 83q-4 3 -4 9q0 14 13 14q4 0 10 -4l196 -197l9 11q46 57 46 131z" />
    <glyph glyph-name="R" unicode="R" horiz-adv-x="590" 
d="M33 526l3 3q33 30 77 30h196q73 0 126.5 -53.5t53.5 -126.5q0 -67 -45.5 -119t-112.5 -60l-25 -3l174 -174q4 -6 4 -10q0 -13 -14 -13q-6 0 -9 4l-195 195h-239v-186q0 -13 -14 -13q-13 0 -13 13v433q0 47 33 80zM296 226h13q61 0 107 45t46 108t-46 108t-107 45h-196
q-29 0 -52 -17v1l-9 -9q-25 -25 -25 -61v-220h269z" />
    <glyph glyph-name="S" unicode="S" horiz-adv-x="621" 
d="M502 427v-1q0 -13 -13 -13q-14 0 -14 13q0 45 -31 76l-10 8q-28 23 -65 23h-229q-37 0 -66 -23l-9 -8q-31 -31 -31 -76q0 -44 26 -71.5t68 -40t92 -19.5t100.5 -15t92.5 -21.5t68 -45t26 -79.5q0 -55 -39.5 -94.5t-93.5 -39.5h-241q-55 0 -94 39l-3 4q-34 36 -36 86v5
q0 13 13 13q14 0 14 -13q0 -41 28 -72l3 -4q31 -31 75 -31h241q44 0 75 31.5t31 75.5q0 36 -15.5 60.5t-44.5 36t-55 17.5t-63 10.5t-53 8.5q-45 6 -78 12.5t-65.5 19t-53 28.5t-33 41.5t-12.5 57.5q0 54 39 95l3 3q39 36 91 36h229q52 0 91 -36l3 -3q39 -39 39 -94z" />
    <glyph glyph-name="T" unicode="T" horiz-adv-x="500" 
d="M257 532v-519q0 -13 -13 -13q-14 0 -14 13v519h-217q-13 0 -13 14q0 13 13 13h461q13 0 13 -13q0 -14 -13 -14h-217z" />
    <glyph glyph-name="U" unicode="U" horiz-adv-x="615" 
d="M491 533v13q0 13 14 13q13 0 13 -13v-311q0 -96 -69.5 -165.5t-165.5 -69.5h-48q-97 0 -166 69.5t-69 165.5v311q0 13 13 13q14 0 14 -13v-311q0 -85 61.5 -146.5t146.5 -61.5h48q85 0 146.5 61.5t61.5 146.5v298z" />
    <glyph glyph-name="V" unicode="V" horiz-adv-x="678" 
d="M240 13l-2 2q-22 14 -34 41l-203 486q-1 1 -1 5q0 12 12 12q8 0 11 -7l203 -487q8 -19 25 -30l12 -8v2q13 -5 25 -5q21 0 38 11l1 1q16 10 23 29l204 487q2 7 10 7q12 0 12 -13v-4l-203 -486q-11 -25 -32 -40l-2 -1q-23 -15 -51 -15q-26 0 -48 13z" />
    <glyph glyph-name="W" unicode="W" horiz-adv-x="804" 
d="M24 547l70 -507q3 -18 21 -18q13 0 18 13l185 494q11 29 41 29q29 0 40 -29l185 -494q5 -13 18 -13q18 0 21 18l70 507q2 11 14 11q10 -2 10 -12v-2l-71 -508q-2 -15 -14.5 -26t-29.5 -11q-30 0 -40 28l-185 494q-6 13 -18 13q-13 0 -19 -13l-185 -494q-11 -29 -40 -29
q-18 0 -30 11.5t-14 26.5l-71 508v2q0 10 10 12q12 0 14 -11z" />
    <glyph glyph-name="X" unicode="X" horiz-adv-x="632" 
d="M223 266q-82 -5 -139 -66t-57 -142v-45q0 -13 -14 -13q-13 0 -13 13v45q0 66 36 124t97 88l23 11l-22 11q-59 29 -93.5 86.5t-34.5 122.5v45q0 13 13 13q14 0 14 -13v-45q0 -85 61.5 -146.5t146.5 -61.5h42q85 0 146.5 61.5t61.5 146.5v45q0 13 14 13q13 0 13 -13v-45
q0 -65 -34.5 -122.5t-93.5 -86.5l-22 -11l23 -11q62 -32 97.5 -88.5t35.5 -123.5v-45q0 -13 -13 -13q-14 0 -14 13v45q0 85 -61.5 146.5t-146.5 61.5h-66z" />
    <glyph glyph-name="Y" unicode="Y" horiz-adv-x="573" 
d="M482 546v-152q0 -97 -69 -166v-1q-60 -60 -147 -68l-12 -1v-145q0 -13 -13 -13t-13 13v145l-12 1q-90 8 -153 76.5t-63 158.5v152q0 13 13 13q14 0 14 -13v-152q0 -85 61 -147t147 -62h12q86 0 147 62t61 147v152q0 13 14 13q13 0 13 -13z" />
    <glyph glyph-name="Z" unicode="Z" horiz-adv-x="625" 
d="M414 535h-383q-12 0 -12 12t12 12h383q38 0 65.5 -27.5t27.5 -65.5q0 -53 -46 -80l-397 -234q-34 -21 -34 -57q0 -30 20 -50.5t49 -20.5h405q12 0 12 -12t-12 -12h-405q-39 0 -66 27.5t-27 65.5q0 52 46 80l397 234q34 21 33 58q0 30 -20 50t-48 20z" />
    <glyph glyph-name="bracketleft" unicode="[" horiz-adv-x="293" 
d="M13 559h130q14 0 14 -13t-14 -13h-116v-644h116q14 0 14 -13t-14 -13h-130q-13 0 -13 13v670q0 13 13 13z" />
    <glyph glyph-name="backslash" unicode="\" horiz-adv-x="453" 
d="M310 7q-102 177 -308 533q-6 12 5 18q12 8 18 -5q44 -75 308 -533q8 -12 -5 -18q-11 -7 -18 5z" />
    <glyph glyph-name="bracketright" unicode="]" horiz-adv-x="291" 
d="M14 559h130q13 0 13 -13v-670q0 -13 -13 -13h-130q-14 0 -14 13t14 13h116v644h-116q-14 0 -14 13t14 13z" />
    <glyph glyph-name="asciicircum" unicode="^" horiz-adv-x="315" 
d="M121 538l-100 -85q-3 -3 -8 -3q-13 0 -13 13q0 6 4 9l92 79q10 9 25 9t25 -9l92 -79q4 -3 4 -9q0 -13 -13 -13q-5 0 -8 3z" />
    <glyph glyph-name="underscore" unicode="_" horiz-adv-x="661" 
d="M13 0q-13 0 -13 13q0 14 13 14h537q13 0 13 -14q0 -13 -13 -13h-537z" />
    <glyph glyph-name="grave" unicode="`" horiz-adv-x="458" 
d="M112 487l-55 96q-9 12 5 22q14 7 22 -6q54 -92 56 -97q8 -14 -6 -21q-13 -8 -22 6z" />
    <glyph glyph-name="a" unicode="a" horiz-adv-x="503" 
d="M62 423h164q70 0 122 -51t52 -122v-77q0 -71 -52 -122t-122 -51h-111q-56 0 -95.5 39.5t-39.5 95.5t39.5 95t95.5 39h257l-4 16q-12 48 -52.5 79.5t-89.5 31.5h-177q-13 0 -13 13q0 14 13 14h13zM175 27h51q60 0 103 43.5t43 102.5v69h-257q-45 0 -76.5 -31.5
t-31.5 -75.5q0 -45 31.5 -76.5t76.5 -31.5h60z" />
    <glyph glyph-name="b" unicode="b" horiz-adv-x="511" 
d="M0 171v382q0 14 13 14q14 0 14 -14v-202l23 24q45 48 121 50h75q70 0 120.5 -50.5t50.5 -120.5v-83q0 -71 -50.5 -121t-120.5 -50h-75q-71 0 -121 50t-50 121zM27 229v-58q0 -59 42.5 -101.5t101.5 -42.5h75q59 0 101.5 42.5t42.5 101.5v83q0 59 -42.5 101.5t-101.5 42.5
h-75q-58 0 -101 -42t-43 -99v-28z" />
    <glyph glyph-name="c" unicode="c" horiz-adv-x="438" 
d="M322 27h13q13 0 13 -13q0 -14 -13 -14h-162q-71 0 -122 51t-51 122v77q0 70 51 121.5t122 51.5h162q13 0 13 -14q0 -13 -13 -13h-162q-58 0 -102 -43t-44 -103v-77q0 -59 43.5 -102.5t102.5 -43.5h149z" />
    <glyph glyph-name="d" unicode="d" horiz-adv-x="536" 
d="M417 553v-382q0 -71 -50.5 -121t-120.5 -50h-75q-71 0 -121 50t-50 121v83q0 70 50.5 120.5t120.5 50.5h75q73 0 121 -50l23 -24v202q0 14 14 14q13 0 13 -14zM390 229v28q0 57 -43.5 99t-100.5 42h-75q-59 0 -101.5 -42.5t-42.5 -101.5v-83q0 -59 42.5 -101.5
t101.5 -42.5h75q59 0 101.5 42.5t42.5 101.5v58z" />
    <glyph glyph-name="e" unicode="e" 
d="M22 155l18 -41q17 -39 54 -63t79 -24h186q13 0 13 -13q0 -14 -13 -14h-186q-74 0 -123.5 53.5t-49.5 127.5v69q0 70 51 121.5t122 51.5h77q70 0 121.5 -51.5t51.5 -121.5v-70q0 -10 -7 -17.5t-17 -7.5h-377zM396 182v68q0 59 -43.5 102.5t-102.5 43.5h-77
q-59 0 -102.5 -43t-43.5 -103v-68h369z" />
    <glyph glyph-name="f" unicode="f" horiz-adv-x="325" 
d="M0 338v50q0 70 50 120.5t121 50.5h38q13 0 13 -13q0 -14 -13 -14h-38q-59 0 -101.5 -42t-42.5 -102v-208h172q14 0 14 -14q0 -13 -14 -13h-172v-140q0 -13 -14 -13q-13 0 -13 13v325z" />
    <glyph glyph-name="g" unicode="g" horiz-adv-x="521" 
d="M213 84q-30 0 -30 -24q0 -10 7 -17.5t17 -7.5q55 0 93.5 -38.5t38.5 -92.5q0 -55 -38.5 -93.5t-93.5 -38.5t-93.5 38.5t-38.5 93.5q0 13 14 13q13 0 13 -13q0 -44 31 -74.5t74 -30.5t74 30.5t31 74.5t-31 74.5t-74 30.5q-21 0 -36 14.5t-15 36.5q0 12 7 23l-16 2
q-62 7 -104.5 56t-42.5 112q0 70 50.5 120t119.5 50h75q69 0 119 -50t50 -120t-49 -119q-30 -30 -65 -40t-87 -10zM245 396h-75q-58 0 -100.5 -42t-42.5 -101q0 -58 42.5 -100t100.5 -42h75q58 0 100.5 41.5t42.5 100.5t-42.5 101t-100.5 42z" />
    <glyph glyph-name="h" unicode="h" horiz-adv-x="490" 
d="M377 256v-243q0 -13 -14 -13q-13 0 -13 13v241q0 58 -43 101t-101 43h-35q-58 0 -100 -41.5t-44 -99.5v-244q0 -13 -14 -13q-13 0 -13 13v533q0 13 13 13q14 0 14 -13v-195l23 24q45 48 121 50h35q69 0 119 -50t52 -119z" />
    <glyph glyph-name="i" unicode="i" horiz-adv-x="162" 
d="M4 13v391q0 14 14 14q13 0 13 -14v-391q0 -13 -13 -13q-14 0 -14 13zM18 536q8 0 13 -5t5 -13t-5 -13t-13 -5t-13 5t-5 13t5 13t13 5z" />
    <glyph glyph-name="j" unicode="j" horiz-adv-x="204" 
d="M46 25v381q0 13 13 13q14 0 14 -13v-431q0 -69 -50.5 -119t-118.5 -50h-38q-13 0 -13 13q0 14 13 14h38q58 0 100 42t42 100v50zM59 536q7 0 12.5 -5t5.5 -13q0 -17 -18 -17q-7 0 -12 5t-5 12t5 12.5t12 5.5z" />
    <glyph glyph-name="k" unicode="k" horiz-adv-x="443" 
d="M0 13v533q0 13 13 13q14 0 14 -13v-324h135q59 0 101.5 42.5t42.5 101.5v45q0 14 14 14q13 0 13 -14v-45q0 -93 -79 -144l-17 -11l18 -10q41 -23 64.5 -63.5t23.5 -86.5v-38q0 -13 -13 -13q-14 0 -14 13v38q0 59 -42 101.5t-102 42.5h-145v-182q0 -13 -14 -13
q-13 0 -13 13z" />
    <glyph glyph-name="l" unicode="l" horiz-adv-x="160" 
d="M0 13v533q0 13 13 13q14 0 14 -13v-533q0 -13 -14 -13q-13 0 -13 13z" />
    <glyph glyph-name="m" unicode="m" horiz-adv-x="825" 
d="M737 251v-237q0 -14 -14 -14q-5 0 -9.5 4t-4.5 10v236q0 60 -43.5 103t-101.5 43h-36q-59 0 -101.5 -42.5t-44.5 -100.5v-239q0 -14 -14 -14q-13 0 -13 14v236q0 60 -43.5 103t-102.5 43h-36q-58 0 -101.5 -42.5t-44.5 -100.5v-239q0 -14 -13 -14q-14 0 -14 14v238
q2 70 52.5 120.5t120.5 50.5h36q45 0 85 -22.5t63 -61.5l11 -19l11 19q55 84 149 84h36q70 0 121 -50.5t52 -120.5v-1z" />
    <glyph glyph-name="n" unicode="n" horiz-adv-x="531" 
d="M423 251v-237q0 -14 -14 -14q-13 0 -13 14v236q0 60 -43.5 103t-102.5 43h-77q-58 0 -101 -42.5t-45 -100.5v-239q0 -14 -13 -14q-14 0 -14 14v238q2 70 52.5 120.5t120.5 50.5h77q70 0 121.5 -51t51.5 -120v-1z" />
    <glyph glyph-name="o" unicode="o" 
d="M173 423h77q70 0 121.5 -51.5t51.5 -121.5v-77q0 -71 -51.5 -122t-121.5 -51h-77q-71 0 -122 51t-51 122v77q0 70 51 121.5t122 51.5zM250 396h-77q-58 0 -102 -43t-44 -103v-77q0 -59 43.5 -102.5t102.5 -43.5h77q59 0 102.5 43.5t43.5 102.5v77q0 60 -43.5 103
t-102.5 43z" />
    <glyph glyph-name="p" unicode="p" 
d="M0 -189v442q0 69 50.5 119.5t119.5 50.5h75q69 0 119.5 -50.5t50.5 -119.5v-83q0 -69 -50.5 -119.5t-119.5 -50.5h-75q-70 0 -120 50l-23 23v-262q0 -13 -14 -13q-13 0 -13 13zM27 195v-28q0 -57 43 -98.5t100 -41.5h75q59 0 101 42.5t42 100.5v83q0 59 -42 101t-101 42
h-75q-58 0 -100.5 -42t-42.5 -101v-58z" />
    <glyph glyph-name="q" unicode="q" horiz-adv-x="529" 
d="M415 253v-442q0 -13 -13 -13q-14 0 -14 13v262l-23 -23q-50 -50 -120 -50h-75q-69 0 -119.5 50.5t-50.5 119.5v83q0 69 50.5 119.5t119.5 50.5h75q69 0 119.5 -50.5t50.5 -119.5zM388 167v28v58q0 59 -42 101t-101 42h-75q-58 0 -100.5 -42t-42.5 -101v-83
q0 -58 42.5 -100.5t100.5 -42.5h75q57 0 100 41.5t43 98.5z" />
    <glyph glyph-name="r" unicode="r" horiz-adv-x="454" 
d="M0 251v1q2 70 52.5 120.5t120.5 50.5h54q73 0 122 -51q4 -3 4 -9q0 -14 -13 -14q-6 0 -10 4q-45 43 -103 43h-54q-58 0 -101.5 -42.5t-44.5 -100.5v-239q0 -14 -13 -14q-14 0 -14 14v237z" />
    <glyph glyph-name="s" unicode="s" horiz-adv-x="485" 
d="M371 319q0 -13 -14 -13q-13 0 -13 13v9q0 20 -17 41l-4 4q-22 22 -53 22h-163q-31 0 -53 -22t-22 -53q0 -35 26 -56t65 -27.5t84.5 -14t84.5 -16.5t65 -35t26 -68t-30 -72.5t-73 -30.5h-178q-39 0 -70.5 28t-31.5 64q0 26 14 26t14 -14v-11q0 -26 23.5 -45.5t50.5 -19.5
h178q31 0 53 22t22 53q0 66 -94 84q-16 3 -49 7.5t-57 7.5t-54.5 12t-50 21t-33 34t-13.5 51q0 43 30.5 73t72.5 30h163q42 0 72 -30l3 -3q27 -29 27 -61q0 -1 -0.5 -4.5t-0.5 -5.5z" />
    <glyph glyph-name="t" unicode="t" horiz-adv-x="333" 
d="M27 221v-50q0 -59 42.5 -101.5t101.5 -42.5h38q13 0 13 -14q0 -13 -13 -13h-38q-71 0 -121 50t-50 121v375q0 13 13 13q14 0 14 -13v-122h172q14 0 14 -13q0 -14 -14 -14h-172v-176z" />
    <glyph glyph-name="u" unicode="u" horiz-adv-x="469" 
d="M0 172v237q0 14 14 14q13 0 13 -14v-238q1 -60 44.5 -102t101.5 -42h36q59 0 102.5 43.5t43.5 102.5v236q0 14 13 14q14 0 14 -14v-238q-2 -70 -52.5 -120.5t-120.5 -50.5h-36q-70 0 -120.5 50.5t-52.5 120.5v1z" />
    <glyph glyph-name="v" unicode="v" horiz-adv-x="510" 
d="M119 50l-149 356q-1 1 -1 5q0 12 13 12q8 0 11 -7l149 -357q15 -34 52 -34q36 0 52 34l149 357q2 7 10 7q13 0 13 -12q0 -4 -1 -5l-149 -356q-20 -50 -74 -50q-53 0 -75 50z" />
    <glyph glyph-name="w" unicode="w" horiz-adv-x="833" 
d="M0 172v237q0 14 14 14q13 0 13 -14v-238q1 -60 44.5 -102t101.5 -42h36q59 0 102.5 43.5t43.5 102.5v236q0 14 13 14q14 0 14 -14v-239q2 -58 44.5 -100.5t101.5 -42.5h36q59 0 102 43t43 103v236q0 6 4.5 10t9.5 4q14 0 14 -14v-238q-1 -70 -52 -120.5t-121 -50.5h-36
q-94 0 -149 84l-11 19l-11 -19q-23 -39 -63 -61.5t-85 -22.5h-36q-70 0 -120.5 50.5t-52.5 120.5v1z" />
    <glyph glyph-name="x" unicode="x" horiz-adv-x="534" 
d="M444 52v-38q0 -14 -14 -14t-14 14v38q0 59 -43 102.5t-103 43.5h-97q-59 0 -102.5 -43t-43.5 -103v-38q0 -14 -13 -14q-14 0 -14 14v38q0 46 24 88t65 64l19 10l-18 11q-80 56 -80 146v38q0 14 14 14q5 0 9.5 -4t4.5 -10v-38q0 -60 43 -103t103 -43h76q60 0 103 43.5
t43 102.5v38q0 14 14 14q13 0 13 -14v-38q0 -44 -21.5 -83t-58.5 -63l-17 -11l18 -10q41 -23 65.5 -64.5t24.5 -87.5z" />
    <glyph glyph-name="y" unicode="y" horiz-adv-x="464" 
d="M340 410v-434q0 -69 -50.5 -119.5t-119.5 -50.5h-38q-13 0 -13 13q0 14 13 14h38q58 0 100.5 42.5t42.5 100.5v180l-23 -23q-50 -50 -120 -50q-69 0 -119.5 50.5t-50.5 119.5v157q0 13 13 13q14 0 14 -13v-157q0 -59 42.5 -101t100.5 -42t100.5 42t42.5 101v158l1 1v2
l1 2l1 1l1 2l2 2l2 1l2 1h2h2h2h2l1 -1l2 -1l1 -1l1 -1l1 -1l1 -2l1 -1l1 -1v-2v-2z" />
    <glyph glyph-name="z" unicode="z" horiz-adv-x="485" 
d="M362 346h-2q0 2 0.5 4t0.5 4q0 19 -15 33t-33 14h-287q-12 0 -12 12t12 12h287q29 0 50.5 -21t21.5 -52q0 -13 -4 -24l-1 -3q-9 -22 -31 -35l-296 -174q-24 -14 -24 -42q0 -20 15 -34t34 -14h298q12 0 12 -12t-12 -12h-298q-31 0 -52 21.5t-21 52.5q0 40 36 61l296 174
q14 8 20 23z" />
    <glyph glyph-name="braceleft" unicode="{" horiz-adv-x="365" 
d="M224 559h1q13 0 13 -13t-14 -13q-43 0 -74 -31l-9 -9l1 -1q-23 -28 -23 -65v-97q0 -52 -36 -90l-3 -3q-8 -9 -19 -16l-14 -10l14 -10q7 -5 19 -15l3 -4q36 -38 36 -90v-97q0 -37 23 -65l-1 -1l9 -9q29 -31 74 -31q14 0 14 -13t-13 -13h-1q-54 0 -93 39l-3 3
q-36 38 -36 90v97q0 37 -23 65l1 1l-9 9q-31 31 -75 31q-13 0 -13 13t13 13q44 0 75 31l9 9l-1 1q23 28 23 65v97q0 52 36 90l3 4q40 38 93 38z" />
    <glyph glyph-name="bar" unicode="|" horiz-adv-x="168" 
d="M26 -124q0 -13 -13 -13t-13 13v671q0 13 13 13t13 -13v-671z" />
    <glyph glyph-name="braceright" unicode="}" horiz-adv-x="384" 
d="M5 559h1q53 0 93 -38l3 -4q36 -38 36 -90v-97q0 -37 23 -65l-1 -1l9 -9q31 -31 75 -31q13 0 13 -13t-13 -13q-44 0 -75 -31l-9 -9l1 -1q-23 -28 -23 -65v-97q0 -52 -36 -90l-3 -3q-39 -39 -93 -39h-1q-13 0 -13 13t14 13q45 0 74 31l9 9l-1 1q23 28 23 65v97q0 52 36 90
l3 4q12 10 19 15l14 10l-14 10q-11 7 -19 16l-3 3q-36 38 -36 90v97q0 37 -23 65l1 1l-9 9q-31 31 -74 31q-14 0 -14 13t13 13z" />
    <glyph glyph-name="asciitilde" unicode="~" horiz-adv-x="416" 
d="M323 500q-30 -13 -66 -13q-23 0 -66 14t-65 14q-27 0 -54 -11h-1q-2 -1 -5 -1q-14 0 -14 14t25 20t50 6q22 0 65 -14t66 -14q10 0 30.5 6t29.5 6q14 0 14 -14q0 -11 -9 -13z" />
    <glyph glyph-name="exclamdown" unicode="&#xa1;" horiz-adv-x="171" 
d="M34 14q0 -14 -14 -14q-13 0 -13 14v417q0 14 13 14q14 0 14 -14v-417zM20 520q-8 0 -14 6t-6 14t6 14t14 6t14.5 -6t6.5 -14t-6.5 -14t-14.5 -6z" />
    <glyph glyph-name="cent" unicode="&#xa2;" horiz-adv-x="438" 
d="M318 30h12q6 0 10 -4.5t4 -9.5q0 -13 -14 -13h-108v-44q0 -13 -13 -13q-5 0 -9.5 4t-4.5 9v44h-24q-70 0 -120.5 50.5t-50.5 120.5v79q0 70 50.5 120.5t120.5 50.5h24v55q0 6 4.5 10t9.5 4q13 0 13 -14v-55h108q14 0 14 -13q0 -14 -14 -14h-108v-367h96zM195 30v367h-24
q-59 0 -101.5 -42.5t-42.5 -101.5v-79q0 -60 42.5 -102t101.5 -42h24z" />
    <glyph glyph-name="sterling" unicode="&#xa3;" horiz-adv-x="510" 
d="M182 532v-1q-39 -5 -66 -35t-27 -70v-133h122q14 0 14 -14q0 -13 -14 -13h-122v-239h309q13 0 13 -14q0 -13 -13 -13h-336v266h-70q-13 0 -13 13q0 14 13 14h70v133q0 54 37 92.5t90 40.5h6q13 0 13 -13q0 -14 -13 -14h-13z" />
    <glyph glyph-name="currency" unicode="&#xa4;" horiz-adv-x="407" 
d="M160 361q42 0 78 -25l8 -6l51 51q4 4 9 4q14 0 14 -15q0 -6 -4 -9l-50 -50l6 -9q24 -34 24 -78q0 -42 -24 -77l-6 -9l50 -50q4 -4 4 -10q0 -14 -14 -14q-6 0 -9 4l-51 50l-8 -6q-34 -24 -78 -24q-42 0 -77 24l-9 6l-50 -50q-4 -4 -11 -4q-13 0 -13 14q0 6 4 10l50 50
l-6 9q-24 34 -24 77q0 44 24 78l6 9l-50 50q-4 3 -4 9q0 15 13 15q5 0 11 -4l50 -51l9 6q36 25 77 25zM239 303q-32 32 -79 32q-46 0 -78.5 -32.5t-32.5 -78.5q0 -45 33 -78t78 -33q46 0 78.5 33t32.5 78q0 47 -32 79z" />
    <glyph glyph-name="yen" unicode="&#xa5;" horiz-adv-x="603" 
d="M144 173h-13q-13 0 -13 13q0 14 13 14h97v58l-12 1q-91 7 -153.5 76t-62.5 158v53q0 13 13 13q14 0 14 -13v-53q0 -85 61.5 -146.5t146.5 -61.5h12q85 0 146.5 61.5t61.5 146.5v53q0 13 14 13q13 0 13 -13v-53q0 -89 -62.5 -158t-153.5 -76l-12 -1v-58h97q13 0 13 -14
q0 -13 -13 -13h-97v-73h97q13 0 13 -13t-13 -13l-13 -1h-84v-60q0 -13 -13 -13t-13 13v60h-84l-13 1q-13 0 -13 13t13 13h97v73h-84z" />
    <glyph glyph-name="brokenbar" unicode="&#xa6;" horiz-adv-x="165" 
d="M26 276q0 -14 -13 -14t-13 14v270q0 14 13 14t13 -14v-270zM26 -124q0 -13 -13 -13t-13 13v271q0 13 13 13t13 -13v-271z" />
    <glyph glyph-name="section" unicode="&#xa7;" horiz-adv-x="608" 
d="M0 38v1q0 13 13 13q14 0 14 -13q0 -44 31 -75l9 -9v1q29 -23 66 -23h227q36 0 65 23l1 -1l8 9q31 31 31 75q0 30 -14.5 53t-32.5 35.5t-50 21.5t-50 12t-50 7l-9 2q-78 10 -125.5 39.5t-57.5 90.5l-1 7l-5 3q-32 16 -51 48t-19 68q0 55 39 94l3 3q39 36 91 36h227
q52 0 90 -36l3 -3q39 -39 39 -93v-1q0 -13 -13 -13q-14 0 -14 13q0 44 -31 75l-8 9l-1 -1q-29 23 -65 23h-227q-37 0 -66 -23v1l-9 -9q-31 -31 -31 -75q0 -35 16.5 -59.5t46 -37t56.5 -19t62 -11.5q11 -1 16 -2l9 -1q78 -12 127 -41.5t56 -89.5l1 -6l6 -3q69 -42 69 -117
q0 -55 -39 -94l-3 -3q-38 -36 -90 -36h-227q-52 0 -91 36l-3 3q-39 39 -39 93zM128 288l-27 7l12 -25q18 -37 58.5 -54t107 -25.5t86.5 -13.5l27 -7l-13 25q-19 36 -59 53.5t-107.5 26t-84.5 13.5z" />
    <glyph glyph-name="dieresis" unicode="&#xa8;" horiz-adv-x="389" 
d="M265 536q12 0 20.5 -8.5t8.5 -20.5t-8.5 -20.5t-20.5 -8.5t-20.5 8.5t-8.5 20.5t8.5 20.5t20.5 8.5zM119 536q12 0 20.5 -8.5t8.5 -20.5t-8.5 -20.5t-20.5 -8.5t-20.5 8.5t-8.5 20.5t8.5 20.5t20.5 8.5z" />
    <glyph glyph-name="copyright" unicode="&#xa9;" horiz-adv-x="402" 
d="M85 559h130q35 0 60 -25t25 -60v-130q0 -35 -25 -60t-60 -25h-130q-35 0 -60 25t-25 60v130q0 35 24.5 60t60.5 25zM215 537h-130q-27 0 -45 -18.5t-18 -44.5v-130q0 -25 18.5 -43.5t44.5 -18.5h130q25 0 44 18.5t19 43.5v130q0 26 -19 44.5t-44 18.5zM138 497h57
q12 0 12 -11t-12 -11h-57q-21 0 -36.5 -15.5t-15.5 -37.5v-25q0 -22 15.5 -37.5t36.5 -15.5h57q12 0 12 -11q0 -12 -12 -12h-57q-31 0 -53 22v1q-22 22 -22 53v25q0 31 22 53t53 22z" />
    <glyph glyph-name="ordfeminine" unicode="&#xaa;" horiz-adv-x="403" 
d="M51 557h129q52 0 90 -37.5t38 -90.5v-54q0 -52 -38 -90t-90 -38h-79q-42 0 -71.5 29.5t-29.5 71.5q0 41 29.5 70.5t71.5 29.5h178l-12 25q-12 24 -36 38.5t-51 15.5h-125q-16 0 -16 15q0 9 9 14zM149 278h31q40 0 68.5 29t28.5 68v43h-176q-29 0 -49.5 -20.5t-20.5 -49.5
t20.5 -49.5t49.5 -20.5h48z" />
    <glyph glyph-name="guillemotleft" unicode="&#xab;" horiz-adv-x="393" 
d="M134 416l-115 -135l115 -135q9 -10 -1 -18q-9 -8 -18 1l-108 128q-10 10 -10 24t10 24l108 128q9 9 18 1q10 -8 1 -18zM259 416l-115 -135l115 -135q9 -10 -1 -18q-9 -8 -18 1l-109 128q-9 11 -9 24t9 24l109 128q10 9 18 1q10 -8 1 -18z" />
    <glyph glyph-name="logicalnot" unicode="&#xac;" horiz-adv-x="635" 
d="M520 401v-131q0 -14 -14 -14q-13 0 -13 14v118h-480q-13 0 -13 13q0 14 13 14h493q14 0 14 -14z" />
    <glyph glyph-name="uni00AD" unicode="&#xad;" horiz-adv-x="511" 
d="M14 211q-14 0 -14 13q0 14 14 14h327q14 0 14 -14q0 -13 -14 -13h-327z" />
    <glyph glyph-name="registered" unicode="&#xae;" horiz-adv-x="402" 
d="M85 559h130q35 0 60 -25t25 -60v-130q0 -35 -25 -60t-60 -25h-130q-35 0 -60 25t-25 60v130q0 35 24.5 60t60.5 25zM215 537h-130q-27 0 -45 -18.5t-18 -44.5v-130q0 -25 18.5 -43.5t44.5 -18.5h130q25 0 44 18.5t19 43.5v130q0 26 -19 44.5t-44 18.5zM82 484l2 2
q11 11 28 11h56q25 0 42.5 -17.5t17.5 -41.5q0 -36 -34 -54l-10 -4l41 -42q1 -2 1 -6q0 -11 -11 -11q-3 0 -5 2l-57 56h-58v-46q0 -12 -12 -12q-8 0 -8 5l-3 3v128q0 14 9 26zM99 469q-4 -4 -4 -12v-55h74q15 0 25.5 10.5t10.5 25.5t-11 26t-26 11h-56q-7 0 -12 -5z" />
    <glyph glyph-name="degree" unicode="&#xb0;" horiz-adv-x="317" 
d="M99 559q40 0 69.5 -29.5t29.5 -69.5t-29.5 -69.5t-69.5 -29.5q-42 0 -70.5 29.5t-28.5 69.5t29 69.5t70 29.5zM150 511q-21 21 -51 21t-51.5 -21.5t-21.5 -50.5t21.5 -50.5t51.5 -21.5t51 21t21 51q0 32 -21 51z" />
    <glyph glyph-name="plusminus" unicode="&#xb1;" horiz-adv-x="570" 
d="M13 0q-13 0 -13 13q0 14 13 14h417q14 0 14 -14q0 -13 -14 -13h-417zM235 324v-195q0 -14 -13 -14q-14 0 -14 14v195h-195q-13 0 -13 13q0 5 4 9.5t9 4.5h195v195q0 13 14 13q13 0 13 -13v-195h195q6 0 10 -4.5t4 -9.5q0 -13 -14 -13h-195z" />
    <glyph glyph-name="twosuperior" unicode="&#xb2;" horiz-adv-x="389" 
d="M265 245h-252q-13 0 -13 14v64q0 47 42 69q20 10 78 17t96.5 22t38.5 50q0 20 -15.5 35.5t-35.5 15.5h-120q-25 0 -36 -16.5t-15.5 -32.5t-13.5 -16q-5 0 -9 4.5t-4 9.5q0 31 23 54.5t55 23.5h120q31 0 54.5 -23t23.5 -55q0 -21 -12 -40.5t-30 -28.5q-21 -11 -78.5 -17.5
t-96 -21t-38.5 -50.5v-51h238q14 0 14 -13q0 -14 -14 -14z" />
    <glyph glyph-name="threesuperior" unicode="&#xb3;" horiz-adv-x="363" 
d="M208 453l-8 -11l11 -8q21 -11 33.5 -35.5t12.5 -49.5q0 -43 -31 -73.5t-72 -30.5h-141q-13 0 -13 14q0 13 13 13h141q30 0 53 22.5t23 54.5q0 30 -22 53t-53 23h-142q-13 0 -13 13q0 14 13 14h141q16 0 28 12t12 28t-11.5 28t-28.5 12h-141q-13 0 -13 14q0 13 13 13h141
q26 0 46.5 -20t20.5 -47q0 -21 -13 -39z" />
    <glyph glyph-name="acute" unicode="&#xb4;" horiz-adv-x="431" 
d="M256 583l-55 -96q-9 -14 -22 -6q-14 7 -6 21q2 5 56 97q8 13 22 6q14 -10 5 -22z" />
    <glyph glyph-name="mu" unicode="&#xb5;" horiz-adv-x="499" 
d="M0 13v391q0 13 13 13q14 0 14 -13v-236q2 -59 44 -100t100 -41h35q58 0 101 42.5t43 101.5v233q0 13 13 13q14 0 14 -13v-533q0 -13 -14 -13q-13 0 -13 13v203l-24 -24q-50 -50 -120 -50h-35q-73 0 -121 50l-23 24v-61q0 -13 -14 -13q-13 0 -13 13z" />
    <glyph glyph-name="mu" unicode="&#x3bc;" horiz-adv-x="499" 
d="M0 13v391q0 13 13 13q14 0 14 -13v-236q2 -59 44 -100t100 -41h35q58 0 101 42.5t43 101.5v233q0 13 13 13q14 0 14 -13v-533q0 -13 -14 -13q-13 0 -13 13v203l-24 -24q-50 -50 -120 -50h-35q-73 0 -121 50l-23 24v-61q0 -13 -14 -13q-13 0 -13 13z" />
    <glyph glyph-name="paragraph" unicode="&#xb6;" horiz-adv-x="576" 
d="M218 -73v-13q0 -13 -14 -13q-13 0 -13 13v288h-12q-73 0 -126 52.5t-53 126.5t53 126.5t126 52.5h260q13 0 13 -13q0 -14 -13 -14h-84v-619q0 -13 -13 -13t-13 13v619h-111v-606zM179 229h12v304h-12q-63 0 -108 -45t-45 -107t45 -107t108 -45z" />
    <glyph glyph-name="periodcentered" unicode="&#xb7;" horiz-adv-x="207" 
d="M27 250q11 0 19 -8t8 -19t-8 -19t-19 -8t-19 8t-8 19t8 19t19 8z" />
    <glyph glyph-name="cedilla" unicode="&#xb8;" horiz-adv-x="222" 
d="M11 27h6q34 -1 57.5 -27t23.5 -60t-23.5 -59.5t-57.5 -26.5h-6q-11 0 -11 11t11 11h12v2q22 3 37 21t15 41q0 22 -14.5 40t-37.5 23l-12 1q-11 0 -11 11q0 12 11 12z" />
    <glyph glyph-name="onesuperior" unicode="&#xb9;" horiz-adv-x="203" 
d="M48 532h-35q-5 0 -9 4.5t-4 9.5q0 13 21 13h12h8h12q21 0 21 -13v-287q0 -13 -13 -13t-13 13v273z" />
    <glyph glyph-name="ordmasculine" unicode="&#xba;" horiz-adv-x="400" 
d="M128 557h54q53 0 90.5 -37.5t37.5 -90.5v-54q0 -53 -38 -90.5t-90 -37.5h-54q-52 0 -90 38t-38 90v54q0 52 37.5 90t90.5 38zM182 527h-54q-40 0 -68.5 -29t-28.5 -69v-54q0 -41 28.5 -69t68.5 -28h54q40 0 69 29t29 68v54q0 40 -29 69t-69 29z" />
    <glyph glyph-name="guillemotright" unicode="&#xbb;" horiz-adv-x="390" 
d="M242 281l-115 135q-9 10 1 18q8 8 18 -1l108 -128q10 -10 10 -24t-10 -24l-108 -128q-9 -9 -18 -1q-10 8 -1 18zM117 281l-115 135q-9 10 1 18q9 8 18 -1l109 -128q9 -11 9 -24t-9 -24l-109 -128q-9 -9 -18 -1q-10 8 -1 18z" />
    <glyph glyph-name="onequarter" unicode="&#xbc;" horiz-adv-x="611" 
d="M24 5q-4 -5 -11 -5q-13 0 -13 13q0 5 3 8q97 121 361 440q4 5 26 34t37.5 46.5t22.5 17.5q13 0 13 -13q0 -4 -3 -9q-73 -88 -218.5 -265.5t-217.5 -266.5zM461 103h-147q-14 0 -24 10.5t-10 23.5q0 9 5 17l82 142q3 6 10 6q12 0 12 -12q0 -4 -1 -6l-91 -157h164v132
q0 13 13 13t13 -13v-246q0 -13 -13 -13t-13 13v90zM57 533h-34q-12 0 -12 13t20 13h12h7h12q20 0 20 -13v-276q0 -13 -13 -13q-12 0 -12 13v263z" />
    <glyph glyph-name="onehalf" unicode="&#xbd;" horiz-adv-x="656" 
d="M24 5q-4 -5 -11 -5q-13 0 -13 13q0 5 3 8q97 121 361 440q4 5 26 34t37.5 46.5t22.5 17.5q13 0 13 -13q0 -4 -3 -9q-73 -88 -218.5 -265.5t-217.5 -266.5zM529 0h-207q-13 0 -13 13v62q0 65 93 86q3 1 24.5 4.5t31 6.5t24.5 10t22 18t7 27q0 20 -14.5 34.5t-34.5 14.5
h-72q-18 0 -29.5 -9.5t-14.5 -21.5t-7.5 -21.5t-11.5 -9.5q-12 0 -12 13q0 31 22 53t53 22h72q31 0 53 -22t22 -53q0 -37 -27 -57.5t-64 -25.5q-74 -12 -96 -34q-15 -14 -15 -35v-49h194q13 0 13 -13t-13 -13zM57 533h-34q-12 0 -12 13t20 13h12h7h12q20 0 20 -13v-276
q0 -13 -13 -13q-12 0 -12 13v263z" />
    <glyph glyph-name="threequarters" unicode="&#xbe;" horiz-adv-x="632" 
d="M51 5q-4 -5 -11 -5q-13 0 -13 13q0 5 3 8q68 85 194.5 238t166.5 202q4 5 15 19.5t20.5 26.5t20 24.5t18.5 20t12 7.5q13 0 13 -14q0 -6 -2 -8q-172 -209 -437 -532zM164 456l-7 -10l11 -7q44 -36 44 -83q0 -40 -29.5 -69.5t-70.5 -29.5h-99q-13 0 -13 13q0 12 13 12h99
q30 0 52 22.5t22 51.5t-22 51.5t-51 22.5h-100q-13 0 -13 13t13 13h100q15 0 26.5 11t11.5 27t-11.5 27.5t-27.5 11.5h-99q-13 0 -13 13t13 13h99q26 0 45.5 -19.5t19.5 -45.5q0 -20 -13 -38zM488 103h-147q-13 0 -23.5 10.5t-10.5 23.5q0 9 5 17l82 142q3 6 11 6
q11 0 11 -12q0 -4 -1 -6l-90 -157h163v132q0 13 13 13t13 -13v-246q0 -13 -13 -13t-13 13v90z" />
    <glyph glyph-name="questiondown" unicode="&#xbf;" horiz-adv-x="539" 
d="M19 36l-3 4q-40 40 -40 94q0 30 9.5 53.5t28.5 39.5t38 27t48.5 18.5t49 11t49.5 7.5l11 1v139q0 13 13 13q6 0 9.5 -4t4.5 -12.5t1 -15.5t-0.5 -17.5t-0.5 -14.5v-13v-23v-13q0 -4 0.5 -14.5t0.5 -17.5t-1 -15t-4.5 -12.5t-9.5 -4.5h-1q-38 -5 -62 -9t-57 -14t-52.5 -23
t-33.5 -35.5t-14 -51.5q0 -42 32 -76l9 -8q29 -23 66 -23h180q38 0 66 23l10 8q31 33 31 76q0 13 14 13q13 0 13 -13v-1q0 -56 -39 -93l-3 -4q-39 -36 -92 -36h-180q-52 0 -91 36zM223 519q-8 0 -14 6.5t-6 14.5t6 14t14 6t14.5 -6t6.5 -14t-6.5 -14.5t-14.5 -6.5z" />
    <glyph glyph-name="Agrave" unicode="&#xc0;" horiz-adv-x="655" 
d="M339 544l1 -1h1q21 -15 32 -40l203 -486v-4q0 -13 -12 -13q-9 0 -10 7l-61 146h-409l-61 -146q-3 -7 -11 -7q-12 0 -12 12q0 3 1 5l203 486q11 27 34 41l2 2q22 13 48 13q28 0 51 -15zM263 530v2l-12 -8q-18 -13 -25 -30l-132 -317h389l-133 317q-7 19 -23 29l-1 1
q-17 11 -38 11q-12 0 -25 -5zM301 627l-55 96q-9 12 5 22q14 7 22 -6q54 -92 56 -97q8 -14 -6 -21q-13 -8 -22 6z" />
    <glyph glyph-name="Aacute" unicode="&#xc1;" horiz-adv-x="655" 
d="M339 544l1 -1h1q21 -15 32 -40l203 -486v-4q0 -13 -12 -13q-9 0 -10 7l-61 146h-409l-61 -146q-3 -7 -11 -7q-12 0 -12 12q0 3 1 5l203 486q11 27 34 41l2 2q22 13 48 13q28 0 51 -15zM263 530v2l-12 -8q-18 -13 -25 -30l-132 -317h389l-133 317q-7 19 -23 29l-1 1
q-17 11 -38 11q-12 0 -25 -5zM333 723l-55 -96q-9 -14 -22 -6q-14 7 -6 21q2 5 56 97q8 13 22 6q14 -10 5 -22z" />
    <glyph glyph-name="Acircumflex" unicode="&#xc2;" horiz-adv-x="655" 
d="M339 544l1 -1h1q21 -15 32 -40l203 -486v-4q0 -13 -12 -13q-9 0 -10 7l-61 146h-409l-61 -146q-3 -7 -11 -7q-12 0 -12 12q0 3 1 5l203 486q11 27 34 41l2 2q22 13 48 13q28 0 51 -15zM263 530v2l-12 -8q-18 -13 -25 -30l-132 -317h389l-133 317q-7 19 -23 29l-1 1
q-17 11 -38 11q-12 0 -25 -5zM289 698l-100 -85q-9 -9 -18 1t1 18l92 79q10 9 25 9t25 -9l92 -79q10 -8 1 -18q-3 -4 -8.5 -4.5t-9.5 3.5z" />
    <glyph glyph-name="Atilde" unicode="&#xc3;" horiz-adv-x="655" 
d="M339 544l1 -1h1q21 -15 32 -40l203 -486v-4q0 -13 -12 -13q-9 0 -10 7l-61 146h-409l-61 -146q-3 -7 -11 -7q-12 0 -12 12q0 3 1 5l203 486q11 27 34 41l2 2q22 13 48 13q28 0 51 -15zM263 530v2l-12 -8q-18 -13 -25 -30l-132 -317h389l-133 317q-7 19 -23 29l-1 1
q-17 11 -38 11q-12 0 -25 -5zM419 650q-30 -13 -66 -13q-23 0 -66 14t-65 14q-27 0 -54 -11h-1q-2 -1 -5 -1q-14 0 -14 14t25 20t50 6q22 0 65 -14t66 -14q10 0 30.5 6t29.5 6q14 0 14 -14q0 -11 -9 -13z" />
    <glyph glyph-name="Adieresis" unicode="&#xc4;" horiz-adv-x="655" 
d="M339 544l1 -1h1q21 -15 32 -40l203 -486v-4q0 -13 -12 -13q-9 0 -10 7l-61 146h-409l-61 -146q-3 -7 -11 -7q-12 0 -12 12q0 3 1 5l203 486q11 27 34 41l2 2q22 13 48 13q28 0 51 -15zM263 530v2l-12 -8q-18 -13 -25 -30l-132 -317h389l-133 317q-7 19 -23 29l-1 1
q-17 11 -38 11q-12 0 -25 -5zM360 686q12 0 20.5 -8.5t8.5 -20.5t-8.5 -20.5t-20.5 -8.5t-20.5 8.5t-8.5 20.5t8.5 20.5t20.5 8.5zM214 686q12 0 20.5 -8.5t8.5 -20.5t-8.5 -20.5t-20.5 -8.5t-20.5 8.5t-8.5 20.5t8.5 20.5t20.5 8.5z" />
    <glyph glyph-name="Aring" unicode="&#xc5;" horiz-adv-x="655" 
d="M285 735q40 0 69.5 -29.5t29.5 -69.5t-29.5 -69.5t-69.5 -29.5q-42 0 -70.5 29.5t-28.5 69.5t29 69.5t70 29.5zM336 687q-21 21 -51 21t-51.5 -21.5t-21.5 -50.5t21.5 -50.5t51.5 -21.5t51 21t21 51q0 32 -21 51zM339 544l1 -1h1q21 -15 32 -40l203 -486v-4
q0 -13 -12 -13q-9 0 -10 7l-61 146h-409l-61 -146q-3 -7 -11 -7q-12 0 -12 12q0 3 1 5l203 486q11 27 34 41l2 2q22 13 48 13q28 0 51 -15zM263 530v2l-12 -8q-18 -13 -25 -30l-132 -317h389l-133 317q-7 19 -23 29l-1 1q-17 11 -38 11q-12 0 -25 -5z" />
    <glyph glyph-name="AE" unicode="&#xc6;" horiz-adv-x="880" 
d="M751 3h-99q-98 0 -164 68h-1q-68 70 -68 165v30h-236l-158 -260q-5 -6 -12 -6q-13 0 -13 13q0 5 2 7l306 503q21 36 62 36q10 0 21 -3h360q13 0 13 -13t-13 -13h-317l7 -17q6 -13 6 -29v-191h232q13 0 13 -14q0 -13 -13 -13h-232v-30q0 -1 -1 -2v-2v-3q1 -82 62.5 -141
t143.5 -59h99q13 0 13 -13t-13 -13zM386 530h-1q-10 2 -14 2q-25 0 -40 -23l-132 -216h220v191q0 17 -9 29l-7 10l-2 -1q-1 1 -3.5 2.5t-3.5 2.5v1z" />
    <glyph glyph-name="Ccedilla" unicode="&#xc7;" horiz-adv-x="542" 
d="M235 559h197q14 0 14 -13q0 -14 -14 -14h-197q-85 0 -146.5 -61t-61.5 -147v-89q0 -85 61.5 -146.5t146.5 -61.5h197q14 0 14 -14q0 -13 -14 -13h-197q-97 0 -166 69.5t-69 165.5v89q0 96 69.5 165.5t165.5 69.5zM242 27h6q34 -1 57.5 -27t23.5 -60t-23.5 -59.5
t-57.5 -26.5h-6q-11 0 -11 11t11 11h12v2q22 3 37 21t15 41q0 22 -14.5 40t-37.5 23l-12 1q-11 0 -11 11q0 12 11 12z" />
    <glyph glyph-name="Egrave" unicode="&#xc8;" horiz-adv-x="542" 
d="M235 559h197q14 0 14 -13q0 -14 -14 -14h-197q-85 0 -146.5 -61t-61.5 -147v-31h370q13 0 13 -13q0 -14 -13 -14h-370v-31q0 -85 61.5 -146.5t146.5 -61.5h197q14 0 14 -14q0 -13 -14 -13h-197q-96 0 -165.5 69.5t-69.5 165.5v89q0 96 69.5 165.5t165.5 69.5zM276 627
l-55 96q-9 12 5 22q14 7 22 -6q54 -92 56 -97q8 -14 -6 -21q-13 -8 -22 6z" />
    <glyph glyph-name="Eacute" unicode="&#xc9;" horiz-adv-x="542" 
d="M235 559h197q14 0 14 -13q0 -14 -14 -14h-197q-85 0 -146.5 -61t-61.5 -147v-31h370q13 0 13 -13q0 -14 -13 -14h-370v-31q0 -85 61.5 -146.5t146.5 -61.5h197q14 0 14 -14q0 -13 -14 -13h-197q-96 0 -165.5 69.5t-69.5 165.5v89q0 96 69.5 165.5t165.5 69.5zM302 723
l-55 -96q-9 -14 -22 -6q-14 7 -6 21q2 5 56 97q8 13 22 6q14 -10 5 -22z" />
    <glyph glyph-name="Ecircumflex" unicode="&#xca;" horiz-adv-x="542" 
d="M235 559h197q14 0 14 -13q0 -14 -14 -14h-197q-85 0 -146.5 -61t-61.5 -147v-31h370q13 0 13 -13q0 -14 -13 -14h-370v-31q0 -85 61.5 -146.5t146.5 -61.5h197q14 0 14 -14q0 -13 -14 -13h-197q-96 0 -165.5 69.5t-69.5 165.5v89q0 96 69.5 165.5t165.5 69.5zM237 698
l-100 -85q-9 -9 -18 1t1 18l92 79q11 9 25 9q15 0 25 -9l92 -79q10 -8 1 -18q-3 -4 -8.5 -4.5t-9.5 3.5z" />
    <glyph glyph-name="Edieresis" unicode="&#xcb;" horiz-adv-x="542" 
d="M235 559h197q14 0 14 -13q0 -14 -14 -14h-197q-85 0 -146.5 -61t-61.5 -147v-31h370q13 0 13 -13q0 -14 -13 -14h-370v-31q0 -85 61.5 -146.5t146.5 -61.5h197q14 0 14 -14q0 -13 -14 -13h-197q-96 0 -165.5 69.5t-69.5 165.5v89q0 96 69.5 165.5t165.5 69.5zM325 686
q12 0 20.5 -8.5t8.5 -20.5t-8.5 -20.5t-20.5 -8.5t-20.5 8.5t-8.5 20.5t8.5 20.5t20.5 8.5zM179 686q12 0 20.5 -8.5t8.5 -20.5t-8.5 -20.5t-20.5 -8.5t-20.5 8.5t-8.5 20.5t8.5 20.5t20.5 8.5z" />
    <glyph glyph-name="Igrave" unicode="&#xcc;" horiz-adv-x="268" 
d="M85 546v-533q0 -13 -14 -13q-13 0 -13 13v533q0 13 13 13q14 0 14 -13zM61 627l-55 96q-9 12 5 22q14 7 22 -6q54 -92 56 -97q8 -14 -6 -21q-13 -8 -22 6z" />
    <glyph glyph-name="Iacute" unicode="&#xcd;" horiz-adv-x="191" 
d="M30 546v-533q0 -13 -14 -13q-13 0 -13 13v533q0 13 13 13q14 0 14 -13zM87 723l-55 -96q-9 -14 -22 -6q-14 7 -6 21q2 5 56 97q8 13 22 6q14 -10 5 -22z" />
    <glyph glyph-name="Icircumflex" unicode="&#xce;" horiz-adv-x="344" 
d="M135 546v-533q0 -13 -14 -13q-13 0 -13 13v533q0 13 13 13q14 0 14 -13zM123 698l-100 -85q-9 -9 -18 1t1 18l92 79q10 9 25 9t25 -9l92 -79q10 -8 1 -18q-3 -4 -8.5 -4.5t-9.5 3.5z" />
    <glyph glyph-name="Idieresis" unicode="&#xcf;" horiz-adv-x="356" 
d="M112 546v-533q0 -13 -14 -13q-13 0 -13 13v533q0 13 13 13q14 0 14 -13zM172 686q12 0 20.5 -8.5t8.5 -20.5t-8.5 -20.5t-20.5 -8.5t-20.5 8.5t-8.5 20.5t8.5 20.5t20.5 8.5zM26 686q12 0 20.5 -8.5t8.5 -20.5t-8.5 -20.5t-20.5 -8.5t-20.5 8.5t-8.5 20.5t8.5 20.5
t20.5 8.5z" />
    <glyph glyph-name="Eth" unicode="&#xd0;" horiz-adv-x="647" 
d="M110 526l3 3q33 30 77 30h139q96 0 165.5 -69.5t69.5 -165.5v-89q0 -96 -69 -165.5t-166 -69.5h-139q-44 0 -77 30l-3 3q-33 33 -33 80v153h-84q-13 0 -13 13q0 14 13 14h84v153q0 47 33 80zM138 515v1l-9 -9q-27 -27 -25 -61v-153h83q13 0 13 -14q0 -13 -13 -13h-83
v-153q0 -37 25 -61l9 -9v1q23 -17 52 -17h139q88 0 147 61h1q60 60 60 147v89q0 87 -60 147h-1q-59 61 -147 61h-139q-29 0 -52 -17z" />
    <glyph glyph-name="Ntilde" unicode="&#xd1;" horiz-adv-x="655" 
d="M24 513v-499q0 -12 -12 -12t-12 12v499q0 20 14 33t32 13q25 0 36 -18l394 -508q5 -9 16 -9q10 0 16.5 6.5t6.5 15.5v499q0 12 12 12t12 -12v-499q0 -19 -13.5 -32.5t-32.5 -13.5q-25 0 -36 18l-394 508q-7 9 -16 9q-10 0 -16.5 -6.5t-6.5 -15.5zM405 650
q-30 -13 -66 -13q-23 0 -66 14t-65 14q-27 0 -54 -11h-1q-2 -1 -5 -1q-14 0 -14 14t25 20t50 6q22 0 65 -14t66 -14q10 0 30.5 6t29.5 6q14 0 14 -14q0 -11 -9 -13z" />
    <glyph glyph-name="Ograve" unicode="&#xd2;" horiz-adv-x="687" 
d="M235 559h110q96 0 165.5 -69.5t69.5 -165.5v-89q0 -96 -70 -165.5t-165 -69.5h-110q-97 0 -166 69.5t-69 165.5v89q0 96 69.5 165.5t165.5 69.5zM27 324v-89q0 -85 61.5 -146.5t146.5 -61.5h110q85 0 146.5 61.5t61.5 146.5v89q0 85 -61.5 146.5t-146.5 61.5h-110
q-85 0 -146.5 -61t-61.5 -147zM302 627l-55 96q-9 12 5 22q14 7 22 -6q54 -92 56 -97q8 -14 -6 -21q-13 -8 -22 6z" />
    <glyph glyph-name="Oacute" unicode="&#xd3;" horiz-adv-x="687" 
d="M235 559h110q96 0 165.5 -69.5t69.5 -165.5v-89q0 -96 -70 -165.5t-165 -69.5h-110q-97 0 -166 69.5t-69 165.5v89q0 96 69.5 165.5t165.5 69.5zM27 324v-89q0 -85 61.5 -146.5t146.5 -61.5h110q85 0 146.5 61.5t61.5 146.5v89q0 85 -61.5 146.5t-146.5 61.5h-110
q-85 0 -146.5 -61t-61.5 -147zM329 723l-55 -96q-9 -14 -22 -6q-14 7 -6 21q2 5 56 97q8 13 22 6q14 -10 5 -22z" />
    <glyph glyph-name="Ocircumflex" unicode="&#xd4;" horiz-adv-x="687" 
d="M235 559h110q96 0 165.5 -69.5t69.5 -165.5v-89q0 -96 -70 -165.5t-165 -69.5h-110q-97 0 -166 69.5t-69 165.5v89q0 96 69.5 165.5t165.5 69.5zM27 324v-89q0 -85 61.5 -146.5t146.5 -61.5h110q85 0 146.5 61.5t61.5 146.5v89q0 85 -61.5 146.5t-146.5 61.5h-110
q-85 0 -146.5 -61t-61.5 -147zM291 698l-100 -85q-9 -9 -18 1t1 18l92 79q10 9 25 9t25 -9l92 -79q10 -8 1 -18q-3 -4 -8.5 -4.5t-9.5 3.5z" />
    <glyph glyph-name="Otilde" unicode="&#xd5;" horiz-adv-x="687" 
d="M235 559h110q96 0 165.5 -69.5t69.5 -165.5v-89q0 -96 -70 -165.5t-165 -69.5h-110q-97 0 -166 69.5t-69 165.5v89q0 96 69.5 165.5t165.5 69.5zM27 324v-89q0 -85 61.5 -146.5t146.5 -61.5h110q85 0 146.5 61.5t61.5 146.5v89q0 85 -61.5 146.5t-146.5 61.5h-110
q-85 0 -146.5 -61t-61.5 -147zM420 650q-30 -13 -66 -13q-23 0 -66 14t-65 14q-27 0 -54 -11h-1q-2 -1 -5 -1q-14 0 -14 14t25 20t50 6q22 0 65 -14t66 -14q10 0 30.5 6t29.5 6q14 0 14 -14q0 -11 -9 -13z" />
    <glyph glyph-name="Odieresis" unicode="&#xd6;" horiz-adv-x="687" 
d="M235 559h110q96 0 165.5 -69.5t69.5 -165.5v-89q0 -96 -70 -165.5t-165 -69.5h-110q-97 0 -166 69.5t-69 165.5v89q0 96 69.5 165.5t165.5 69.5zM27 324v-89q0 -85 61.5 -146.5t146.5 -61.5h110q85 0 146.5 61.5t61.5 146.5v89q0 85 -61.5 146.5t-146.5 61.5h-110
q-85 0 -146.5 -61t-61.5 -147zM359 686q12 0 20.5 -8.5t8.5 -20.5t-8.5 -20.5t-20.5 -8.5t-20.5 8.5t-8.5 20.5t8.5 20.5t20.5 8.5zM213 686q12 0 20.5 -8.5t8.5 -20.5t-8.5 -20.5t-20.5 -8.5t-20.5 8.5t-8.5 20.5t8.5 20.5t20.5 8.5z" />
    <glyph glyph-name="multiply" unicode="&#xd7;" horiz-adv-x="400" 
d="M150 204l-126 -125q-5 -5 -11 -5q-5 0 -9 4.5t-4 9.5q0 6 4 10l126 126l-126 126q-4 4 -4 10t4.5 10t9.5 4q6 0 10 -4l126 -126l126 126q3 4 9 4t10.5 -4.5t4.5 -9.5q0 -4 -4 -10l-126 -126l126 -126q4 -6 4 -9q0 -5 -4.5 -10t-10.5 -5t-9 5z" />
    <glyph glyph-name="Oslash" unicode="&#xd8;" horiz-adv-x="687" 
d="M235 559h110q79 0 142 -48l9 -7l25 25q3 4 9 4q5 0 9.5 -4t4.5 -9q0 -4 -4 -10l-25 -24l8 -9q57 -66 57 -153v-89q0 -97 -70 -166t-165 -69h-110q-79 0 -142 48l-9 7l-25 -25q-5 -5 -10 -5t-9 4.5t-4 9.5q0 6 4 10l24 24l-7 9q-57 66 -57 153v89q0 96 69.5 165.5
t165.5 69.5zM553 235v89q0 74 -48 133l-8 10l-394 -394l12 -8q59 -39 120 -38h110q85 0 146.5 61.5t61.5 146.5zM477 486l-12 8q-59 39 -120 38h-110q-85 0 -146.5 -61t-61.5 -147v-89q2 -84 47 -133l9 -10z" />
    <glyph glyph-name="Ugrave" unicode="&#xd9;" horiz-adv-x="615" 
d="M491 533v13q0 13 14 13q13 0 13 -13v-311q0 -96 -69.5 -165.5t-165.5 -69.5h-48q-97 0 -166 69.5t-69 165.5v311q0 13 13 13q14 0 14 -13v-311q0 -85 61.5 -146.5t146.5 -61.5h48q85 0 146.5 61.5t61.5 146.5v298zM271 627l-55 96q-9 12 5 22q14 7 22 -6q54 -92 56 -97
q8 -14 -6 -21q-13 -8 -22 6z" />
    <glyph glyph-name="Uacute" unicode="&#xda;" horiz-adv-x="615" 
d="M491 533v13q0 13 14 13q13 0 13 -13v-311q0 -96 -69.5 -165.5t-165.5 -69.5h-48q-97 0 -166 69.5t-69 165.5v311q0 13 13 13q14 0 14 -13v-311q0 -85 61.5 -146.5t146.5 -61.5h48q85 0 146.5 61.5t61.5 146.5v298zM306 723l-55 -96q-9 -14 -22 -6q-14 7 -6 21q2 5 56 97
q8 13 22 6q14 -10 5 -22z" />
    <glyph glyph-name="Ucircumflex" unicode="&#xdb;" horiz-adv-x="615" 
d="M491 533v13q0 13 14 13q13 0 13 -13v-311q0 -96 -69.5 -165.5t-165.5 -69.5h-48q-97 0 -166 69.5t-69 165.5v311q0 13 13 13q14 0 14 -13v-311q0 -85 61.5 -146.5t146.5 -61.5h48q85 0 146.5 61.5t61.5 146.5v298zM256 698l-100 -85q-8 -9 -18 1q-9 10 1 18l92 79
q11 9 25 9t25 -9l92 -79q10 -8 1 -18q-3 -4 -8.5 -4.5t-9.5 3.5z" />
    <glyph glyph-name="Udieresis" unicode="&#xdc;" horiz-adv-x="615" 
d="M491 533v13q0 13 14 13q13 0 13 -13v-311q0 -96 -69.5 -165.5t-165.5 -69.5h-48q-97 0 -166 69.5t-69 165.5v311q0 13 13 13q14 0 14 -13v-311q0 -85 61.5 -146.5t146.5 -61.5h48q85 0 146.5 61.5t61.5 146.5v298zM329 686q12 0 20.5 -8.5t8.5 -20.5t-8.5 -20.5
t-20.5 -8.5t-20.5 8.5t-8.5 20.5t8.5 20.5t20.5 8.5zM183 686q12 0 20.5 -8.5t8.5 -20.5t-8.5 -20.5t-20.5 -8.5t-20.5 8.5t-8.5 20.5t8.5 20.5t20.5 8.5z" />
    <glyph glyph-name="Yacute" unicode="&#xdd;" horiz-adv-x="573" 
d="M482 546v-152q0 -97 -69 -166v-1q-60 -60 -147 -68l-12 -1v-145q0 -13 -13 -13t-13 13v145l-12 1q-90 8 -153 76.5t-63 158.5v152q0 13 13 13q14 0 14 -13v-152q0 -85 61 -147t147 -62h12q86 0 147 62t61 147v152q0 13 14 13q13 0 13 -13zM284 723l-55 -96q-9 -14 -22 -6
q-14 7 -6 21q2 5 56 97q8 13 22 6q14 -10 5 -22z" />
    <glyph glyph-name="Thorn" unicode="&#xde;" horiz-adv-x="552" 
d="M26 452h226q73 -1 124.5 -53.5t51.5 -124.5q0 -74 -53 -126t-125 -52h-224v-182q0 -13 -13 -13t-13 13v13v706q0 13 13 13t13 -13v-181zM237 425h-211v-303h224q62 0 106.5 44.5t44.5 107.5q0 61 -44.5 106t-106.5 45h-13z" />
    <glyph glyph-name="germandbls" unicode="&#xdf;" horiz-adv-x="567" 
d="M119 4h-13q-13 0 -13 13t13 13h145q62 0 107 44.5t45 108.5q0 62 -44.5 106t-105.5 46h-227v-421q0 -13 -13 -13t-13 13v533q0 46 33 79l3 3q32 30 76 30h139q44 0 76 -30l3 -3q33 -33 33 -79t-50 -96l16 -8q45 -20 73 -65t28 -95q0 -73 -52.5 -126t-126.5 -53h-132z
M61 516l-10 -9q-23 -20 -25 -60v-86h226q36 2 60.5 26t24.5 60q0 37 -25 60l-10 9q-16 14 -51 16h-139q-29 0 -51 -16z" />
    <glyph glyph-name="agrave" unicode="&#xe0;" horiz-adv-x="530" 
d="M89 423h164q70 0 122 -51t52 -122v-77q0 -71 -52 -122t-122 -51h-111q-56 0 -95.5 39.5t-39.5 95.5t39.5 95t95.5 39h257l-4 16q-12 48 -52.5 79.5t-89.5 31.5h-177q-13 0 -13 13q0 14 13 14h13zM202 27h51q60 0 103 43.5t43 102.5v69h-257q-45 0 -76.5 -31.5
t-31.5 -75.5q0 -45 31.5 -76.5t76.5 -31.5h60zM234 487l-55 96q-9 12 5 22q14 7 22 -6q54 -92 56 -97q8 -14 -6 -21q-13 -8 -22 6z" />
    <glyph glyph-name="aacute" unicode="&#xe1;" horiz-adv-x="521" 
d="M80 423h164q70 0 122 -51t52 -122v-77q0 -71 -52 -122t-122 -51h-111q-56 0 -95.5 39.5t-39.5 95.5t39.5 95t95.5 39h257l-4 16q-12 48 -52.5 79.5t-89.5 31.5h-177q-13 0 -13 13q0 14 13 14h13zM193 27h51q60 0 103 43.5t43 102.5v69h-257q-45 0 -76.5 -31.5
t-31.5 -75.5q0 -45 31.5 -76.5t76.5 -31.5h60zM253 583l-55 -96q-9 -14 -22 -6q-14 7 -6 21q2 5 56 97q8 13 22 6q14 -10 5 -22z" />
    <glyph glyph-name="acircumflex" unicode="&#xe2;" horiz-adv-x="521" 
d="M80 423h164q70 0 122 -51t52 -122v-77q0 -71 -52 -122t-122 -51h-111q-56 0 -95.5 39.5t-39.5 95.5t39.5 95t95.5 39h257l-4 16q-12 48 -52.5 79.5t-89.5 31.5h-177q-13 0 -13 13q0 14 13 14h13zM193 27h51q60 0 103 43.5t43 102.5v69h-257q-45 0 -76.5 -31.5
t-31.5 -75.5q0 -45 31.5 -76.5t76.5 -31.5h60zM215 538l-100 -85q-9 -9 -18 1t1 18l92 79q10 9 25 9t25 -9l92 -79q10 -8 1 -18q-3 -4 -8.5 -4.5t-9.5 3.5z" />
    <glyph glyph-name="atilde" unicode="&#xe3;" horiz-adv-x="503" 
d="M62 423h164q70 0 122 -51t52 -122v-77q0 -71 -52 -122t-122 -51h-111q-56 0 -95.5 39.5t-39.5 95.5t39.5 95t95.5 39h257l-4 16q-12 48 -52.5 79.5t-89.5 31.5h-177q-13 0 -13 13q0 14 13 14h13zM175 27h51q60 0 103 43.5t43 102.5v69h-257q-45 0 -76.5 -31.5
t-31.5 -75.5q0 -45 31.5 -76.5t76.5 -31.5h60zM320 500q-30 -13 -66 -13q-23 0 -66 14t-65 14q-27 0 -54 -11h-1q-2 -1 -5 -1q-14 0 -14 14t25 20t50 6q22 0 65 -14t66 -14q10 0 30.5 6t29.5 6q14 0 14 -14q0 -11 -9 -13z" />
    <glyph glyph-name="adieresis" unicode="&#xe4;" horiz-adv-x="503" 
d="M62 423h164q70 0 122 -51t52 -122v-77q0 -71 -52 -122t-122 -51h-111q-56 0 -95.5 39.5t-39.5 95.5t39.5 95t95.5 39h257l-4 16q-12 48 -52.5 79.5t-89.5 31.5h-177q-13 0 -13 13q0 14 13 14h13zM175 27h51q60 0 103 43.5t43 102.5v69h-257q-45 0 -76.5 -31.5
t-31.5 -75.5q0 -45 31.5 -76.5t76.5 -31.5h60zM260 536q12 0 20.5 -8.5t8.5 -20.5t-8.5 -20.5t-20.5 -8.5t-20.5 8.5t-8.5 20.5t8.5 20.5t20.5 8.5zM114 536q12 0 20.5 -8.5t8.5 -20.5t-8.5 -20.5t-20.5 -8.5t-20.5 8.5t-8.5 20.5t8.5 20.5t20.5 8.5z" />
    <glyph glyph-name="aring" unicode="&#xe5;" horiz-adv-x="503" 
d="M188 649q40 0 69.5 -29.5t29.5 -69.5t-29.5 -69.5t-69.5 -29.5q-42 0 -70.5 29.5t-28.5 69.5t29 69.5t70 29.5zM239 601q-21 21 -51 21t-51.5 -21.5t-21.5 -50.5t21.5 -50.5t51.5 -21.5t51 21t21 51q0 32 -21 51zM62 423h164q70 0 122 -51t52 -122v-77q0 -71 -52 -122
t-122 -51h-111q-56 0 -95.5 39.5t-39.5 95.5t39.5 95t95.5 39h257l-4 16q-12 48 -52.5 79.5t-89.5 31.5h-177q-13 0 -13 13q0 14 13 14h13zM175 27h51q60 0 103 43.5t43 102.5v69h-257q-45 0 -76.5 -31.5t-31.5 -75.5q0 -45 31.5 -76.5t76.5 -31.5h60z" />
    <glyph glyph-name="ae" unicode="&#xe6;" horiz-adv-x="762" 
d="M82 423h91q94 0 149 -84l10 -19l11 19q55 84 149 84q70 0 121.5 -51.5t51.5 -121.5v-70q0 -10 -7 -17.5t-17 -7.5h-301l19 -41q18 -40 54 -64t79 -23h109q5 0 9.5 -4t4.5 -9q0 -6 -4.5 -10t-9.5 -4h-109q-94 0 -149 84l-11 19l-10 -19q-55 -84 -149 -84h-38
q-56 0 -95.5 39.5t-39.5 95.5t39.5 95t95.5 39h183l-4 16q-12 48 -52 79.5t-89 31.5h-104q-13 0 -13 13q0 14 13 14h13zM122 28v-1h51q59 0 102.5 43.5t43.5 102.5v69h-184q-45 0 -76.5 -31.5t-31.5 -75.5q0 -41 27.5 -71.5t67.5 -35.5zM638 182v68q0 59 -43 102.5
t-103 43.5t-103 -43.5t-43 -102.5v-68h292z" />
    <glyph glyph-name="ccedilla" unicode="&#xe7;" horiz-adv-x="438" 
d="M322 27h13q13 0 13 -13q0 -14 -13 -14h-162q-71 0 -122 51t-51 122v77q0 70 51 121.5t122 51.5h162q13 0 13 -14q0 -13 -13 -13h-162q-58 0 -102 -43t-44 -103v-77q0 -59 43.5 -102.5t102.5 -43.5h149zM180 27h6q34 -1 57.5 -27t23.5 -60t-23.5 -59.5t-57.5 -26.5h-6
q-11 0 -11 11t11 11h12v2q22 3 37 21t15 41q0 22 -14.5 40t-37.5 23l-12 1q-11 0 -11 11q0 12 11 12z" />
    <glyph glyph-name="egrave" unicode="&#xe8;" 
d="M22 155l18 -41q17 -39 54 -63t79 -24h186q13 0 13 -13q0 -14 -13 -14h-186q-74 0 -123.5 53.5t-49.5 127.5v69q0 70 51 121.5t122 51.5h77q70 0 121.5 -51.5t51.5 -121.5v-70q0 -10 -7 -17.5t-17 -7.5h-377zM396 182v68q0 59 -43.5 102.5t-102.5 43.5h-77
q-59 0 -102.5 -43t-43.5 -103v-68h369zM220 487l-55 96q-9 12 5 22q14 7 22 -6q54 -92 56 -97q8 -14 -6 -21q-13 -8 -22 6z" />
    <glyph glyph-name="eacute" unicode="&#xe9;" 
d="M22 155l18 -41q17 -39 54 -63t79 -24h186q13 0 13 -13q0 -14 -13 -14h-186q-74 0 -123.5 53.5t-49.5 127.5v69q0 70 51 121.5t122 51.5h77q70 0 121.5 -51.5t51.5 -121.5v-70q0 -10 -7 -17.5t-17 -7.5h-377zM396 182v68q0 59 -43.5 102.5t-102.5 43.5h-77
q-59 0 -102.5 -43t-43.5 -103v-68h369zM252 583l-55 -96q-9 -14 -22 -6q-14 7 -6 21q2 5 56 97q8 13 22 6q14 -10 5 -22z" />
    <glyph glyph-name="ecircumflex" unicode="&#xea;" 
d="M29 155l18 -41q17 -39 54 -63t79 -24h186q13 0 13 -13q0 -14 -13 -14h-186q-74 0 -123.5 53.5t-49.5 127.5v69q0 70 51.5 121.5t121.5 51.5h77q71 0 122 -51.5t51 -121.5v-70q0 -10 -7 -17.5t-17 -7.5h-377zM403 182v68q0 59 -43.5 102.5t-102.5 43.5h-77
q-59 0 -102.5 -43t-43.5 -103v-68h369zM223 538l-100 -85q-9 -9 -18 1t1 18l92 79q11 9 25 9q15 0 25 -9l92 -79q10 -8 1 -18q-3 -4 -8.5 -4.5t-9.5 3.5z" />
    <glyph glyph-name="edieresis" unicode="&#xeb;" 
d="M22 155l18 -41q17 -39 54 -63t79 -24h186q13 0 13 -13q0 -14 -13 -14h-186q-74 0 -123.5 53.5t-49.5 127.5v69q0 70 51 121.5t122 51.5h77q70 0 121.5 -51.5t51.5 -121.5v-70q0 -10 -7 -17.5t-17 -7.5h-377zM396 182v68q0 59 -43.5 102.5t-102.5 43.5h-77
q-59 0 -102.5 -43t-43.5 -103v-68h369zM284 536q12 0 20.5 -8.5t8.5 -20.5t-8.5 -20.5t-20.5 -8.5t-20.5 8.5t-8.5 20.5t8.5 20.5t20.5 8.5zM138 536q12 0 20.5 -8.5t8.5 -20.5t-8.5 -20.5t-20.5 -8.5t-20.5 8.5t-8.5 20.5t8.5 20.5t20.5 8.5z" />
    <glyph glyph-name="igrave" unicode="&#xec;" horiz-adv-x="259" 
d="M60 13v391q0 14 14 14q13 0 13 -14v-391q0 -13 -13 -13q-14 0 -14 13zM60 487l-55 96q-9 12 5 22q14 7 22 -6q54 -92 56 -97q8 -14 -6 -21q-13 -8 -22 6z" />
    <glyph glyph-name="iacute" unicode="&#xed;" horiz-adv-x="171" 
d="M2 13v391q0 14 14 14q13 0 13 -14v-391q0 -13 -13 -13q-14 0 -14 13zM89 583l-55 -96q-9 -14 -22 -6q-14 7 -6 21q2 5 56 97q8 13 22 6q14 -10 5 -22z" />
    <glyph glyph-name="icircumflex" unicode="&#xee;" horiz-adv-x="356" 
d="M110 13v391q0 14 14 14q13 0 13 -14v-391q0 -13 -13 -13q-14 0 -14 13zM125 538l-100 -85q-9 -9 -18 1t1 18l92 79q11 9 25 9q15 0 25 -9l92 -79q10 -8 1 -18q-3 -4 -8.5 -4.5t-9.5 3.5z" />
    <glyph glyph-name="idieresis" unicode="&#xef;" horiz-adv-x="338" 
d="M89 13v391q0 14 14 14q13 0 13 -14v-391q0 -13 -13 -13q-14 0 -14 13zM176 536q12 0 20.5 -8.5t8.5 -20.5t-8.5 -20.5t-20.5 -8.5t-20.5 8.5t-8.5 20.5t8.5 20.5t20.5 8.5zM30 536q12 0 20.5 -8.5t8.5 -20.5t-8.5 -20.5t-20.5 -8.5t-20.5 8.5t-8.5 20.5t8.5 20.5
t20.5 8.5z" />
    <glyph glyph-name="eth" unicode="&#xf0;" horiz-adv-x="508" 
d="M180 360h24q72 0 125 -53l28 -28l-6 38q-14 81 -72 139v1q-72 70 -170 75h-4q-14 0 -14 14q0 13 14 13h-9q117 0 202 -83v-1q83 -83 83 -201v-94q0 -74 -53 -127t-127 -53h-21q-74 0 -127 53t-53 127t53 127t127 53zM201 333h-12h-9q-63 0 -108 -45t-45 -108t45 -108
t108 -45h21q63 0 108.5 45t45.5 108t-45.5 108t-108.5 45zM259 553l-55 -96q-9 -14 -22 -6q-14 7 -6 21q2 5 56 97q8 13 22 6q14 -10 5 -22z" />
    <glyph glyph-name="ntilde" unicode="&#xf1;" horiz-adv-x="531" 
d="M423 251v-237q0 -14 -14 -14q-13 0 -13 14v236q0 60 -43.5 103t-102.5 43h-77q-58 0 -101 -42.5t-45 -100.5v-239q0 -14 -13 -14q-14 0 -14 14v238q2 70 52.5 120.5t120.5 50.5h77q70 0 121.5 -51t51.5 -120v-1zM343 500q-30 -13 -66 -13q-23 0 -66 14t-65 14
q-27 0 -54 -11h-1q-2 -1 -5 -1q-14 0 -14 14t25 20t50 6q22 0 65 -14t66 -14q10 0 30.5 6t29.5 6q14 0 14 -14q0 -11 -9 -13z" />
    <glyph glyph-name="ograve" unicode="&#xf2;" 
d="M173 423h77q70 0 121.5 -51.5t51.5 -121.5v-77q0 -71 -51.5 -122t-121.5 -51h-77q-71 0 -122 51t-51 122v77q0 70 51 121.5t122 51.5zM250 396h-77q-58 0 -102 -43t-44 -103v-77q0 -59 43.5 -102.5t102.5 -43.5h77q59 0 102.5 43.5t43.5 102.5v77q0 60 -43.5 103
t-102.5 43zM220 487l-55 96q-9 12 5 22q14 7 22 -6q54 -92 56 -97q8 -14 -6 -21q-13 -8 -22 6z" />
    <glyph glyph-name="oacute" unicode="&#xf3;" 
d="M173 423h77q70 0 121.5 -51.5t51.5 -121.5v-77q0 -71 -51.5 -122t-121.5 -51h-77q-71 0 -122 51t-51 122v77q0 70 51 121.5t122 51.5zM250 396h-77q-58 0 -102 -43t-44 -103v-77q0 -59 43.5 -102.5t102.5 -43.5h77q59 0 102.5 43.5t43.5 102.5v77q0 60 -43.5 103
t-102.5 43zM248 583l-55 -96q-9 -14 -22 -6q-14 7 -6 21q2 5 56 97q8 13 22 6q14 -10 5 -22z" />
    <glyph glyph-name="ocircumflex" unicode="&#xf4;" 
d="M182 423h77q71 0 122 -51.5t51 -121.5v-77q0 -71 -51 -122t-122 -51h-77q-70 0 -121.5 51t-51.5 122v77q0 70 51.5 121.5t121.5 51.5zM259 396h-77q-58 0 -102 -43t-44 -103v-77q0 -59 43.5 -102.5t102.5 -43.5h77q59 0 102.5 43.5t43.5 102.5v77q0 60 -43.5 103
t-102.5 43zM222 538l-100 -85q-8 -9 -18 1q-9 10 1 18l92 79q11 9 25 9q15 0 25 -9l92 -79q10 -8 1 -18q-3 -4 -8.5 -4.5t-9.5 3.5z" />
    <glyph glyph-name="otilde" unicode="&#xf5;" 
d="M173 423h77q70 0 121.5 -51.5t51.5 -121.5v-77q0 -71 -51.5 -122t-121.5 -51h-77q-71 0 -122 51t-51 122v77q0 70 51 121.5t122 51.5zM250 396h-77q-58 0 -102 -43t-44 -103v-77q0 -59 43.5 -102.5t102.5 -43.5h77q59 0 102.5 43.5t43.5 102.5v77q0 60 -43.5 103
t-102.5 43zM340 500q-30 -13 -66 -13q-23 0 -66 14t-65 14q-27 0 -54 -11h-1q-2 -1 -5 -1q-14 0 -14 14t25 20t50 6q22 0 65 -14t66 -14q10 0 30.5 6t29.5 6q14 0 14 -14q0 -11 -9 -13z" />
    <glyph glyph-name="odieresis" unicode="&#xf6;" 
d="M173 423h77q70 0 121.5 -51.5t51.5 -121.5v-77q0 -71 -51.5 -122t-121.5 -51h-77q-71 0 -122 51t-51 122v77q0 70 51 121.5t122 51.5zM250 396h-77q-58 0 -102 -43t-44 -103v-77q0 -59 43.5 -102.5t102.5 -43.5h77q59 0 102.5 43.5t43.5 102.5v77q0 60 -43.5 103
t-102.5 43zM282 536q12 0 20.5 -8.5t8.5 -20.5t-8.5 -20.5t-20.5 -8.5t-20.5 8.5t-8.5 20.5t8.5 20.5t20.5 8.5zM136 536q12 0 20.5 -8.5t8.5 -20.5t-8.5 -20.5t-20.5 -8.5t-20.5 8.5t-8.5 20.5t8.5 20.5t20.5 8.5z" />
    <glyph glyph-name="divide" unicode="&#xf7;" horiz-adv-x="573" 
d="M14 211q-14 0 -14 13q0 14 14 14h421q14 0 14 -14q0 -13 -14 -13h-421zM224 54q11 0 19 -8t8 -19t-8 -19t-19 -8t-19 8t-8 19t8 19t19 8zM224 449q11 0 19 -8t8 -19t-8 -19t-19 -8t-19 8t-8 19t8 19t19 8z" />
    <glyph glyph-name="oslash" unicode="&#xf8;" 
d="M173 423h77q58 0 104 -35l8 -6l24 23q4 4 9 4q14 0 14 -14q0 -5 -4 -9l-23 -24l6 -8q35 -46 35 -104v-77q0 -71 -51.5 -122t-121.5 -51h-77q-58 0 -104 35l-8 6l-24 -23q-4 -4 -10 -4q-13 0 -13 13q0 6 4 10l23 24l-6 8q-35 46 -35 104v77q0 70 51 121.5t122 51.5z
M343 363l-13 8q-36 25 -80 25h-77q-58 0 -102 -43t-44 -103v-77q0 -43 25 -80l8 -13zM80 60l13 -8q42 -26 80 -25h77q59 0 102.5 43.5t43.5 102.5v77q0 40 -25 80l-8 13z" />
    <glyph glyph-name="ugrave" unicode="&#xf9;" horiz-adv-x="498" 
d="M0 172v237q0 14 14 14q13 0 13 -14v-238q1 -60 44.5 -102t101.5 -42h36q59 0 102.5 43.5t43.5 102.5v236q0 14 13 14q14 0 14 -14v-238q-2 -70 -52.5 -120.5t-120.5 -50.5h-36q-70 0 -120.5 50.5t-52.5 120.5v1zM199 487l-55 96q-9 12 5 22q14 7 22 -6q54 -92 56 -97
q8 -14 -6 -21q-13 -8 -22 6z" />
    <glyph glyph-name="uacute" unicode="&#xfa;" horiz-adv-x="498" 
d="M0 172v237q0 14 14 14q13 0 13 -14v-238q1 -60 44.5 -102t101.5 -42h36q59 0 102.5 43.5t43.5 102.5v236q0 14 13 14q14 0 14 -14v-238q-2 -70 -52.5 -120.5t-120.5 -50.5h-36q-70 0 -120.5 50.5t-52.5 120.5v1zM238 583l-55 -96q-9 -14 -22 -6q-14 7 -6 21q2 5 56 97
q8 13 22 6q14 -10 5 -22z" />
    <glyph glyph-name="ucircumflex" unicode="&#xfb;" horiz-adv-x="498" 
d="M26 172v237q0 14 14 14q13 0 13 -14v-238q1 -60 44.5 -102t101.5 -42h36q59 0 102.5 43.5t43.5 102.5v236q0 14 13 14q14 0 14 -14v-238q-2 -70 -52.5 -120.5t-120.5 -50.5h-36q-70 0 -120.5 50.5t-52.5 120.5v1zM223 538l-100 -85q-9 -9 -18 1t1 18l92 79q11 9 25 9
q15 0 25 -9l92 -79q10 -8 1 -18q-3 -4 -8.5 -4.5t-9.5 3.5z" />
    <glyph glyph-name="udieresis" unicode="&#xfc;" horiz-adv-x="498" 
d="M0 172v237q0 14 14 14q13 0 13 -14v-238q1 -60 44.5 -102t101.5 -42h36q59 0 102.5 43.5t43.5 102.5v236q0 14 13 14q14 0 14 -14v-238q-2 -70 -52.5 -120.5t-120.5 -50.5h-36q-70 0 -120.5 50.5t-52.5 120.5v1zM274 536q12 0 20.5 -8.5t8.5 -20.5t-8.5 -20.5t-20.5 -8.5
t-20.5 8.5t-8.5 20.5t8.5 20.5t20.5 8.5zM128 536q12 0 20.5 -8.5t8.5 -20.5t-8.5 -20.5t-20.5 -8.5t-20.5 8.5t-8.5 20.5t8.5 20.5t20.5 8.5z" />
    <glyph glyph-name="yacute" unicode="&#xfd;" horiz-adv-x="464" 
d="M340 410v-434q0 -69 -50.5 -119.5t-119.5 -50.5h-38q-13 0 -13 13q0 14 13 14h38q58 0 100.5 42.5t42.5 100.5v180l-23 -23q-50 -50 -120 -50q-69 0 -119.5 50.5t-50.5 119.5v157q0 13 13 13q14 0 14 -13v-157q0 -59 42.5 -101t100.5 -42t100.5 42t42.5 101v158l1 1v2
l1 2l1 1l1 2l2 2l2 1l2 1h2h2h2h2l1 -1l2 -1l1 -1l1 -1l1 -1l1 -2l1 -1l1 -1v-2v-2zM212 583l-55 -96q-9 -14 -22 -6q-14 7 -6 21q2 5 56 97q8 13 22 6q14 -10 5 -22z" />
    <glyph glyph-name="thorn" unicode="&#xfe;" horiz-adv-x="558" 
d="M0 -131v685q0 13 14 13q13 0 13 -13v-206l24 24q51 51 122 51h77q70 0 121.5 -51.5t51.5 -121.5v-77q0 -71 -51.5 -122t-121.5 -51h-77q-73 0 -122 51l-24 24v-206q0 -13 -13 -13q-14 0 -14 13zM27 171q1 -59 44 -101.5t102 -42.5h77q59 0 102.5 43.5t43.5 102.5v77
q0 59 -43.5 102.5t-102.5 43.5h-77q-59 0 -101.5 -42.5t-44.5 -100.5v-82z" />
    <glyph glyph-name="ydieresis" unicode="&#xff;" horiz-adv-x="464" 
d="M340 410v-434q0 -69 -50.5 -119.5t-119.5 -50.5h-38q-13 0 -13 13q0 14 13 14h38q58 0 100.5 42.5t42.5 100.5v180l-23 -23q-50 -50 -120 -50q-69 0 -119.5 50.5t-50.5 119.5v157q0 13 13 13q14 0 14 -13v-157q0 -59 42.5 -101t100.5 -42t100.5 42t42.5 101v158l1 1v2
l1 2l1 1l1 2l2 2l2 1l2 1h2h2h2h2l1 -1l2 -1l1 -1l1 -1l1 -1l1 -2l1 -1l1 -1v-2v-2zM244 536q12 0 20.5 -8.5t8.5 -20.5t-8.5 -20.5t-20.5 -8.5t-20.5 8.5t-8.5 20.5t8.5 20.5t20.5 8.5zM98 536q12 0 20.5 -8.5t8.5 -20.5t-8.5 -20.5t-20.5 -8.5t-20.5 8.5t-8.5 20.5
t8.5 20.5t20.5 8.5z" />
    <glyph glyph-name="OE" unicode="&#x152;" horiz-adv-x="868" 
d="M235 559q66 0 122 -34.5t88 -93.5l11 -22l11 22q29 59 86.5 93.5t122.5 34.5h64q14 0 14 -13q0 -14 -14 -14h-64q-78 0 -137.5 -52.5t-69.5 -131.5v-3q1 -7 1 -21v-31h222q13 0 13 -14q0 -13 -13 -13h-222v-31q0 -14 -1 -21v-3q10 -79 69.5 -131.5t137.5 -52.5h64
q14 0 14 -14q0 -13 -14 -13h-64q-65 0 -122.5 34.5t-86.5 93.5l-11 22l-11 -22q-32 -60 -88 -94t-122 -34q-97 0 -166 69.5t-69 165.5v89q0 96 69 165.5t166 69.5zM441 235v89q0 14 1 21v3q-8 72 -59 123h-1q-59 61 -147 61q-85 0 -146.5 -61t-61.5 -147v-89
q0 -85 61.5 -146.5t146.5 -61.5q88 0 147 61h1q51 51 59 123v3q-1 7 -1 21z" />
    <glyph glyph-name="oe" unicode="&#x153;" horiz-adv-x="759" 
d="M173 423q45 0 85.5 -22.5t63.5 -61.5l11 -19l11 19q23 39 63 61.5t85 22.5q71 0 122.5 -51t51.5 -122v-70q0 -10 -7 -17.5t-18 -7.5h-300l18 -41q20 -41 55.5 -64t77.5 -23h109q14 0 14 -13q0 -14 -14 -14h-109q-45 0 -85 22.5t-63 61.5l-11 19l-11 -19
q-23 -39 -63.5 -61.5t-85.5 -22.5q-71 0 -122 51t-51 122v77q0 70 51 121.5t122 51.5zM347 182h291v68q0 60 -43 103t-103 43q-59 0 -102 -43t-43 -103v-68zM173 396q-58 0 -102 -43t-44 -103v-77q0 -59 43.5 -102.5t102.5 -43.5q60 0 103 43.5t43 102.5v77q0 59 -43 102.5
t-103 43.5z" />
    <glyph glyph-name="Scaron" unicode="&#x160;" horiz-adv-x="621" 
d="M502 427v-1q0 -13 -13 -13q-14 0 -14 13q0 45 -31 76l-10 8q-28 23 -65 23h-229q-37 0 -66 -23l-9 -8q-31 -31 -31 -76q0 -44 26 -71.5t68 -40t92 -19.5t100.5 -15t92.5 -21.5t68 -45t26 -79.5q0 -55 -39.5 -94.5t-93.5 -39.5h-241q-55 0 -94 39l-3 4q-34 36 -36 86v5
q0 13 13 13q14 0 14 -13q0 -41 28 -72l3 -4q31 -31 75 -31h241q44 0 75 31.5t31 75.5q0 36 -15.5 60.5t-44.5 36t-55 17.5t-63 10.5t-53 8.5q-45 6 -78 12.5t-65.5 19t-53 28.5t-33 41.5t-12.5 57.5q0 54 39 95l3 3q39 36 91 36h229q52 0 91 -36l3 -3q39 -39 39 -94z
M156 715l100 -85l100 85q4 4 9.5 3.5t8.5 -4.5q9 -10 -1 -18l-92 -79q-11 -9 -25 -9t-25 9l-92 79q-10 8 -1 18q10 10 18 1z" />
    <glyph glyph-name="scaron" unicode="&#x161;" horiz-adv-x="485" 
d="M397 319q0 -13 -14 -13q-13 0 -13 13v9q0 20 -17 41l-4 4q-22 22 -53 22h-163q-31 0 -53 -22t-22 -53q0 -35 26 -56t65 -27.5t84.5 -14t84.5 -16.5t65 -35t26 -68t-30 -72.5t-73 -30.5h-178q-39 0 -70.5 28t-31.5 64q0 26 14 26t14 -14v-11q0 -26 23.5 -45.5t50.5 -19.5
h178q31 0 53 22t22 53q0 66 -94 84q-16 3 -49 7.5t-57 7.5t-54.5 12t-50 21t-33 34t-13.5 51q0 43 30.5 73t72.5 30h163q42 0 72 -30l3 -3q27 -29 27 -61q0 -1 -0.5 -4.5t-0.5 -5.5zM113 555l100 -85l100 85q4 4 9.5 3.5t8.5 -4.5q9 -10 -1 -18l-92 -79q-10 -9 -25 -9t-25 9
l-92 79q-10 8 -1 18t18 1z" />
    <glyph glyph-name="Ydieresis" unicode="&#x178;" horiz-adv-x="573" 
d="M482 546v-152q0 -97 -69 -166v-1q-60 -60 -147 -68l-12 -1v-145q0 -13 -13 -13t-13 13v145l-12 1q-90 8 -153 76.5t-63 158.5v152q0 13 13 13q14 0 14 -13v-152q0 -85 61 -147t147 -62h12q86 0 147 62t61 147v152q0 13 14 13q13 0 13 -13zM314 686q12 0 20.5 -8.5
t8.5 -20.5t-8.5 -20.5t-20.5 -8.5t-20.5 8.5t-8.5 20.5t8.5 20.5t20.5 8.5zM168 686q12 0 20.5 -8.5t8.5 -20.5t-8.5 -20.5t-20.5 -8.5t-20.5 8.5t-8.5 20.5t8.5 20.5t20.5 8.5z" />
    <glyph glyph-name="Zcaron" unicode="&#x17d;" horiz-adv-x="625" 
d="M414 535h-383q-12 0 -12 12t12 12h383q38 0 65.5 -27.5t27.5 -65.5q0 -53 -46 -80l-397 -234q-34 -21 -34 -57q0 -30 20 -50.5t49 -20.5h405q12 0 12 -12t-12 -12h-405q-39 0 -66 27.5t-27 65.5q0 52 46 80l397 234q34 21 33 58q0 30 -20 50t-48 20zM149 715l100 -85
l100 85q4 4 9.5 3.5t8.5 -4.5q9 -10 -1 -18l-92 -79q-10 -9 -25 -9t-25 9l-92 79q-10 8 -1 18t18 1z" />
    <glyph glyph-name="zcaron" unicode="&#x17e;" horiz-adv-x="485" 
d="M393 346h-2q0 2 0.5 4t0.5 4q0 19 -15 33t-33 14h-287q-12 0 -12 12t12 12h287q29 0 50.5 -21t21.5 -52q0 -13 -4 -24l-1 -3q-9 -22 -31 -35l-296 -174q-24 -14 -24 -42q0 -20 15 -34t34 -14h298q12 0 12 -12t-12 -12h-298q-31 0 -52 21.5t-21 52.5q0 40 36 61l296 174
q14 8 20 23zM118 555l100 -85l100 85q4 4 9.5 3.5t8.5 -4.5q9 -10 -1 -18l-92 -79q-11 -9 -25 -9t-25 9l-92 79q-10 8 -1 18q10 10 18 1z" />
    <glyph glyph-name="florin" unicode="&#x192;" horiz-adv-x="340" 
d="M163 516h-1l-9 -8q-25 -27 -25 -61v-214h83q13 0 13 -14q0 -13 -13 -13h-12h-71v-214q0 -46 -33 -79l-2 -3q-33 -30 -77 -30q-13 0 -13 13t13 13h13v1q20 3 38 16h1l9 8q25 25 25 61v214h-71h-12q-13 0 -13 13q0 14 13 14h83v214q0 47 32 79l3 3q33 30 75 30h2
q13 0 13 -13t-13 -13q-29 0 -51 -17z" />
    <glyph glyph-name="circumflex" unicode="&#x2c6;" horiz-adv-x="333" 
d="M123 538l-100 -85q-9 -9 -18 1t1 18l92 79q10 9 25 9t25 -9l92 -79q10 -8 1 -18q-3 -4 -8.5 -4.5t-9.5 3.5z" />
    <glyph glyph-name="tilde" unicode="&#x2dc;" horiz-adv-x="416" 
d="M323 500q-30 -13 -66 -13q-23 0 -66 14t-65 14q-27 0 -54 -11h-1q-2 -1 -5 -1q-14 0 -14 14t25 20t50 6q22 0 65 -14t66 -14q10 0 30.5 6t29.5 6q14 0 14 -14q0 -11 -9 -13z" />
    <glyph glyph-name="endash" unicode="&#x2013;" horiz-adv-x="453" 
d="M14 211q-14 0 -14 13q0 14 14 14h327q14 0 14 -14q0 -13 -14 -13h-327z" />
    <glyph glyph-name="emdash" unicode="&#x2014;" horiz-adv-x="653" 
d="M14 211q-14 0 -14 13q0 14 14 14h507q14 0 14 -14q0 -13 -14 -13h-507z" />
    <glyph glyph-name="quoteleft" unicode="&#x2018;" horiz-adv-x="192" 
d="M59 487l-55 96q-9 12 5 22q14 7 22 -6q54 -92 56 -97q8 -14 -6 -21q-13 -8 -22 6z" />
    <glyph glyph-name="quoteright" unicode="&#x2019;" horiz-adv-x="203" 
d="M87 583l-55 -96q-9 -14 -22 -6q-14 7 -6 21q2 5 56 97q8 13 22 6q14 -10 5 -22z" />
    <glyph glyph-name="quotesinglbase" unicode="&#x201a;" horiz-adv-x="184" 
d="M87 51l-55 -96q-9 -14 -22 -6q-14 7 -6 22q1 1 4 7t16.5 29t35.5 60q7 14 21 6q14 -9 6 -22z" />
    <glyph glyph-name="quotedblleft" unicode="&#x201c;" horiz-adv-x="307" 
d="M135 487l-55 96q-9 12 5 22q14 7 22 -6q54 -92 56 -97q8 -14 -6 -21q-13 -8 -22 6zM60 487l-55 96q-9 12 5 22q14 7 22 -6q54 -92 56 -97q8 -14 -6 -21q-13 -8 -22 6z" />
    <glyph glyph-name="quotedblright" unicode="&#x201d;" horiz-adv-x="299" 
d="M87 583l-55 -96q-9 -14 -22 -6q-14 7 -6 21q2 5 56 97q8 13 22 6q14 -10 5 -22zM162 583l-55 -96q-9 -14 -22 -6q-14 7 -6 21q2 5 56 97q8 13 22 6q14 -10 5 -22z" />
    <glyph glyph-name="quotedblbase" unicode="&#x201e;" horiz-adv-x="261" 
d="M165 51l-55 -96q-9 -14 -22 -6q-14 7 -6 22q1 1 4 7t16.5 29t35.5 60q7 14 21 6q14 -9 6 -22zM87 51l-55 -96q-9 -14 -22 -6q-14 7 -6 22q1 1 4 7t16.5 29t35.5 60q7 14 21 6q14 -9 6 -22z" />
    <glyph glyph-name="dagger" unicode="&#x2020;" horiz-adv-x="504" 
d="M215 347v-471q0 -13 -13 -13q-14 0 -14 13v471h-175q-13 0 -13 14q0 13 13 13h175v173q0 13 14 13q13 0 13 -13v-173h175q13 0 13 -13q0 -14 -13 -14h-175z" />
    <glyph glyph-name="daggerdbl" unicode="&#x2021;" horiz-adv-x="517" 
d="M215 48v-172q0 -13 -13 -13q-14 0 -14 13v172h-175q-13 0 -13 14q0 13 13 13h175v272h-175q-13 0 -13 14q0 13 13 13h175v173q0 13 14 13q13 0 13 -13v-173h175q13 0 13 -13q0 -14 -13 -14h-175v-272h175q13 0 13 -13q0 -14 -13 -14h-175z" />
    <glyph glyph-name="bullet" unicode="&#x2022;" horiz-adv-x="357" 
d="M118 429q50 0 85.5 -35.5t35.5 -85.5q0 -48 -35.5 -83t-85.5 -35q-48 0 -83 35t-35 83q0 50 35 85.5t83 35.5z" />
    <glyph glyph-name="ellipsis" unicode="&#x2026;" horiz-adv-x="567" 
d="M27 54q11 0 19 -8t8 -19t-8 -19t-19 -8t-19 8t-8 19t8 19t19 8zM169 54q11 0 19 -8t8 -19t-8 -19t-19 -8t-19 8t-8 19t8 19t19 8zM311 54q11 0 19 -8t8 -19t-8 -19t-19 -8t-19 8t-8 19t8 19t19 8z" />
    <glyph glyph-name="perthousand" unicode="&#x2030;" horiz-adv-x="789" 
d="M53 5q-4 -5 -11 -5q-13 0 -13 13q0 5 3 9q70 84 199.5 242t161.5 197q4 5 26 34t37.5 46.5t22.5 17.5q13 0 13 -14q0 -6 -2 -8q-172 -209 -437 -532zM599 181q37 0 64 -27t27 -64t-27 -64t-64 -27t-63.5 27t-26.5 64t26.5 64t63.5 27zM646 137q-19 19 -47 19
q-27 0 -46.5 -19t-19.5 -47t20 -47.5t46 -19.5q27 0 47 20t20 47t-20 47zM91 559q37 0 63.5 -27t26.5 -64q0 -38 -26.5 -64t-63.5 -26t-64 26.5t-27 63.5t27 64t64 27zM138 515q-20 20 -47 20t-47 -20t-20 -47q0 -26 19.5 -46t47.5 -20q27 0 46.5 19.5t19.5 46.5
q0 28 -19 47zM363 181q37 0 64 -27t27 -64t-27 -64t-64 -27t-64 27t-27 64t27 64t64 27zM410 137q-19 19 -47 19t-47 -19.5t-19 -46.5q0 -28 19.5 -47.5t46.5 -19.5t47 20t20 47t-20 47z" />
    <glyph glyph-name="guilsinglleft" unicode="&#x2039;" horiz-adv-x="261" 
d="M134 416l-115 -135l115 -135q3 -4 3 -9q0 -12 -12 -12q-6 0 -10 4l-109 128q-9 11 -9 24t9 24l109 128q4 4 10 4q12 0 12 -12q0 -5 -3 -9z" />
    <glyph glyph-name="guilsinglright" unicode="&#x203a;" horiz-adv-x="259" 
d="M115 281l-115 135q-3 4 -3 9q0 12 12 12q6 0 10 -4l109 -128q9 -11 9 -24t-9 -24l-109 -128q-4 -4 -10 -4q-12 0 -12 12q0 5 3 9z" />
    <glyph glyph-name="Euro" unicode="&#x20ac;" horiz-adv-x="588" 
d="M15 316h-12q-13 0 -13 13q0 14 13 14h64l1 11q12 88 79 146.5t154 58.5h137q13 0 13 -13q0 -14 -13 -14h-137q-75 0 -135 -50t-70 -125l-3 -14h129q13 0 13 -14q0 -13 -13 -13h-129v-73h129q13 0 13 -13q0 -14 -13 -14h-129l3 -14q10 -75 70 -125t135 -50h137
q13 0 13 -14q0 -13 -13 -13h-137q-87 0 -154 58.5t-79 146.5l-1 11h-64q-13 0 -13 14q0 13 13 13h63v73h-51z" />
    <glyph glyph-name="trademark" unicode="&#x2122;" horiz-adv-x="638" 
d="M101 534h-89q-5 0 -8.5 4t-3.5 9q0 12 12 12h203q12 0 12 -12q0 -13 -12 -13h-89v-221q0 -13 -12 -13q-13 0 -13 13v221zM390 320l83 222q6 17 27 17q20 -5 23 -22l31 -224v-2q0 -11 -13 -11q-9 0 -11 10l-32 231l-84 -224q-7 -17 -24 -17q-19 0 -25 17l-84 224l-32 -231
q-2 -10 -12 -10q-12 0 -12 13l32 224q3 17 22 22q21 0 28 -17z" />
    <glyph glyph-name="CR" horiz-adv-x="500" 
 />
    </font>
</defs>
</svg>
