<?xml version="1.0" standalone="no"?>
<!DOCTYPE svg PUBLIC "-//W3C//DTD SVG 1.1//EN" "http://www.w3.org/Graphics/SVG/1.1/DTD/svg11.dtd" >
<svg>
<metadata>
Created by FontForge 20110222 at Sat Jun 28 02:00:07 2014
 By Orthosie Webhosting
Copyright  c  1993 - Roger White - All Rights Reserved - see .txt file for terms for distribution and use.
</metadata>
<defs>
<font id="SwanseaBold" horiz-adv-x="557" >
  <font-face 
    font-family="Swansea"
    font-weight="700"
    font-stretch="normal"
    units-per-em="1000"
    panose-1="2 11 8 0 0 0 0 0 0 0"
    ascent="800"
    descent="-200"
    x-height="533"
    cap-height="719"
    bbox="-54 -229 1004 961"
    underline-thickness="50"
    underline-position="-50"
    unicode-range="U+0020-2122"
  />
<missing-glyph horiz-adv-x="502" 
d="M-1 0h500v500h-500v-500zM9 10v480h480v-480h-480z" />
    <glyph glyph-name=".notdef" horiz-adv-x="502" 
d="M-1 0h500v500h-500v-500zM9 10v480h480v-480h-480z" />
    <glyph glyph-name="space" unicode=" " horiz-adv-x="277" 
 />
    <glyph glyph-name="space" unicode="&#xa0;" horiz-adv-x="277" 
 />
    <glyph glyph-name="exclam" unicode="!" horiz-adv-x="332" 
d="M94 0h146v141h-146v-141zM131 199h74l39 332v188h-154v-188z" />
    <glyph glyph-name="quotedbl" unicode="&#x22;" horiz-adv-x="475" 
d="M98 447h97v272h-97v-272zM277 719v-272h100v272h-100z" />
    <glyph glyph-name="numbersign" unicode="#" 
d="M18 199h97l-27 -199h94l27 199h98l-30 -199h96l27 199h98l12 90h-98l18 121h97l12 90h-98l28 199h-94l-27 -199h-98l27 199h-93l-28 -199h-97l-12 -90h98l-18 -121h-98zM238 410h98l-18 -121h-97z" />
    <glyph glyph-name="dollar" unicode="$" 
d="M512 502q0 41 -10 71q-11 32 -29 55q-34 46 -76 62q-43 17 -96 21v64h-45v-64q-23 0 -48 -5q-20 -4 -44 -13q-40 -16 -66 -45q-25 -28 -39 -66q-14 -39 -14 -80q0 -63 30 -104q29 -41 75 -62q41 -21 106 -37v-209q-38 7 -57 23q-18 14 -26 39q-9 27 -13 63h-131
q0 -72 23 -123t73 -76q52 -27 131 -34v-97h45v97q35 0 70 11q32 10 58 27q50 32 72 78t22 99q0 89 -54 141q-42 39 -168 80v187q34 0 57 -20q11 -11 19 -32q6 -21 6 -51h129zM256 432q-84 15 -84 95q0 28 22 53t62 25v-173zM301 281q88 -21 88 -93q0 -53 -28 -75
q-29 -23 -60 -23v191z" />
    <glyph glyph-name="percent" unicode="%" horiz-adv-x="889" 
d="M207 -20h72l399 731h-73zM29 543q0 -62 26 -106q26 -45 68 -67q42 -24 84 -24q45 0 87 21q41 22 69 62q26 39 30 91q0 53 -24 96q-25 42 -66 66q-17 11 -42 20q-23 8 -46 9q-43 0 -86 -20q-41 -21 -70 -60q-14 -20 -22 -42q-8 -24 -8 -46zM131 521q0 29 12 48
q12 18 31 28t37 10q32 0 55 -23q23 -24 23 -64q-3 -30 -27 -50q-24 -21 -51 -21t-53 20q-24 21 -27 52zM498 182q0 -59 26 -103t65 -66q41 -25 85 -25t87 20q41 20 69 60q17 21 24 43q7 21 7 47q0 57 -24 100q-24 44 -66 69q-41 25 -89 25q-43 0 -85 -21q-42 -22 -71 -61
q-28 -40 -28 -88zM602 164q0 42 25 64t53 22q18 0 38 -11q20 -12 30 -31t10 -46q0 -29 -24 -49q-25 -21 -52 -21q-28 0 -54 21q-26 20 -26 51z" />
    <glyph glyph-name="ampersand" unicode="&#x26;" horiz-adv-x="723" 
d="M53 186q0 -52 29 -101q29 -48 80 -76q52 -29 117 -29q73 0 122 23q48 23 83 58l49 -61h168l-129 156q35 49 55 96q18 43 27 121h-125q-8 -76 -37 -117l-101 125q103 62 117 152l1 22q0 45 -22 82q-22 38 -63 60q-40 22 -94 22q-58 0 -99 -22q-43 -22 -65 -59
q-23 -38 -23 -81q0 -79 64 -155q-56 -30 -92 -66q-34 -34 -48 -70q-14 -37 -14 -80zM322 465q-48 52 -52 86q0 27 18 43q17 17 42 17q31 0 45 -17t14 -43q0 -44 -67 -86zM412 148q-57 -48 -111 -48q-55 0 -81 32q-27 32 -27 61q0 40 18 62q18 23 68 59z" />
    <glyph glyph-name="quotesingle" unicode="'" horiz-adv-x="277" 
d="M68 592h78q0 -41 -17 -61q-17 -22 -57 -35v-51q62 11 99 53q38 44 38 109v112h-141v-127z" />
    <glyph glyph-name="parenleft" unicode="(" horiz-adv-x="332" 
d="M35 268q0 -37 5 -79q3 -30 13 -74q15 -70 40 -123q22 -51 47 -91q25 -42 71 -110h103q-23 37 -46 83q-17 34 -34 80q-30 79 -42 157q-12 77 -12 164q0 121 37 241q37 121 97 218h-103q-76 -97 -126 -219q-50 -124 -50 -247z" />
    <glyph glyph-name="parenright" unicode=")" horiz-adv-x="332" 
d="M20 -209h101q46 60 86 132q34 62 55 122q11 34 17 58q8 34 11 53q8 62 8 110l-1 45q0 36 -6 67q-7 37 -19 74q-21 69 -50 125q-2 5 -11 22q-11 18 -15 27l-24 39l-49 69h-103q33 -53 67 -133q30 -72 45 -139q9 -39 15 -77q5 -40 5 -69l1 -50q0 -133 -31 -247
q-31 -116 -102 -228z" />
    <glyph glyph-name="asterisk" unicode="*" horiz-adv-x="389" 
d="M63 432l64 -45l68 92l69 -92l62 45l-68 97l105 32l-25 72l-102 -33v119h-84v-119l-101 33l-24 -72l104 -32z" />
    <glyph glyph-name="plus" unicode="+" horiz-adv-x="584" 
d="M236 0h112v197h197v112h-197v197h-112v-197h-197v-112h197v-197z" />
    <glyph glyph-name="comma" unicode="," horiz-adv-x="277" 
d="M64 0h84q0 -91 -84 -115v-53q88 19 120 67q31 46 31 119v128h-151v-146z" />
    <glyph glyph-name="hyphen" unicode="-" horiz-adv-x="332" 
d="M27 215h280v131h-280v-131z" />
    <glyph glyph-name="period" unicode="." horiz-adv-x="277" 
d="M64 2h151v146h-151v-146z" />
    <glyph glyph-name="slash" unicode="/" horiz-adv-x="277" 
d="M-33 -20h117l227 758h-118z" />
    <glyph glyph-name="zero" unicode="0" 
d="M34 299l9 -84q8 -60 31 -111q23 -54 72 -88q50 -36 129 -36q137 0 192 94q56 95 56 262v33q0 68 -10 124q-11 62 -35 108q-24 47 -76 80q-51 30 -127 30q-70 0 -118 -27q-49 -29 -74 -77q-28 -49 -40 -113q-10 -61 -10 -146zM176 346q0 95 9 150t31 78q23 24 63 24
q30 0 50 -14t31 -43q5 -13 11 -35q2 -10 6 -42q0 -7 1 -14q3 -39 3 -104q0 -68 -4 -112q-4 -48 -17 -81q-12 -32 -31 -45q-20 -14 -50 -14q-41 0 -63 25t-31 79t-9 148z" />
    <glyph glyph-name="one" unicode="1" 
d="M238 0h141v711h-115q-13 -123 -196 -123v-98h170v-490z" />
    <glyph glyph-name="two" unicode="2" 
d="M25 0h487v123h-309q13 29 61 63l111 78q35 25 56 46q23 24 42 51q37 52 37 125q0 71 -34 123q-35 52 -89 77t-127 25q-77 0 -127 -34q-52 -34 -76 -91t-24 -127h137l2 34q0 16 4 29l1 4q2 7 4 12q8 23 30 38q19 16 60 16q53 0 77 -33q23 -35 23 -67t-12 -58t-34 -48
q-8 -8 -30 -27l-4 -3q-3 -2 -13 -10q-8 -6 -13 -10l-74 -55q-22 -16 -47 -37q-21 -18 -38 -35q-35 -35 -58 -88q-23 -55 -23 -121z" />
    <glyph glyph-name="three" unicode="3" 
d="M27 219q0 -65 22 -115q22 -52 74 -86q27 -18 62 -28q30 -10 75 -10q82 0 141 32q58 32 86 82q29 52 29 105q0 141 -106 178q69 35 82 109l2 31q0 54 -25 97q-25 42 -77 70q-52 27 -122 27q-80 0 -133 -33q-52 -33 -75 -86q-23 -54 -23 -110h131q0 116 98 116q41 0 63 -28
q23 -29 23 -82q-4 -40 -38 -58t-103 -18v-101h10q74 0 112 -26q36 -25 36 -88q0 -44 -29 -73q-30 -30 -72 -30q-54 0 -81 31q-27 32 -27 94h-135z" />
    <glyph glyph-name="four" unicode="4" 
d="M27 279v-123h280v-156h140v156h80v110h-80v445h-158zM131 266l180 306l-4 -306h-176z" />
    <glyph glyph-name="five" unicode="5" 
d="M27 189q0 -31 10 -58q9 -28 25 -53q32 -46 84 -72q54 -26 116 -26q70 0 127 27q57 28 91 88q35 61 35 149l-1 33q0 32 -10 56q-10 25 -30 49q-36 42 -83 63q-49 20 -90 20q-71 0 -127 -39l25 154h289v119h-390l-49 -390l125 -6q27 51 105 51q13 0 22 -4q14 -6 21 -11
q22 -13 36 -43q13 -27 13 -67q0 -36 -11 -66q-11 -29 -38 -49q-28 -20 -68 -20q-17 0 -33 8q-18 8 -27 20q-11 12 -19 30q-7 15 -7 37h-141z" />
    <glyph glyph-name="six" unicode="6" 
d="M35 426l-2 -23l-1 -24l-1 -23l-2 -24q0 -43 4 -72l1 -4q5 -43 10 -64q14 -65 44 -111q32 -50 80 -75q49 -26 115 -26q64 0 108 22q46 23 74 60q29 38 42 81q13 42 13 91q0 60 -28 112q-28 51 -78 83q-51 30 -117 30q-20 0 -37 -3l-4 -1q-21 -6 -31 -10q-31 -13 -55 -45
l-2 2q0 52 10 88q11 41 26 62q28 46 79 46q36 0 59 -17q22 -16 25 -50h139q-6 48 -24 82q-7 15 -22 32q-13 15 -30 27q-28 22 -65 29q-37 10 -74 10q-60 0 -108 -20q-46 -21 -76 -58q-32 -38 -53 -92q-19 -50 -19 -115zM172 205l-1 20q0 33 12 61q13 30 37 46q23 16 57 16
q45 0 75 -32q29 -32 29 -95q0 -30 -7 -52q-8 -25 -21 -41q-25 -34 -70 -34q-41 0 -73 29t-38 82z" />
    <glyph glyph-name="seven" unicode="7" 
d="M125 0h145q0 40 6 77q6 36 18 84q18 76 52 153q40 83 79 143q48 71 104 133v109h-502l-2 -125h354q-67 -78 -111 -148q-48 -75 -76 -146q-26 -63 -44 -138q-17 -74 -23 -142z" />
    <glyph glyph-name="eight" unicode="8" 
d="M33 166q6 -49 37 -92q30 -43 84 -69q52 -25 129 -25q104 0 165 57q61 55 73 139l2 41q0 57 -25 100t-80 66q38 19 61 56q21 39 21 79q0 81 -57 135q-59 58 -160 58q-65 0 -116 -23q-49 -24 -78 -63q-30 -41 -34 -84l-2 -25q0 -22 6 -42q5 -21 15 -37q19 -34 67 -60
q-112 -51 -112 -176zM268 424q-39 4 -59 32t-20 67q3 35 29 55t59 20q38 0 64 -26q24 -25 24 -64q0 -36 -24 -60t-73 -24zM176 205q0 54 28 82q29 29 69 29q30 0 56 -14q26 -15 39 -40t13 -57q0 -56 -32 -83q-32 -28 -85 -28q-36 4 -62 33t-26 78z" />
    <glyph glyph-name="nine" unicode="9" 
d="M43 164q4 -47 33 -91q28 -42 78 -68q49 -25 114 -25q38 0 68 10q30 9 57 26q50 35 78 87q29 53 39 116q6 39 8 67q3 35 3 68v37l-1 35q0 36 -7 65q-8 33 -18 62q-19 55 -52 89q-36 37 -80 53q-42 16 -101 16q-68 0 -121 -31q-55 -31 -83 -86q-29 -56 -29 -129
q0 -76 32 -129t80 -78q51 -26 105 -26q95 0 135 61l2 -2q0 -68 -16 -110q-16 -45 -42 -66q-25 -21 -55 -21q-38 0 -58 17q-21 16 -28 53h-141zM268 596q35 0 60 -16q24 -16 38 -43q13 -26 13 -58q0 -64 -26 -99q-25 -34 -78 -34q-56 0 -80 37q-25 37 -25 94q0 49 24 83
q14 18 31 27q18 9 43 9z" />
    <glyph glyph-name="colon" unicode=":" horiz-adv-x="332" 
d="M92 0h150v146h-150v-146zM92 367h150v145h-150v-145z" />
    <glyph glyph-name="semicolon" unicode=";" horiz-adv-x="332" 
d="M92 0h84q0 -26 -6 -45q-7 -18 -18 -32q-20 -25 -60 -38v-53q49 11 86 32q32 21 48 57q16 35 16 95v130h-150v-146zM92 367h150v145h-150v-145z" />
    <glyph glyph-name="less" unicode="&#x3c;" horiz-adv-x="584" 
d="M37 209l510 -217v108l-363 154l363 152v108l-510 -215v-90z" />
    <glyph glyph-name="equal" unicode="=" horiz-adv-x="584" 
d="M39 199v-111h506v111h-506zM39 307h506v113h-506v-113z" />
    <glyph glyph-name="greater" unicode="&#x3e;" horiz-adv-x="584" 
d="M37 -8l510 217v90l-510 215v-108l363 -152l-363 -154v-108z" />
    <glyph glyph-name="question" unicode="?" horiz-adv-x="611" 
d="M238 0h147v141h-147v-141zM242 209h133q0 42 11 69q13 25 40 44l38 29q6 5 7 6q15 12 18 15q8 6 18 18q14 16 20 24q9 12 14 24q13 23 16 58q0 114 -68 173q-67 58 -190 58q-62 0 -119 -26q-56 -27 -87 -79q-32 -53 -32 -128h140q7 61 33 88t79 27q43 0 68 -25t25 -66
q0 -32 -13 -52q-13 -22 -33 -39l-46 -38q-36 -31 -54 -66q-18 -34 -18 -114z" />
    <glyph glyph-name="at" unicode="@" horiz-adv-x="975" 
d="M611 494q-41 65 -121 65q-61 0 -111 -35t-77 -92q-27 -58 -27 -121q0 -44 23 -85t60 -65q38 -24 80 -24q56 0 105 54l2 -2q0 -24 17 -38t40 -14q26 0 71 17q47 18 85 50q43 36 70 91q29 58 29 133q0 68 -28 125q-27 56 -79 100q-51 40 -113 63q-62 22 -133 22
q-80 0 -148 -28q-41 -16 -68 -34q-29 -19 -56 -46q-54 -51 -84 -122q-31 -71 -31 -149q0 -107 53 -193q53 -87 144 -136q92 -50 196 -50q61 0 121 20q59 20 105 56q48 38 80 87h-89q-88 -82 -211 -82q-86 0 -154 38q-70 38 -108 105q-38 68 -38 153q0 84 35 152
q37 69 102 109q64 40 149 40q76 0 140 -29q63 -31 98 -88q35 -59 35 -137q0 -51 -16 -90q-16 -40 -43 -62q-28 -23 -54 -23q-13 0 -16 19l4 21l4 22l59 256h-88zM582 377q0 -34 -16 -66q-17 -35 -43 -54q-28 -21 -60 -21q-36 0 -57 26t-21 64q0 32 16 64q16 33 42 52t59 19
q22 0 41 -10q19 -11 29 -30t10 -44z" />
    <glyph glyph-name="A" unicode="A" horiz-adv-x="723" 
d="M20 0h158l51 148h265l45 -148h164l-254 719h-174zM268 271l93 286l90 -286h-183z" />
    <glyph glyph-name="B" unicode="B" horiz-adv-x="723" 
d="M400 0q62 0 110 12t82 37q33 24 53 63q17 32 21 52q4 19 4 41q0 64 -27 113q-28 50 -84 69q87 32 87 158q-4 50 -28 89q-25 40 -73 63q-45 22 -115 22h-354v-719h324zM221 594h174q61 0 84 -20t23 -58q0 -36 -26 -57q-25 -21 -72 -21h-183v156zM221 123v193h193
q43 0 74 -21q32 -21 32 -74q0 -50 -31 -74t-77 -24h-191z" />
    <glyph glyph-name="C" unicode="C" horiz-adv-x="723" 
d="M45 373l-2 -21q0 -59 12 -112q11 -53 33 -95q44 -84 120 -125q74 -40 169 -40q85 0 152 36q65 34 105 94q39 60 52 136h-151q-30 -135 -164 -135q-56 0 -95 33q-40 34 -59 88q-20 55 -20 112l-2 6q0 120 49 188q50 69 139 69q122 0 152 -125h151q-7 71 -47 131
q-38 56 -107 91q-66 34 -155 34q-38 0 -70 -7q-35 -7 -64 -18q-62 -26 -103 -71q-42 -46 -67 -116q-15 -39 -21 -74q-7 -32 -7 -79z" />
    <glyph glyph-name="D" unicode="D" horiz-adv-x="723" 
d="M393 0q105 0 171 57q65 55 94 144q28 86 28 188q0 83 -29 161q-30 77 -94 123t-167 46h-320v-719h317zM223 123v471h148q65 0 99 -30q35 -30 48 -78q5 -17 11 -53q4 -25 4 -60q0 -105 -39 -177q-39 -73 -123 -73h-148z" />
    <glyph glyph-name="E" unicode="E" horiz-adv-x="668" 
d="M76 0h545v127h-398v186h351v126h-351v153h382v127h-529v-719z" />
    <glyph glyph-name="F" unicode="F" horiz-adv-x="611" 
d="M76 0h151v303h316v127h-316v162h361v127h-512v-719z" />
    <glyph glyph-name="G" unicode="G" horiz-adv-x="777" 
d="M43 363q0 -85 26 -157q26 -74 71 -122q46 -52 102 -77q56 -27 115 -27q45 0 88 8q41 7 78 33q39 24 75 69l15 -90h100v387h-299v-121h166q-11 -53 -36 -89q-26 -36 -64 -53q-39 -17 -80 -17l-27 2q-52 8 -90 33q-38 24 -62 78t-24 134q0 73 20 127q20 53 51 81t65 40
q21 6 36 8q18 3 33 3q48 0 82 -19q36 -20 55 -47q19 -28 22 -51h150q0 29 -10 56q-10 29 -30 57q-39 56 -101 89q-29 17 -70 29q-36 9 -76 9l-13 1h-12q-87 0 -156 -29q-66 -29 -110 -81q-45 -54 -65 -118q-12 -36 -18 -72q-7 -35 -7 -74z" />
    <glyph glyph-name="H" unicode="H" horiz-adv-x="723" 
d="M70 0h151v322h281v-322h150v719h-150v-272h-281v272h-151v-719z" />
    <glyph glyph-name="I" unicode="I" horiz-adv-x="277" 
d="M64 0h151v719h-151v-719z" />
    <glyph glyph-name="J" unicode="J" 
d="M21 271v-22q0 -75 14 -126q14 -49 42 -81q29 -32 73 -45q17 -5 51 -11q24 -4 59 -4q80 0 131 30q50 30 72 78q21 48 21 109v520h-150v-506q0 -39 -6 -62t-26 -35q-19 -12 -58 -12q-37 0 -55 21q-17 19 -22 56q-5 38 -5 90h-141z" />
    <glyph glyph-name="K" unicode="K" horiz-adv-x="723" 
d="M88 0h148v244l71 70l222 -314h194l-311 424l293 295h-193l-276 -293v293h-148v-719z" />
    <glyph glyph-name="L" unicode="L" horiz-adv-x="611" 
d="M76 0h508v131h-357v588h-151v-719z" />
    <glyph glyph-name="M" unicode="M" horiz-adv-x="832" 
d="M68 0h141v600l2 2l131 -602h148l133 600l2 2v-602h141v719h-217l-131 -567l-129 567h-221v-719z" />
    <glyph glyph-name="N" unicode="N" horiz-adv-x="723" 
d="M68 0h141l2 512l293 -512h150v719h-140l-2 -500l-285 500h-159v-719z" />
    <glyph glyph-name="O" unicode="O" horiz-adv-x="777" 
d="M45 322q0 -47 13 -89q12 -44 33 -85q40 -75 118 -122q76 -46 180 -46q76 0 142 26q64 26 109 74q44 47 70 117q24 69 24 158q0 103 -28 175t-76 118q-46 45 -110 68q-60 22 -127 22q-117 0 -197 -50q-78 -49 -115 -137q-36 -88 -36 -203v-26zM193 377q0 39 10 73
q9 37 24 62q30 53 72 75q40 22 86 22q124 0 161 -84q38 -85 38 -179q0 -57 -19 -110q-20 -54 -62 -91q-44 -38 -114 -38q-102 0 -149 77t-47 193z" />
    <glyph glyph-name="P" unicode="P" horiz-adv-x="668" 
d="M76 0h151v260h175q120 0 173 65q52 64 52 169q0 48 -13 87q-13 41 -42 72q-27 30 -70 49q-43 17 -94 17h-332v-719zM227 383v211h123q80 0 104 -27q23 -28 23 -79q0 -32 -6 -53q-7 -22 -31 -37t-73 -15h-140z" />
    <glyph glyph-name="Q" unicode="Q" horiz-adv-x="777" 
d="M45 369q0 -78 18 -146q18 -71 58 -122q20 -27 48 -49q23 -19 61 -37q33 -16 75 -25q37 -10 84 -10q94 0 185 49l84 -82l80 82l-78 75q30 38 44 76q16 37 22 81q1 9 5 38q2 14 2 18q1 9 1 44q0 96 -34 180q-34 85 -112 141q-77 56 -197 56q-92 0 -160 -33
q-69 -35 -109 -86t-58 -119q-19 -64 -19 -131zM195 314l-2 46q0 98 32 154t78 77q46 20 90 20q63 0 106 -34q42 -33 64 -91q21 -57 21 -121q0 -36 -1 -49q-1 -19 -9 -51q-8 -34 -23 -60l-76 70l-77 -80l73 -68q-38 -20 -84 -20q-40 0 -73 15q-31 13 -60 43q-28 28 -43 66
q-16 35 -16 83z" />
    <glyph glyph-name="R" unicode="R" horiz-adv-x="723" 
d="M76 0h147v281h160q50 0 74 -12q23 -14 28 -31l2 -6q4 -16 5 -22q2 -14 2 -30l2 -64l4 -63q4 -30 12 -53h166v20q-20 5 -26 29q-9 29 -9 72l2 33v30q0 60 -17 102q-16 40 -73 58q34 12 59 37t38 61q14 37 14 76q0 51 -25 97q-26 47 -76 76q-50 28 -124 28h-365v-719z
M223 402v192h191q55 0 79 -27q23 -28 23 -65q0 -45 -23 -74q-24 -26 -83 -26h-187z" />
    <glyph glyph-name="S" unicode="S" horiz-adv-x="668" 
d="M39 221q0 -118 81 -180q79 -61 234 -61q9 0 31 2h3q17 2 38 6q42 8 89 32q49 25 82 73q32 49 32 122q0 62 -22 99q-22 36 -64 59q-43 22 -125 41l-70 18l-102 25q-57 18 -57 74q0 40 38 61t86 21q140 0 150 -107h144q0 20 -4 39q-3 14 -13 42q-15 41 -46 75
q-30 33 -88 55q-55 21 -134 21q-84 0 -145 -26q-61 -25 -93 -77q-33 -52 -33 -115q0 -72 31 -115q29 -42 80 -65q53 -24 123 -37l69 -16l76 -21q21 -7 38 -24q16 -16 16 -49q0 -88 -158 -88q-37 0 -69 12q-33 13 -52 39q-21 26 -21 65h-145z" />
    <glyph glyph-name="T" unicode="T" horiz-adv-x="611" 
d="M230 0h151v592h217v127h-584v-127h216v-592z" />
    <glyph glyph-name="U" unicode="U" horiz-adv-x="723" 
d="M72 238q0 -92 42 -149q39 -57 106 -83q66 -26 139 -26q61 0 115 14q52 13 91 42q39 28 63 83q24 54 24 127v473h-154v-473q0 -139 -144 -139q-30 0 -61 14q-30 13 -49 46q-19 31 -19 85v467h-153v-481z" />
    <glyph glyph-name="V" unicode="V" horiz-adv-x="668" 
d="M262 0h142l71 207l173 512h-156l-10 -33l-148 -512l-10 33l-144 512h-160l70 -207z" />
    <glyph glyph-name="W" unicode="W" horiz-adv-x="943" 
d="M219 0h140l44 212l28 137l23 115l19 97l19 -108l25 -127l26 -131l41 -195h145l58 207l143 512h-153l-36 -156l-31 -137l-27 -118l-25 -115q-5 27 -12 67l-7 36q-18 84 -38 184q0 2 -11 51q-28 138 -39 188h-158l-29 -147l-29 -143l-22 -115l-22 -121q-13 84 -115 526
h-160l58 -207z" />
    <glyph glyph-name="X" unicode="X" horiz-adv-x="668" 
d="M14 0h175l145 246l137 -246h183l-234 373l219 346h-174l-131 -233l-129 233h-178l219 -352z" />
    <glyph glyph-name="Y" unicode="Y" horiz-adv-x="668" 
d="M264 0h150v270l240 449h-172l-140 -313l-151 313h-175l248 -448v-271z" />
    <glyph glyph-name="Z" unicode="Z" horiz-adv-x="611" 
d="M25 127v-127h561v127h-377l375 473v119h-549v-127h361z" />
    <glyph glyph-name="bracketleft" unicode="[" horiz-adv-x="332" 
d="M63 -195h246v95h-123v727h123v96h-246v-918z" />
    <glyph glyph-name="backslash" unicode="\" horiz-adv-x="277" 
d="M193 -20h118l-75 247l-152 511h-117l74 -246z" />
    <glyph glyph-name="bracketright" unicode="]" horiz-adv-x="332" 
d="M148 -100h-125v-95h247v918h-247v-96h125v-727z" />
    <glyph glyph-name="asciicircum" unicode="^" horiz-adv-x="584" 
d="M63 322h109l121 264l119 -264h111l-181 377h-100z" />
    <glyph glyph-name="underscore" unicode="_" 
d="M557 -125v51h-557v-51h557z" />
    <glyph glyph-name="grave" unicode="`" horiz-adv-x="332" 
d="M-21 752l146 -147h102l-96 147h-152z" />
    <glyph glyph-name="a" unicode="a" 
d="M29 139q0 -54 27 -89q26 -37 63 -50q39 -14 78 -14q37 0 66 10q29 11 54 27q24 16 46 40q0 -14 6 -37q1 -3 4 -13q3 -8 4 -13h150v21q-19 6 -25 27t-6 56v289q0 31 -13 64q-13 35 -63 63q-49 27 -145 27q-35 0 -67 -6q-33 -6 -55 -15q-47 -19 -74 -61q-26 -41 -32 -106
h135q5 44 27 60q24 15 66 15q84 0 84 -65q0 -32 -46 -39l-129 -19q-67 -10 -111 -51t-44 -121zM359 260v-69q0 -34 -20 -59q-20 -23 -47 -34q-18 -7 -29 -9q-10 -3 -25 -3q-30 0 -49 16q-19 15 -19 44q0 36 20 54q20 17 51 24l67 14q33 7 51 22z" />
    <glyph glyph-name="b" unicode="b" horiz-adv-x="611" 
d="M61 0h136l2 66q28 -44 66 -61q20 -9 45 -14q23 -5 45 -5q60 0 112 32q50 31 81 97q30 65 30 156q0 82 -25 142q-24 59 -76 98q-49 36 -118 36q-51 0 -88 -19q-36 -19 -70 -65v256h-140v-719zM434 262q0 -60 -27 -110q-29 -50 -89 -50q-59 0 -91 44t-32 108q0 172 119 172
q64 0 92 -46t28 -118z" />
    <glyph glyph-name="c" unicode="c" 
d="M35 252q0 -73 18 -123q18 -51 54 -82q70 -61 176 -61q72 0 125 29q52 28 80 73q28 46 35 105h-142q-4 -44 -32 -67q-28 -24 -64 -24q-39 0 -63 21q-25 19 -34 57q-10 34 -10 95q0 72 30 112q30 41 83 41q43 0 65 -25t27 -61h142q0 61 -38 113q-34 48 -87 70
q-54 22 -119 22q-134 0 -190 -89t-56 -206z" />
    <glyph glyph-name="d" unicode="d" horiz-adv-x="611" 
d="M33 271q0 -46 8 -86q7 -37 23 -72q29 -63 80 -95q50 -32 114 -32q24 0 40 10q11 6 19 13l4 3q13 11 18 15l38 30q15 9 37 9v-66h137v719h-139l-2 -256q-55 84 -156 84q-54 0 -95 -22q-42 -22 -71 -61q-27 -38 -41 -88q-14 -53 -14 -105zM178 262q0 72 28 118t91 46
q121 0 121 -172q0 -43 -13 -76q-14 -36 -42 -55q-28 -21 -70 -21q-61 0 -88 50t-27 110z" />
    <glyph glyph-name="e" unicode="e" 
d="M23 277q0 -291 266 -291q54 0 103 20q47 20 81 58q33 36 50 92h-144q-7 -24 -33 -41t-57 -17q-60 0 -93 34q-34 33 -34 97h367v25q0 79 -24 146t-79 107t-147 40q-87 0 -146 -38q-58 -37 -84 -100t-26 -132zM168 318q15 114 109 114q44 0 74 -30q30 -33 34 -84h-217z" />
    <glyph glyph-name="f" unicode="f" horiz-adv-x="332" 
d="M88 0h139v432h91v101h-91v20l2 43q3 11 12 14t36 3h37v114h-70q-156 0 -156 -151v-43h-78v-101h78v-432z" />
    <glyph glyph-name="g" unicode="g" horiz-adv-x="611" 
d="M39 273q0 -98 33 -160q33 -63 86 -90t113 -27q95 0 141 82l2 -4v-62q0 -21 -3 -36q-3 -18 -7 -28q-7 -23 -31 -42q-26 -17 -74 -17q-46 0 -68 14q-20 13 -28 40h-150q0 -28 12 -53q10 -25 30 -43q39 -37 92 -50q53 -14 94 -14q104 0 165 29q60 29 84 82q23 54 23 133v506
h-133l-2 -80q-20 44 -61 69q-43 25 -95 25q-75 0 -124 -40q-51 -40 -75 -102q-24 -61 -24 -132zM186 264q0 83 32 123q32 39 77 39q56 0 88 -44q31 -43 31 -112q0 -155 -119 -155q-39 0 -64 23q-24 22 -34 56q-11 36 -11 70z" />
    <glyph glyph-name="h" unicode="h" horiz-adv-x="611" 
d="M64 0h141v305q0 36 14 66q13 28 39 43q26 14 56 14q56 0 74 -26q18 -27 18 -80v-322h141v369q0 55 -22 95q-21 39 -65 62q-43 21 -99 21q-51 0 -96 -23q-41 -24 -60 -61v256h-141v-719z" />
    <glyph glyph-name="i" unicode="i" horiz-adv-x="277" 
d="M68 0h141v533h-141v-533zM68 596h141v131h-141v-131z" />
    <glyph glyph-name="j" unicode="j" horiz-adv-x="277" 
d="M4 -102v-113h35q55 0 89 9q35 9 58 44t23 105v590h-141v-586q0 -33 -7 -40q-7 -9 -24 -9h-8h-25zM68 596h141v131h-141v-131z" />
    <glyph glyph-name="k" unicode="k" 
d="M68 0h141v168l59 61l127 -229h168l-194 326l188 207h-172l-176 -203v389h-141v-719z" />
    <glyph glyph-name="l" unicode="l" horiz-adv-x="277" 
d="M68 0h141v719h-141v-719z" />
    <glyph glyph-name="m" unicode="m" horiz-adv-x="889" 
d="M64 0h141v324q0 104 86 104q36 0 56 -14q20 -16 24 -39q4 -20 4 -55v-320h141v318q0 110 93 110q79 0 79 -106v-322h138v369q0 48 -19 86q-18 42 -59 67t-105 25q-51 0 -83 -23q-33 -22 -60 -63q-27 44 -59 65q-31 21 -89 21q-103 0 -153 -92l-2 -2v80h-133v-533z" />
    <glyph glyph-name="n" unicode="n" horiz-adv-x="611" 
d="M64 0h141v305q0 50 26 87q26 36 83 36q60 0 76 -28t16 -78v-322h141v369q0 56 -22 96q-22 39 -64 61q-43 21 -100 21q-108 0 -162 -92v78h-135v-533z" />
    <glyph glyph-name="o" unicode="o" horiz-adv-x="611" 
d="M33 266q0 -71 29 -135q28 -64 89 -104q62 -41 156 -41q87 0 148 37q60 35 92 99q31 62 31 144q0 66 -19 117q-19 50 -54 88q-34 37 -85 57q-48 19 -113 19q-71 0 -121 -22q-51 -22 -85 -61q-35 -39 -51 -91q-17 -54 -17 -107zM434 266q0 -65 -27 -113q-28 -49 -100 -49
q-74 0 -101 49q-28 47 -28 113q0 68 28 115q27 47 101 47q71 0 100 -47q27 -48 27 -115z" />
    <glyph glyph-name="p" unicode="p" horiz-adv-x="611" 
d="M63 305v-512h140l2 275q7 -12 16 -24q3 -5 15 -17q17 -17 46 -29t72 -12q78 0 128 41q51 41 73 107q11 34 17 68q6 35 6 69q0 68 -18 120q-18 53 -48 87q-31 34 -71 52q-43 17 -84 17q-27 0 -47 -11q-19 -12 -42 -36q-22 -23 -37 -35q-13 -10 -32 -10h-4v78h-132v-228z
M195 254q0 172 119 172q64 0 92 -46t28 -118q0 -60 -27 -110q-29 -50 -89 -50q-59 0 -91 44t-32 108z" />
    <glyph glyph-name="q" unicode="q" horiz-adv-x="611" 
d="M33 256q0 -70 26 -133t77 -100q52 -37 124 -37q105 0 152 80v-273h141v740h-135l-2 -80q-48 94 -148 94q-70 0 -122 -34q-53 -34 -83 -100t-30 -157zM178 256q0 92 35 132q35 38 82 38q21 0 49 -11q28 -12 50 -49t22 -102q0 -78 -32 -119q-33 -41 -85 -41
q-121 0 -121 152z" />
    <glyph glyph-name="r" unicode="r" horiz-adv-x="389" 
d="M64 0h141v277q0 127 129 127l39 -2v143l-13 1l-14 1q-45 0 -70 -16q-27 -16 -42 -36q-16 -21 -33 -54l-4 -2v94h-133v-533z" />
    <glyph glyph-name="s" unicode="s" 
d="M29 170q0 -45 20 -80t56 -59q35 -23 82 -34q27 -5 49 -8q26 -3 51 -3q71 0 125 23q51 22 80 63q28 40 28 98q0 67 -46 100q-47 33 -109 48l-122 30q-57 14 -57 41q0 50 85 50q50 0 70 -17q20 -16 24 -51h139q0 17 -5 39q-5 18 -15 40q-16 41 -69 69q-52 28 -149 28
q-71 0 -121 -24q-51 -25 -73 -64q-23 -41 -23 -90q0 -68 45 -101q44 -33 105 -48l121 -29q59 -15 59 -45q0 -21 -22 -37q-23 -17 -68 -17q-115 0 -115 78h-145z" />
    <glyph glyph-name="t" unicode="t" horiz-adv-x="332" 
d="M82 109q0 -35 11 -62q10 -25 43 -39t89 -14h19l33 1l32 1v106l-14 -1l-16 -1q-37 0 -47 8q-9 8 -9 35v289h86v101h-86v143h-141v-143h-72v-101h72v-323z" />
    <glyph glyph-name="u" unicode="u" horiz-adv-x="611" 
d="M545 533h-139v-308q0 -44 -16 -70q-16 -28 -42 -39q-27 -12 -51 -12q-90 0 -90 99v330h-141v-351q0 -96 50 -146t132 -50q54 0 94 22t70 66v-74h133v533z" />
    <glyph glyph-name="v" unicode="v" 
d="M205 0h147l7 21l184 512h-148l-116 -392l-109 392h-156l7 -21z" />
    <glyph glyph-name="w" unicode="w" horiz-adv-x="777" 
d="M160 0h145l84 389l84 -389h144l6 21l147 512h-145l-84 -383l-80 383h-143l-76 -383l-84 383h-148l6 -21z" />
    <glyph glyph-name="x" unicode="x" 
d="M16 0h168l91 160l94 -160h172l-182 271l176 262h-164l-90 -156l-90 156h-170l174 -262z" />
    <glyph glyph-name="y" unicode="y" 
d="M207 -21q-4 -16 -9 -32q-4 -12 -10 -22q-13 -17 -30 -22q-18 -5 -45 -5l-25 2v-113l27 -1l35 -1q47 0 77 8q27 7 48 31q20 23 38 65l44 121l4 11l178 512h-148l-112 -392l-113 392h-156l15 -45z" />
    <glyph glyph-name="z" unicode="z" horiz-adv-x="500" 
d="M20 109v-109h460v115h-279l270 303v115h-432v-113h254z" />
    <glyph glyph-name="braceleft" unicode="{" horiz-adv-x="389" 
d="M365 -107h-45q-34 0 -44 19q-12 18 -12 45v197q0 23 -22 60q-23 38 -92 50q48 6 74 29q25 22 33 46q7 21 7 34v195q0 67 56 67h45v88h-84q-33 0 -65 -15q-33 -17 -53 -48q-20 -32 -20 -74v-201q0 -42 -31 -58q-32 -18 -63 -18v-92q31 0 63 -18q31 -18 31 -58v-200
q0 -42 20 -74q19 -31 53 -46q31 -16 65 -16h84v88z" />
    <glyph glyph-name="bar" unicode="|" horiz-adv-x="279" 
d="M84 -20h111v758h-111v-758z" />
    <glyph glyph-name="braceright" unicode="}" horiz-adv-x="389" 
d="M342 309q-30 0 -62 18q-32 17 -32 58v201q0 42 -20 74q-20 30 -54 47q-33 16 -67 16h-84v-88h45q57 0 57 -67v-195q0 -10 8 -34t32 -45q13 -11 31 -19q20 -9 42 -13q-67 -9 -90 -47q-23 -40 -23 -61v-197q0 -64 -57 -64h-45v-88h84q33 0 66 15q31 15 54 47q21 31 21 74
v200q0 42 32 59q33 17 62 17v92z" />
    <glyph glyph-name="asciitilde" unicode="~" horiz-adv-x="584" 
d="M488 344q-24 -36 -43 -55t-47 -19q-23 0 -45 8q-21 7 -58 27q-32 17 -60 26q-24 9 -49 9q-81 0 -125 -86l37 -92q32 74 84 74q31 0 71 -17l75 -34q40 -17 70 -17q41 0 70 23q18 14 29 28q8 8 23 31l3 4z" />
    <glyph glyph-name="quotesinglbase" unicode="&#x201a;" horiz-adv-x="277" 
d="M64 0h84q0 -91 -84 -115v-53q88 19 120 67q31 46 31 119v128h-151v-146z" />
    <glyph glyph-name="florin" unicode="&#x192;" 
d="M217 479h-137v-98h121l-58 -338q-6 -44 -16 -81q-9 -30 -22 -43t-37 -13l-24 3l-2 1q-7 2 -11 4l-10 5q-3 1 -7 3l-24 -111q68 -20 106 -20q50 0 87 24q38 24 63 75q25 50 37 133l59 358h135v98h-122l14 80q11 66 67 66q23 0 56 -14l26 108q-68 17 -108 17q-50 0 -85 -21
q-37 -21 -56 -57q-21 -37 -33 -90z" />
    <glyph glyph-name="quotedblbase" unicode="&#x201e;" horiz-adv-x="500" 
d="M64 0h77q0 -14 -5 -32q-3 -13 -11 -26q-14 -23 -59 -36v-52q60 13 100 50q39 36 39 121v102h-141v-127zM297 0h76q0 -14 -5 -32q-3 -13 -11 -26q-13 -22 -58 -36v-52q59 13 100 50q39 36 39 121v102h-141v-127z" />
    <glyph glyph-name="ellipsis" unicode="&#x2026;" horiz-adv-x="1000" 
d="M92 146v-146h150v146h-150zM760 146v-146h148v146h-148zM426 146v-146h150v146h-150z" />
    <glyph glyph-name="dagger" unicode="&#x2020;" 
d="M520 500h-174v219h-135v-219h-176v-113h176v-559h135v559h174v113z" />
    <glyph glyph-name="daggerdbl" unicode="&#x2021;" 
d="M520 510h-176v209h-133v-209h-176v-114h176v-238h-176v-111h176v-219h133v219h176v111h-176v238h176v114z" />
    <glyph glyph-name="circumflex" unicode="&#x2c6;" horiz-adv-x="332" 
d="M230 752h-125l-115 -147h114l62 83l64 -83h114z" />
    <glyph glyph-name="perthousand" unicode="&#x2030;" horiz-adv-x="1000" 
d="M80 -18h74l399 729h-74zM158 711q-33 0 -62 -12q-29 -13 -51 -35q-20 -20 -34 -51q-13 -29 -13 -62q0 -67 47 -114q47 -48 113 -48q44 0 81 22q37 21 60 59q21 38 21 81t-21 80q-20 35 -59 58q-37 22 -82 22zM158 611q25 0 44 -18q19 -17 19 -42q0 -26 -19 -44
q-19 -19 -44 -19q-26 0 -42 19q-18 18 -18 44q0 24 18 42t42 18zM842 311q-43 0 -80 -22q-38 -23 -59 -59q-21 -37 -21 -80t22 -80q21 -38 58 -60t80 -22q44 0 82 23q39 24 59 59q21 36 21 80t-21 81q-22 37 -59 59q-37 21 -82 21zM842 211q26 0 44 -17q18 -18 18 -44
t-18 -44t-44 -18q-25 0 -43 18t-18 44q0 25 18 43t43 18zM479 311q-45 0 -81 -21q-35 -20 -59 -59q-23 -38 -23 -81q0 -44 22 -81t59 -59t82 -22q42 0 80 23q36 23 58 59q22 35 22 80q0 44 -22 81q-23 38 -59 59q-37 21 -79 21zM479 211q25 0 43 -18q17 -18 17 -43t-17 -44
q-18 -18 -43 -18t-43 18t-18 44q0 27 18 43q17 18 43 18z" />
    <glyph glyph-name="Scaron" unicode="&#x160;" horiz-adv-x="646" 
d="M39 221q0 -118 81 -180q79 -61 234 -61q9 0 31 2h3q17 2 38 6q42 8 89 32q49 25 82 73q32 49 32 122q0 62 -22 99q-22 36 -64 59q-43 22 -125 41l-70 18l-102 25q-57 18 -57 74q0 40 38 61t86 21q140 0 150 -107h144q0 20 -4 39q-3 14 -13 42q-15 41 -46 75
q-30 33 -88 55q-55 21 -134 21q-84 0 -145 -26q-61 -25 -93 -77q-33 -52 -33 -115q0 -72 31 -115q29 -42 80 -65q53 -24 123 -37l69 -16l76 -21q21 -7 38 -24q16 -16 16 -49q0 -88 -158 -88q-37 0 -69 12q-33 13 -52 39q-21 26 -21 65h-145zM384 789l114 144h-114l-64 -82
l-62 82h-114l115 -144h125z" />
    <glyph glyph-name="guilsinglleft" unicode="&#x2039;" horiz-adv-x="332" 
d="M250 484l-168 -144v-119l168 -145v115l-100 88l100 90v115z" />
    <glyph glyph-name="OE" unicode="&#x152;" horiz-adv-x="1000" 
d="M629 592h334v127h-471v-41q-28 28 -61 44t-95 16q-105 0 -172 -55t-97 -141q-30 -85 -30 -183q0 -110 28 -181q26 -71 71 -116q43 -43 95 -61q51 -19 101 -19q62 0 94 16q31 15 66 53v-51h471v127h-334v187h310v127h-310v151zM482 197q0 -34 -36 -63q-37 -29 -94 -29
t-95 38q-37 37 -54 95q-17 59 -17 114q0 117 42 189t129 72q47 0 86 -21q39 -22 39 -71v-324z" />
    <glyph glyph-name="quoteleft" unicode="&#x2018;" horiz-adv-x="277" 
d="M68 563v-108h141v127h-76q0 39 18 61t56 33v51q-54 -10 -83 -32q-28 -21 -42 -53q-14 -34 -14 -79z" />
    <glyph glyph-name="quoteright" unicode="&#x2019;" horiz-adv-x="277" 
d="M68 592h78q0 -41 -17 -61q-17 -22 -57 -35v-51q62 11 99 53q38 44 38 109v112h-141v-127z" />
    <glyph glyph-name="quotedblleft" unicode="&#x201c;" horiz-adv-x="500" 
d="M436 582h-77q0 7 2 21l3 12q1 5 1 6q8 20 23 33q15 14 46 24v51q-137 -29 -137 -172v-102h139v127zM205 582h-78q0 14 5 32q4 13 11 26q14 23 58 38v51q-137 -29 -137 -172v-102h141v127z" />
    <glyph glyph-name="quotedblright" unicode="&#x201d;" horiz-adv-x="500" 
d="M64 592h77q0 -15 -5 -33q-3 -13 -11 -26q-13 -22 -59 -37v-51q139 28 139 172v102h-141v-127zM297 592h76q0 -34 -14 -57q-13 -24 -60 -39v-51q137 29 137 172v102h-139v-127z" />
    <glyph glyph-name="bullet" unicode="&#x2022;" horiz-adv-x="350" 
d="M176 523q-46 0 -83 -22q-38 -23 -60 -59q-23 -38 -23 -83t23 -83q23 -37 60 -60q38 -23 83 -23q42 0 83 23q38 22 61 60q22 37 22 83q0 45 -22 82q-22 38 -60 60q-37 22 -84 22z" />
    <glyph glyph-name="endash" unicode="&#x2013;" horiz-adv-x="1000" 
d="M1000 227l-2 107h-998l2 -107h998z" />
    <glyph glyph-name="emdash" unicode="&#x2014;" 
d="M557 334h-557v-107h557v107z" />
    <glyph glyph-name="tilde" unicode="&#x2dc;" horiz-adv-x="332" 
d="M-14 613h65q7 43 43 43l33 -6l43 -13q6 -2 17 -5q20 -6 27 -8q20 -5 30 -5q19 0 37 8t32 21q27 27 41 92h-65q-11 -41 -49 -41l-22 5l-17 5l-49 20q-32 7 -48 7q-45 0 -76 -31q-32 -32 -42 -92z" />
    <glyph glyph-name="trademark" unicode="&#x2122;" horiz-adv-x="1000" 
d="M617 720h-154v-413h107l2 281l98 -281h82l100 281v-281h105v413h-152l-94 -251zM387 720h-342v-85h113v-328h113v328l116 1v84z" />
    <glyph glyph-name="scaron" unicode="&#x161;" horiz-adv-x="546" 
d="M29 170q0 -45 20 -80t56 -59q35 -23 82 -34q27 -5 49 -8q26 -3 51 -3q71 0 125 23q51 22 80 63q28 40 28 98q0 67 -46 100q-47 33 -109 48l-122 30q-57 14 -57 41q0 50 85 50q50 0 70 -17q20 -16 24 -51h139q0 17 -5 39q-5 18 -15 40q-16 41 -69 69q-52 28 -149 28
q-71 0 -121 -24q-51 -25 -73 -64q-23 -41 -23 -90q0 -68 45 -101q44 -33 105 -48l121 -29q59 -15 59 -45q0 -21 -22 -37q-23 -17 -68 -17q-115 0 -115 78h-145zM330 583l114 149h-114l-64 -84l-62 84h-114l115 -149h125z" />
    <glyph glyph-name="guilsinglright" unicode="&#x203a;" horiz-adv-x="332" 
d="M184 279l-102 -88v-115l168 145v119l-168 144v-115z" />
    <glyph glyph-name="oe" unicode="&#x153;" horiz-adv-x="943" 
d="M764 156q-7 -24 -33 -41t-57 -17q-53 0 -78 22q-28 23 -35 51q-9 29 -12 58h365v25q0 83 -23 144t-60 92q-36 30 -80 44q-42 13 -89 13q-39 0 -74 -11q-16 -5 -29 -12t-24 -15q-6 -4 -15 -13l-8 -7q-13 -12 -22 -22q-30 36 -78 58t-105 22q-54 0 -102 -16
q-49 -16 -88 -52q-38 -34 -60 -88q-22 -51 -22 -123q0 -95 37 -156q37 -62 99 -94q63 -32 136 -32q115 0 173 75q24 -22 44 -37q23 -16 60 -27q39 -11 90 -11q46 0 94 17q47 17 85 55t55 98h-144zM436 268q0 -68 -28 -115q-28 -48 -101 -48q-72 0 -101 48q-28 47 -28 115
q0 64 28 113t101 49t101 -49t28 -113zM553 320q13 112 107 112q41 0 73 -26q17 -14 28 -36q9 -21 9 -50h-217z" />
    <glyph glyph-name="Ydieresis" unicode="&#x178;" horiz-adv-x="666" 
d="M264 0h150v270l240 449h-172l-140 -313l-151 313h-175l248 -448v-271zM303 912h-127v-115h127v115zM498 912h-127v-115h127v115z" />
    <glyph glyph-name="exclamdown" unicode="&#xa1;" horiz-adv-x="332" 
d="M94 393h146v140h-146v-140zM90 -2v-184h154v184l-39 336h-74z" />
    <glyph glyph-name="cent" unicode="&#xa2;" 
d="M262 105l88 305q20 -16 33 -66h142q0 71 -36 117q-37 46 -106 70l27 98h-51l-25 -84l-53 2q-83 0 -139 -41q-55 -40 -81 -108q-26 -69 -26 -146q0 -56 17 -109q16 -50 50 -87q33 -36 80 -54l-36 -119h53l31 107q4 -1 9 -2q5 0 14 -2h26q27 0 58 6q33 6 54 16q52 22 88 69
q37 47 44 118h-142q-7 -46 -34 -70q-12 -11 -28 -18q-14 -7 -30 -7zM217 129q-18 17 -29 56q-6 24 -9 41q-3 18 -3 42q0 33 9 64q7 30 23 53q29 45 93 45z" />
    <glyph glyph-name="sterling" unicode="&#xa3;" 
d="M377 381h-145q-46 102 -46 133q0 30 23 62q22 31 74 31q42 0 64 -15q23 -15 32 -39q10 -21 16 -65h130q0 63 -22 110q-23 48 -59 74q-40 28 -77 37q-39 10 -84 10q-80 0 -136 -32q-55 -31 -78 -78q-24 -46 -24 -86q0 -37 6 -55q6 -19 18 -48q5 -13 17 -39h-59v-61h92
q6 -7 9 -15q5 -11 8 -24q4 -16 6 -26q1 -5 1 -23q0 -34 -23 -66q-22 -30 -50 -54q-26 -20 -39 -26l55 -98q76 35 109 35q31 0 62 -10l70 -19q31 -10 62 -10q77 0 152 45l-41 110q-19 -15 -49 -26t-53 -11l-23 2l-34 10l-37 10l-29 3q-44 0 -113 -25l-2 2q47 36 75 75
q27 39 27 89q0 24 -4 52h119v61z" />
    <glyph glyph-name="currency" unicode="&#xa4;" 
d="M-4 143l67 -67l97 98q51 -33 117 -33q72 0 118 33l99 -98l65 67l-98 97q33 53 33 117t-33 116l98 97l-65 67l-99 -98q-52 33 -118 33q-60 0 -117 -33l-97 98l-67 -67l100 -97q-9 -16 -13 -26l-1 -1q-6 -16 -9 -26q-9 -31 -9 -63q0 -67 32 -117zM277 244q-43 0 -72 33
q-29 32 -29 80q0 49 29 81q28 31 72 31q31 0 56 -15q24 -16 37 -40q13 -25 13 -57q0 -45 -29 -79q-30 -34 -77 -34z" />
    <glyph glyph-name="yen" unicode="&#xa5;" 
d="M549 406h-133l150 293h-142l-139 -295l-144 295h-151l156 -293h-130v-60h162l41 -76h-203v-59h203v-211h127v211h203v59h-203l39 76h164v60z" />
    <glyph glyph-name="section" unicode="&#xa7;" 
d="M127 434q-46 -25 -70 -60q-24 -36 -24 -73q0 -50 17 -83q16 -31 48 -52q31 -22 91 -51q1 -1 18 -9q25 -12 33 -16q44 -22 53 -27q34 -18 47 -32q15 -16 15 -39q0 -31 -21 -50q-21 -20 -55 -20t-56 19q-24 20 -28 63h-132q9 -104 72 -146q62 -42 138 -42q71 0 120 28
q48 26 73 71q24 43 24 91q0 39 -15 70q-16 31 -47 59q25 11 47 33q21 21 35 51q13 26 13 49q0 34 -9 61q-11 27 -35 51q-25 26 -77 52l-160 80q-39 20 -39 52q0 29 22 42q21 15 48 15q34 0 56 -18q23 -18 23 -58h127q0 50 -21 92q-21 41 -67 66q-46 24 -116 24
q-55 0 -91 -16q-34 -15 -62 -43q-24 -24 -35 -57q-13 -33 -13 -62q0 -33 15 -65q13 -29 38 -50zM195 383l153 -78q50 -26 50 -61q0 -42 -43 -64l-158 84q-43 23 -47 58q0 21 17 41q16 19 28 20z" />
    <glyph glyph-name="dieresis" unicode="&#xa8;" horiz-adv-x="332" 
d="M133 730h-127v-115h127v115zM328 730h-127v-115h127v115z" />
    <glyph glyph-name="copyright" unicode="&#xa9;" horiz-adv-x="736" 
d="M-12 359q0 -83 27 -151q27 -67 81 -120q53 -53 123 -80q68 -28 156 -28q69 0 139 26q37 15 64 32q33 22 57 44q53 50 84 120q31 69 31 159q0 92 -31 161q-30 68 -85 118q-56 48 -122 73t-143 25q-78 0 -147 -27q-71 -27 -123 -79q-55 -55 -82 -121q-29 -72 -29 -152z
M96 359q0 42 14 93q12 45 46 95q31 46 86 75q52 28 127 28q65 0 116 -24t85 -65q33 -41 52 -95q17 -54 17 -105q0 -74 -24 -130q-26 -58 -64 -93q-41 -37 -87 -53q-48 -17 -93 -17q-89 0 -151 44q-61 44 -93 111q-31 66 -31 136zM473 426h88q-15 75 -62 115q-46 39 -116 39
q-50 0 -98 -24q-49 -24 -79 -72q-30 -49 -30 -121q0 -66 29 -116t76 -75q49 -26 104 -26q38 0 77 17q38 17 65 51t36 89h-90q0 -36 -27 -53q-27 -18 -61 -18q-42 0 -74 36q-32 37 -32 97q0 66 30 97q30 30 74 30q77 0 90 -66z" />
    <glyph glyph-name="ordfeminine" unicode="&#xaa;" horiz-adv-x="369" 
d="M33 357v-80h301v80h-301zM35 627h88q5 39 55 39q60 0 60 -33q0 -12 -5 -15q-6 -4 -26 -9l-82 -9q-102 -16 -102 -106q0 -46 32 -69t80 -23q65 0 107 45l8 -37h98v14q-22 0 -22 47v174q0 48 -39 70q-41 23 -98 23q-65 0 -106 -23q-40 -22 -48 -88zM238 566v-41
q0 -29 -25 -45q-26 -17 -55 -17q-19 0 -30 11t-11 26q0 29 16 36l6 3q14 6 18 7q3 1 28 5q5 0 9 1q31 5 44 14z" />
    <glyph glyph-name="guillemotleft" unicode="&#xab;" 
d="M256 369v115l-168 -144v-119l168 -145v115l-102 88zM469 369v115l-168 -144v-119l168 -145v115l-100 88z" />
    <glyph glyph-name="logicalnot" unicode="&#xac;" horiz-adv-x="584" 
d="M432 107h113v313h-506v-113h393v-200z" />
    <glyph glyph-name="registered" unicode="&#xae;" horiz-adv-x="736" 
d="M-12 357q0 -98 36 -169q34 -70 94 -118q57 -45 124 -68q65 -22 127 -22q76 0 145 26t120 74t83 121q31 69 31 158q0 91 -31 162q-32 73 -87 119q-58 49 -124 73q-68 25 -141 25q-90 0 -161 -33q-73 -34 -118 -88q-46 -54 -73 -124q-25 -66 -25 -136zM98 357q0 66 29 136
q29 68 91 112q61 43 153 43q73 0 134 -36q62 -38 99 -103q37 -67 37 -150q0 -89 -37 -153q-38 -66 -100 -101q-62 -37 -135 -37q-88 0 -149 43t-91 110q-31 65 -31 136zM219 564v-408h88v172h41l93 -172h104l-106 178q25 0 44 9q17 7 32 23q24 29 24 73q0 56 -36 92
q-34 33 -130 33h-154zM307 494h62q39 0 58 -10q18 -10 18 -35q0 -29 -14 -41q-13 -12 -48 -12h-76v98z" />
    <glyph glyph-name="plusminus" unicode="&#xb1;" horiz-adv-x="584" 
d="M236 381h-195v-111h195v-127h114v127h195v111h-195v127h-114v-127zM41 0h504v113h-504v-113z" />
    <glyph glyph-name="twosuperior" unicode="&#xb2;" horiz-adv-x="420" 
d="M150 -2h151v719h-151v-719zM-9 783h109l121 104l119 -104h111l-181 149h-100z" />
    <glyph glyph-name="threesuperior" unicode="&#xb3;" horiz-adv-x="712" 
d="M72 238q0 -92 42 -149q39 -57 106 -83q66 -26 139 -26q61 0 115 14q52 13 91 42q39 28 63 83q24 54 24 127v473h-154v-473q0 -139 -144 -139q-30 0 -61 14q-30 13 -49 46q-19 31 -19 85v467h-153v-481zM119 789h109l121 104l119 -104h111l-181 149h-100z" />
    <glyph glyph-name="acute" unicode="&#xb4;" horiz-adv-x="964" 
d="M528 938h-125l-115 -147h114l62 83l64 -83h114zM359 0l114 561l19 -108l25 -127l26 -131l41 -195h145l58 207l143 512h-153l-36 -156l-31 -137l-27 -118l-25 -115q-5 27 -12 67l-7 36q-18 84 -38 184q0 2 -11 51q-28 138 -39 188h-158l-29 -147l-29 -143l-22 -115
l-22 -121q-13 84 -115 526h-160l58 -207l145 -512h140z" />
    <glyph glyph-name="mu" unicode="&#xb5;" horiz-adv-x="678" 
d="M264 0h150v270l240 449h-172l-140 -313l-151 313h-175l248 -448v-271zM392 938h-125l-115 -147h114l62 83l64 -83h114z" />
    <glyph glyph-name="paragraph" unicode="&#xb6;" horiz-adv-x="396" 
d="M142 -4h141v533h-141v-533zM-15 621h109l121 104l119 -104h111l-181 149h-100z" />
    <glyph glyph-name="periodcentered" unicode="&#xb7;" horiz-adv-x="608" 
d="M545 533h-139v-308q0 -44 -16 -70q-16 -28 -42 -39q-27 -12 -51 -12q-90 0 -90 99v330h-141v-351q0 -96 50 -146t132 -50q54 0 94 22t70 66v-74h133v533zM69 621h109l121 104l119 -104h111l-181 149h-100z" />
    <glyph glyph-name="periodcentered" unicode="&#x2219;" horiz-adv-x="608" 
d="M545 533h-139v-308q0 -44 -16 -70q-16 -28 -42 -39q-27 -12 -51 -12q-90 0 -90 99v330h-141v-351q0 -96 50 -146t132 -50q54 0 94 22t70 66v-74h133v533zM69 621h109l121 104l119 -104h111l-181 149h-100z" />
    <glyph glyph-name="cedilla" unicode="&#xb8;" horiz-adv-x="800" 
d="M160 0h145l84 389l84 -389h144l6 21l147 512h-145l-84 -383l-80 383h-143l-76 -383l-84 383h-148l6 -21zM442 768h-125l-115 -147h114l62 83l64 -83h114z" />
    <glyph glyph-name="onesuperior" unicode="&#xb9;" horiz-adv-x="554" 
d="M207 -21q-4 -16 -9 -32q-4 -12 -10 -22q-13 -17 -30 -22q-18 -5 -45 -5l-25 2v-113l27 -1l35 -1q47 0 77 8q27 7 48 31q20 23 38 65l44 121l4 11l178 512h-148l-112 -392l-113 392h-156l15 -45zM340 772h-125l-115 -147h114l62 83l64 -83h114z" />
    <glyph glyph-name="ordmasculine" unicode="&#xba;" horiz-adv-x="365" 
d="M361 570q0 65 -44 117q-45 51 -133 51q-61 0 -99 -25q-39 -25 -59 -63t-20 -80t20 -81q20 -40 59 -63q39 -24 99 -24t100 24q38 24 58 63q19 38 19 81zM262 570q0 -38 -21 -67q-21 -28 -57 -28q-37 0 -58 27t-21 68q0 40 21 68t58 28q36 0 57 -28t21 -68zM33 357v-80h301
v80h-301z" />
    <glyph glyph-name="guillemotright" unicode="&#xbb;" 
d="M402 281l-101 -88v-117l168 145v121l-168 142v-115zM189 281l-101 -88v-117l168 145v121l-168 142v-115z" />
    <glyph glyph-name="onequarter" unicode="&#xbc;" horiz-adv-x="834" 
d="M717 426h-108l-170 -262v-74h182v-90h96v90h51v70h-51v266zM512 158l117 184l-1 -59l-1 -125h-115zM138 -18h77l428 729h-79zM27 574h111v-291h100v428h-86q0 -27 -26 -50q-27 -24 -87 -24h-12v-63z" />
    <glyph glyph-name="onehalf" unicode="&#xbd;" horiz-adv-x="834" 
d="M138 -18h77l428 729h-79zM27 574h111v-291h100v428h-86q0 -27 -26 -50q-27 -24 -87 -24h-12v-63zM572 275q3 32 15 54q12 21 54 21q19 0 33 -8q13 -9 19 -22t6 -25q0 -22 -10 -38q-11 -17 -33 -35l-74 -52q-42 -30 -64 -58q-12 -15 -18 -27q-7 -13 -12 -30q-4 -16 -6 -26
q-2 -14 -2 -29h315v82h-186q19 25 98 72q88 54 88 139q0 39 -20 71q-21 32 -57 48q-35 16 -81 16q-54 0 -103 -31q-50 -32 -50 -122h88z" />
    <glyph glyph-name="threequarters" unicode="&#xbe;" horiz-adv-x="834" 
d="M750 426h-107l-170 -262v-74h181v-90h96v90h51v70h-51v266zM543 160l111 176v-176h-111zM182 -18h78l428 729h-79zM16 414q0 -60 29 -92t64 -41q22 -7 36 -8q20 -2 33 -2q44 0 81 17q35 17 55 49t20 71q0 49 -22 71q-21 21 -46 31q21 8 38 29q16 20 16 53q0 42 -22 70
q-23 28 -54 38q-33 11 -66 11q-78 0 -115 -37q-38 -38 -38 -100h84q0 63 63 63q32 0 44 -17q11 -17 11 -34q0 -36 -20 -45q-20 -10 -55 -10h-15v-62q44 0 72 -11q27 -10 27 -50q0 -60 -64 -60q-67 0 -67 66h-89z" />
    <glyph glyph-name="questiondown" unicode="&#xbf;" horiz-adv-x="611" 
d="M238 324q0 -51 -13 -73q-13 -21 -49 -48q-63 -46 -91 -86q-30 -40 -30 -99q0 -86 47 -136q46 -49 106 -63q61 -14 105 -14q41 0 86 14q44 14 77 41q33 26 56 72q21 45 21 107h-143q-4 -51 -26 -83q-21 -32 -81 -32q-39 0 -68 23q-30 22 -30 76q0 55 63 98q44 31 66 59
q21 29 28 58t7 86h-131zM229 393h144v140h-144v-140z" />
    <glyph glyph-name="Agrave" unicode="&#xc0;" horiz-adv-x="723" 
d="M20 0h158l51 148h265l45 -148h164l-254 719h-174zM268 271l93 286l90 -286h-183zM163 936l146 -147h102l-96 147h-152z" />
    <glyph glyph-name="Aacute" unicode="&#xc1;" horiz-adv-x="723" 
d="M20 0h158l51 148h265l45 -148h164l-254 719h-174zM268 271l93 286l90 -286h-183zM541 936h-154l-94 -147h100z" />
    <glyph glyph-name="Acircumflex" unicode="&#xc2;" horiz-adv-x="723" 
d="M20 0h158l51 148h265l45 -148h164l-254 719h-174zM268 271l93 286l90 -286h-183zM429 936h-125l-115 -147h114l62 83l64 -83h114z" />
    <glyph glyph-name="Atilde" unicode="&#xc3;" horiz-adv-x="723" 
d="M20 0h158l51 148h265l45 -148h164l-254 719h-174zM268 271l93 286l90 -286h-183zM185 797h65q7 43 43 43l33 -6l43 -13q6 -2 17 -5q20 -6 27 -8q20 -5 30 -5q19 0 37 8t32 21q27 27 41 92h-65q-11 -41 -49 -41l-22 5l-17 5l-49 20q-32 7 -48 7q-45 0 -76 -31
q-32 -32 -42 -92z" />
    <glyph glyph-name="Adieresis" unicode="&#xc4;" horiz-adv-x="723" 
d="M20 0h158l51 148h265l45 -148h164l-254 719h-174zM268 271l93 286l90 -286h-183zM332 914h-127v-115h127v115zM527 914h-127v-115h127v115z" />
    <glyph glyph-name="Aring" unicode="&#xc5;" horiz-adv-x="723" 
d="M20 0h158l51 148h265l45 -148h164l-254 719h-174zM268 271l93 286l90 -286h-183zM367 961q-29 0 -54 -13t-39 -38q-14 -26 -14 -52q0 -44 31 -75t76 -31t76 31t31 75q0 26 -14 51q-16 25 -40 38q-26 14 -53 14zM367 909q21 0 37 -15q16 -14 16 -36t-15 -37
q-16 -16 -38 -16t-37 16q-16 15 -16 37q0 20 16 36q15 15 37 15z" />
    <glyph glyph-name="AE" unicode="&#xc6;" horiz-adv-x="1000" 
d="M576 314h336v127h-336v151h373v127h-681l-262 -719h156l53 154h215v-154h525v127h-379v187zM254 271l111 321h65v-321h-176z" />
    <glyph glyph-name="Ccedilla" unicode="&#xc7;" horiz-adv-x="723" 
d="M369 -18h4q87 0 152 32q63 31 104 92q40 58 57 140h-151q-13 -64 -55 -100q-43 -35 -105 -35q-60 0 -101 33q-40 32 -58 89q-19 54 -19 124q0 137 54 194q55 56 124 56q56 0 90 -19t48 -47q7 -13 13 -25q1 -5 8 -27q0 -2 1 -5h151q0 19 -5 42q-4 15 -17 45q-20 45 -57 82
q-39 38 -98 62q-60 23 -134 23q-96 0 -169 -43q-74 -44 -117 -128q-44 -86 -44 -208q0 -82 20 -148t55 -112q33 -44 85 -74q50 -29 108 -39l-45 -70l21 -20q29 8 39 8q18 0 28 -9q11 -11 11 -26q0 -18 -15 -28q-16 -11 -32 -11q-28 0 -76 16l-23 -49l48 -16l33 -8l34 -2
q56 0 91 29q34 28 34 71q0 42 -28 60t-60 18q-21 0 -29 -4z" />
    <glyph glyph-name="Egrave" unicode="&#xc8;" horiz-adv-x="668" 
d="M76 0h545v127h-398v186h351v126h-351v153h382v127h-529v-719zM178 936l146 -147h102l-96 147h-152z" />
    <glyph glyph-name="Eacute" unicode="&#xc9;" horiz-adv-x="668" 
d="M76 0h545v127h-398v186h351v126h-351v153h382v127h-529v-719zM523 936h-154l-94 -147h100z" />
    <glyph glyph-name="Ecircumflex" unicode="&#xca;" horiz-adv-x="668" 
d="M76 0h545v127h-398v186h351v126h-351v153h382v127h-529v-719zM414 936h-125l-115 -147h114l62 83l64 -83h114z" />
    <glyph glyph-name="Edieresis" unicode="&#xcb;" horiz-adv-x="668" 
d="M76 0h545v127h-398v186h351v126h-351v153h382v127h-529v-719zM317 914h-127v-115h127v115zM512 914h-127v-115h127v115z" />
    <glyph glyph-name="Igrave" unicode="&#xcc;" horiz-adv-x="277" 
d="M64 0h151v719h-151v-719zM-54 936l146 -147h102l-96 147h-152z" />
    <glyph glyph-name="Iacute" unicode="&#xcd;" horiz-adv-x="277" 
d="M64 0h151v719h-151v-719zM324 936h-154l-94 -147h100z" />
    <glyph glyph-name="Icircumflex" unicode="&#xce;" horiz-adv-x="277" 
d="M64 0h151v719h-151v-719zM197 936h-125l-115 -147h114l62 83l64 -83h114z" />
    <glyph glyph-name="Idieresis" unicode="&#xcf;" horiz-adv-x="277" 
d="M64 0h151v719h-151v-719zM100 914h-127v-115h127v115zM295 914h-127v-115h127v115z" />
    <glyph glyph-name="Eth" unicode="&#xd0;" horiz-adv-x="723" 
d="M76 316v-316h313q83 0 142 35t93 92q36 60 49 123q13 62 13 127q0 60 -12 117q-14 58 -45 110q-31 53 -90 84q-58 31 -144 31h-319v-278h-80v-125h80zM225 596h142q42 0 78 -15q38 -16 63 -69q25 -51 25 -147q0 -66 -16 -117q-17 -55 -53 -88q-38 -35 -95 -35h-144v191
h166v125h-166v155z" />
    <glyph glyph-name="Ntilde" unicode="&#xd1;" horiz-adv-x="723" 
d="M68 0h141l2 512l293 -512h150v719h-140l-2 -500l-285 500h-159v-719zM203 797h65q7 43 43 43l33 -6l43 -13q6 -2 17 -5q20 -6 27 -8q20 -5 30 -5q19 0 37 8t32 21q27 27 41 92h-65q-11 -41 -49 -41l-22 5l-17 5l-49 20q-32 7 -48 7q-45 0 -76 -31q-32 -32 -42 -92z" />
    <glyph glyph-name="Ograve" unicode="&#xd2;" horiz-adv-x="777" 
d="M45 322q0 -47 13 -89q12 -44 33 -85q40 -75 118 -122q76 -46 180 -46q76 0 142 26q64 26 109 74q44 47 70 117q24 69 24 158q0 103 -28 175t-76 118q-46 45 -110 68q-60 22 -127 22q-117 0 -197 -50q-78 -49 -115 -137q-36 -88 -36 -203v-26zM193 377q0 39 10 73
q9 37 24 62q30 53 72 75q40 22 86 22q124 0 161 -84q38 -85 38 -179q0 -57 -19 -110q-20 -54 -62 -91q-44 -38 -114 -38q-102 0 -149 77t-47 193zM196 936l146 -147h102l-96 147h-152z" />
    <glyph glyph-name="Oacute" unicode="&#xd3;" horiz-adv-x="777" 
d="M45 322q0 -47 13 -89q12 -44 33 -85q40 -75 118 -122q76 -46 180 -46q76 0 142 26q64 26 109 74q44 47 70 117q24 69 24 158q0 103 -28 175t-76 118q-46 45 -110 68q-60 22 -127 22q-117 0 -197 -50q-78 -49 -115 -137q-36 -88 -36 -203v-26zM193 377q0 39 10 73
q9 37 24 62q30 53 72 75q40 22 86 22q124 0 161 -84q38 -85 38 -179q0 -57 -19 -110q-20 -54 -62 -91q-44 -38 -114 -38q-102 0 -149 77t-47 193zM574 936h-154l-94 -147h100z" />
    <glyph glyph-name="Ocircumflex" unicode="&#xd4;" horiz-adv-x="777" 
d="M45 322q0 -47 13 -89q12 -44 33 -85q40 -75 118 -122q76 -46 180 -46q76 0 142 26q64 26 109 74q44 47 70 117q24 69 24 158q0 103 -28 175t-76 118q-46 45 -110 68q-60 22 -127 22q-117 0 -197 -50q-78 -49 -115 -137q-36 -88 -36 -203v-26zM193 377q0 39 10 73
q9 37 24 62q30 53 72 75q40 22 86 22q124 0 161 -84q38 -85 38 -179q0 -57 -19 -110q-20 -54 -62 -91q-44 -38 -114 -38q-102 0 -149 77t-47 193zM447 936h-125l-115 -147h114l62 83l64 -83h114z" />
    <glyph glyph-name="Otilde" unicode="&#xd5;" horiz-adv-x="777" 
d="M45 322q0 -47 13 -89q12 -44 33 -85q40 -75 118 -122q76 -46 180 -46q76 0 142 26q64 26 109 74q44 47 70 117q24 69 24 158q0 103 -28 175t-76 118q-46 45 -110 68q-60 22 -127 22q-117 0 -197 -50q-78 -49 -115 -137q-36 -88 -36 -203v-26zM193 377q0 39 10 73
q9 37 24 62q30 53 72 75q40 22 86 22q124 0 161 -84q38 -85 38 -179q0 -57 -19 -110q-20 -54 -62 -91q-44 -38 -114 -38q-102 0 -149 77t-47 193zM203 797h65q7 43 43 43l33 -6l43 -13q6 -2 17 -5q20 -6 27 -8q20 -5 30 -5q19 0 37 8t32 21q27 27 41 92h-65q-11 -41 -49 -41
l-22 5l-17 5l-49 20q-32 7 -48 7q-45 0 -76 -31q-32 -32 -42 -92z" />
    <glyph glyph-name="Odieresis" unicode="&#xd6;" horiz-adv-x="777" 
d="M45 322q0 -47 13 -89q12 -44 33 -85q40 -75 118 -122q76 -46 180 -46q76 0 142 26q64 26 109 74q44 47 70 117q24 69 24 158q0 103 -28 175t-76 118q-46 45 -110 68q-60 22 -127 22q-117 0 -197 -50q-78 -49 -115 -137q-36 -88 -36 -203v-26zM193 377q0 39 10 73
q9 37 24 62q30 53 72 75q40 22 86 22q124 0 161 -84q38 -85 38 -179q0 -57 -19 -110q-20 -54 -62 -91q-44 -38 -114 -38q-102 0 -149 77t-47 193zM350 914h-127v-115h127v115zM545 914h-127v-115h127v115z" />
    <glyph glyph-name="multiply" unicode="&#xd7;" horiz-adv-x="572" 
d="M427 131l79 79l-139 139l139 140l-79 79l-140 -140l-139 140l-79 -79l139 -140l-139 -139l79 -79l140 139z" />
    <glyph glyph-name="Oslash" unicode="&#xd8;" horiz-adv-x="777" 
d="M746 709l-43 37l-82 -90q-52 46 -114 64q-63 18 -116 18q-43 0 -102 -14q-58 -14 -113 -54q-56 -40 -94 -116q-37 -74 -37 -195q0 -159 74 -254l-86 -93l43 -39l82 91q52 -46 115 -64q62 -18 118 -18q41 0 100 14q57 13 113 53q56 39 93 115t37 195q0 164 -74 256z
M221 219q-26 60 -26 140q0 135 59 194q58 58 137 58q82 0 134 -58zM557 502q29 -56 29 -143q0 -93 -30 -149q-31 -57 -74 -79q-42 -22 -91 -22q-84 0 -139 59z" />
    <glyph glyph-name="Ugrave" unicode="&#xd9;" horiz-adv-x="723" 
d="M72 238q0 -92 42 -149q39 -57 106 -83q66 -26 139 -26q61 0 115 14q52 13 91 42q39 28 63 83q24 54 24 127v473h-154v-473q0 -139 -144 -139q-30 0 -61 14q-30 13 -49 46q-19 31 -19 85v467h-153v-481zM196 936l146 -147h102l-96 147h-152z" />
    <glyph glyph-name="Uacute" unicode="&#xda;" horiz-adv-x="723" 
d="M72 238q0 -92 42 -149q39 -57 106 -83q66 -26 139 -26q61 0 115 14q52 13 91 42q39 28 63 83q24 54 24 127v473h-154v-473q0 -139 -144 -139q-30 0 -61 14q-30 13 -49 46q-19 31 -19 85v467h-153v-481zM574 936h-154l-94 -147h100z" />
    <glyph glyph-name="Ucircumflex" unicode="&#xdb;" horiz-adv-x="723" 
d="M72 238q0 -92 42 -149q39 -57 106 -83q66 -26 139 -26q61 0 115 14q52 13 91 42q39 28 63 83q24 54 24 127v473h-154v-473q0 -139 -144 -139q-30 0 -61 14q-30 13 -49 46q-19 31 -19 85v467h-153v-481zM414 936h-125l-115 -147h114l62 83l64 -83h114z" />
    <glyph glyph-name="Udieresis" unicode="&#xdc;" horiz-adv-x="723" 
d="M72 238q0 -92 42 -149q39 -57 106 -83q66 -26 139 -26q61 0 115 14q52 13 91 42q39 28 63 83q24 54 24 127v473h-154v-473q0 -139 -144 -139q-30 0 -61 14q-30 13 -49 46q-19 31 -19 85v467h-153v-481zM317 914h-127v-115h127v115zM512 914h-127v-115h127v115z" />
    <glyph glyph-name="Yacute" unicode="&#xdd;" horiz-adv-x="668" 
d="M264 0h150v270l240 449h-172l-140 -313l-151 313h-175l248 -448v-271zM541 936h-154l-94 -147h100z" />
    <glyph glyph-name="Thorn" unicode="&#xde;" horiz-adv-x="668" 
d="M76 0h151v160h171q88 0 140 40t71 93q20 55 20 96q0 69 -27 123q-28 53 -78 81q-49 28 -120 28h-177v98h-151v-207v-512zM227 283v213h119q70 0 102 -23q31 -24 31 -77q0 -43 -20 -78q-21 -35 -94 -35h-138z" />
    <glyph glyph-name="germandbls" unicode="&#xdf;" horiz-adv-x="611" 
d="M279 -8q36 -6 55 -6q88 0 143 36q54 34 79 91q24 56 24 117q0 59 -22 104q-22 46 -91 78q33 16 53 49q19 31 19 74q0 84 -40 127q-40 44 -93 57q-51 13 -103 13q-77 0 -129 -25t-78 -70q-26 -44 -26 -98v-539h139v531q0 47 27 68q28 20 61 20q101 0 101 -88
q0 -37 -15 -57q-16 -19 -32 -22l-5 -1q-17 -3 -26 -4q-22 -2 -33 -2v-97q17 0 39 -2q12 -2 41 -9q24 -6 49 -32q23 -28 23 -78q0 -125 -130 -125h-30v-110z" />
    <glyph glyph-name="agrave" unicode="&#xe0;" 
d="M29 139q0 -54 27 -89q26 -37 63 -50q39 -14 78 -14q37 0 66 10q29 11 54 27q24 16 46 40q0 -14 6 -37q1 -3 4 -13q3 -8 4 -13h150v21q-19 6 -25 27t-6 56v289q0 31 -13 64q-13 35 -63 63q-49 27 -145 27q-35 0 -67 -6q-33 -6 -55 -15q-47 -19 -74 -61q-26 -41 -32 -106
h135q5 44 27 60q24 15 66 15q84 0 84 -65q0 -32 -46 -39l-129 -19q-67 -10 -111 -51t-44 -121zM359 260v-69q0 -34 -20 -59q-20 -23 -47 -34q-18 -7 -29 -9q-10 -3 -25 -3q-30 0 -49 16q-19 15 -19 44q0 36 20 54q20 17 51 24l67 14q33 7 51 22zM127 734l146 -147h102
l-96 147h-152z" />
    <glyph glyph-name="aacute" unicode="&#xe1;" 
d="M29 139q0 -54 27 -89q26 -37 63 -50q39 -14 78 -14q37 0 66 10q29 11 54 27q24 16 46 40q0 -14 6 -37q1 -3 4 -13q3 -8 4 -13h150v21q-19 6 -25 27t-6 56v289q0 31 -13 64q-13 35 -63 63q-49 27 -145 27q-35 0 -67 -6q-33 -6 -55 -15q-47 -19 -74 -61q-26 -41 -32 -106
h135q5 44 27 60q24 15 66 15q84 0 84 -65q0 -32 -46 -39l-129 -19q-67 -10 -111 -51t-44 -121zM359 260v-69q0 -34 -20 -59q-20 -23 -47 -34q-18 -7 -29 -9q-10 -3 -25 -3q-30 0 -49 16q-19 15 -19 44q0 36 20 54q20 17 51 24l67 14q33 7 51 22zM439 734h-154l-94 -147h100z
" />
    <glyph glyph-name="acircumflex" unicode="&#xe2;" 
d="M29 139q0 -54 27 -89q26 -37 63 -50q39 -14 78 -14q37 0 66 10q29 11 54 27q24 16 46 40q0 -14 6 -37q1 -3 4 -13q3 -8 4 -13h150v21q-19 6 -25 27t-6 56v289q0 31 -13 64q-13 35 -63 63q-49 27 -145 27q-35 0 -67 -6q-33 -6 -55 -15q-47 -19 -74 -61q-26 -41 -32 -106
h135q5 44 27 60q24 15 66 15q84 0 84 -65q0 -32 -46 -39l-129 -19q-67 -10 -111 -51t-44 -121zM359 260v-69q0 -34 -20 -59q-20 -23 -47 -34q-18 -7 -29 -9q-10 -3 -25 -3q-30 0 -49 16q-19 15 -19 44q0 36 20 54q20 17 51 24l67 14q33 7 51 22zM345 734h-125l-115 -147h114
l62 83l64 -83h114z" />
    <glyph glyph-name="atilde" unicode="&#xe3;" 
d="M29 139q0 -54 27 -89q26 -37 63 -50q39 -14 78 -14q37 0 66 10q29 11 54 27q24 16 46 40q0 -14 6 -37q1 -3 4 -13q3 -8 4 -13h150v21q-19 6 -25 27t-6 56v289q0 31 -13 64q-13 35 -63 63q-49 27 -145 27q-35 0 -67 -6q-33 -6 -55 -15q-47 -19 -74 -61q-26 -41 -32 -106
h135q5 44 27 60q24 15 66 15q84 0 84 -65q0 -32 -46 -39l-129 -19q-67 -10 -111 -51t-44 -121zM359 260v-69q0 -34 -20 -59q-20 -23 -47 -34q-18 -7 -29 -9q-10 -3 -25 -3q-30 0 -49 16q-19 15 -19 44q0 36 20 54q20 17 51 24l67 14q33 7 51 22zM101 595h65q7 43 43 43
l33 -6l43 -13q6 -2 17 -5q20 -6 27 -8q20 -5 30 -5q19 0 37 8t32 21q27 27 41 92h-65q-11 -41 -49 -41l-22 5l-17 5l-49 20q-32 7 -48 7q-45 0 -76 -31q-32 -32 -42 -92z" />
    <glyph glyph-name="adieresis" unicode="&#xe4;" 
d="M29 139q0 -54 27 -89q26 -37 63 -50q39 -14 78 -14q37 0 66 10q29 11 54 27q24 16 46 40q0 -14 6 -37q1 -3 4 -13q3 -8 4 -13h150v21q-19 6 -25 27t-6 56v289q0 31 -13 64q-13 35 -63 63q-49 27 -145 27q-35 0 -67 -6q-33 -6 -55 -15q-47 -19 -74 -61q-26 -41 -32 -106
h135q5 44 27 60q24 15 66 15q84 0 84 -65q0 -32 -46 -39l-129 -19q-67 -10 -111 -51t-44 -121zM359 260v-69q0 -34 -20 -59q-20 -23 -47 -34q-18 -7 -29 -9q-10 -3 -25 -3q-30 0 -49 16q-19 15 -19 44q0 36 20 54q20 17 51 24l67 14q33 7 51 22zM248 712h-127v-115h127v115z
M443 712h-127v-115h127v115z" />
    <glyph glyph-name="aring" unicode="&#xe5;" 
d="M29 139q0 -54 27 -89q26 -37 63 -50q39 -14 78 -14q37 0 66 10q29 11 54 27q24 16 46 40q0 -14 6 -37q1 -3 4 -13q3 -8 4 -13h150v21q-19 6 -25 27t-6 56v289q0 31 -13 64q-13 35 -63 63q-49 27 -145 27q-35 0 -67 -6q-33 -6 -55 -15q-47 -19 -74 -61q-26 -41 -32 -106
h135q5 44 27 60q24 15 66 15q84 0 84 -65q0 -32 -46 -39l-129 -19q-67 -10 -111 -51t-44 -121zM359 260v-69q0 -34 -20 -59q-20 -23 -47 -34q-18 -7 -29 -9q-10 -3 -25 -3q-30 0 -49 16q-19 15 -19 44q0 36 20 54q20 17 51 24l67 14q33 7 51 22zM283 793q-29 0 -54 -13
t-39 -38q-14 -26 -14 -52q0 -44 31 -75t76 -31t76 31t31 75q0 26 -14 51q-16 25 -40 38q-26 14 -53 14zM283 741q21 0 37 -15q16 -14 16 -36t-15 -37q-16 -16 -38 -16t-37 16q-16 15 -16 37q0 20 16 36q15 15 37 15z" />
    <glyph glyph-name="ae" unicode="&#xe6;" horiz-adv-x="889" 
d="M709 156q-7 -24 -33 -41t-57 -17q-73 0 -96 39q-23 40 -29 92h365v25q0 83 -23 144q-23 60 -60 91q-38 32 -79 45q-40 13 -88 13q-53 0 -86 -14q-30 -14 -70 -45q-25 24 -66 42q-43 17 -98 17q-62 0 -113 -15t-86 -57q-20 -24 -30 -52q-11 -30 -11 -64h137q0 77 84 77
q63 0 80 -17q17 -18 17 -44q0 -20 -4 -27q-5 -8 -19 -13q-12 -6 -49 -11l-131 -23q-71 -10 -103 -54t-32 -97q0 -63 29 -100q28 -36 70 -50q44 -14 91 -14q65 0 122 23q55 22 79 63q24 -29 42 -44q19 -17 58 -29q36 -13 99 -13q78 0 143 41t92 129h-145zM365 189
q0 -26 -17 -52q-19 -24 -46 -37q-28 -14 -54 -14q-37 0 -57 17q-21 17 -21 45q0 36 21 54q19 16 52 21l69 12q35 6 53 21v-67zM498 320q13 112 109 112q39 0 71 -26q17 -14 28 -36q9 -21 9 -50h-217z" />
    <glyph glyph-name="ccedilla" unicode="&#xe7;" 
d="M232 -10l-46 -74l19 -20q32 8 41 8q16 0 28 -9q11 -11 11 -26q0 -18 -15 -28q-17 -11 -32 -11q-26 0 -78 16l-21 -49q46 -17 67 -21q23 -5 48 -5q55 0 89 28t34 72q0 42 -28 60t-58 18q-20 0 -31 -4l29 41q63 0 111 25q48 24 75 60q26 35 35 65q2 5 6 21q3 10 4 14
q3 14 3 24h-142q0 -17 -9 -38q-10 -22 -32 -38q-23 -17 -53 -17q-69 0 -88 52q-21 53 -21 121q0 60 27 108q26 47 84 47q43 0 66 -26q22 -25 28 -60h142q0 36 -12 67q-13 30 -33 55q-37 46 -90 64q-54 17 -101 17q-89 0 -145 -37q-57 -38 -83 -103q-26 -67 -26 -155
q0 -56 17 -113t60 -97q45 -42 120 -52z" />
    <glyph glyph-name="egrave" unicode="&#xe8;" 
d="M23 277q0 -291 266 -291q54 0 103 20q47 20 81 58q33 36 50 92h-144q-7 -24 -33 -41t-57 -17q-60 0 -93 34q-34 33 -34 97h367v25q0 79 -24 146t-79 107t-147 40q-87 0 -146 -38q-58 -37 -84 -100t-26 -132zM168 318q15 114 109 114q44 0 74 -30q30 -33 34 -84h-217z
M94 768l146 -147h102l-96 147h-152z" />
    <glyph glyph-name="eacute" unicode="&#xe9;" 
d="M23 277q0 -291 266 -291q54 0 103 20q47 20 81 58q33 36 50 92h-144q-7 -24 -33 -41t-57 -17q-60 0 -93 34q-34 33 -34 97h367v25q0 79 -24 146t-79 107t-147 40q-87 0 -146 -38q-58 -37 -84 -100t-26 -132zM168 318q15 114 109 114q44 0 74 -30q30 -33 34 -84h-217z
M472 768h-154l-94 -147h100z" />
    <glyph glyph-name="ecircumflex" unicode="&#xea;" 
d="M23 277q0 -291 266 -291q54 0 103 20q47 20 81 58q33 36 50 92h-144q-7 -24 -33 -41t-57 -17q-60 0 -93 34q-34 33 -34 97h367v25q0 79 -24 146t-79 107t-147 40q-87 0 -146 -38q-58 -37 -84 -100t-26 -132zM168 318q15 114 109 114q44 0 74 -30q30 -33 34 -84h-217z
M345 768h-125l-115 -147h114l62 83l64 -83h114z" />
    <glyph glyph-name="edieresis" unicode="&#xeb;" 
d="M23 277q0 -291 266 -291q54 0 103 20q47 20 81 58q33 36 50 92h-144q-7 -24 -33 -41t-57 -17q-60 0 -93 34q-34 33 -34 97h367v25q0 79 -24 146t-79 107t-147 40q-87 0 -146 -38q-58 -37 -84 -100t-26 -132zM168 318q15 114 109 114q44 0 74 -30q30 -33 34 -84h-217z
M248 746h-127v-115h127v115zM443 746h-127v-115h127v115z" />
    <glyph glyph-name="igrave" unicode="&#xec;" horiz-adv-x="277" 
d="M70 533v-533h139v533h-139zM-54 768l146 -147h102l-96 147h-152z" />
    <glyph glyph-name="iacute" unicode="&#xed;" horiz-adv-x="277" 
d="M70 533v-533h139v533h-139zM324 768h-154l-94 -147h100z" />
    <glyph glyph-name="icircumflex" unicode="&#xee;" horiz-adv-x="277" 
d="M70 533v-533h139v533h-139zM212 768h-125l-115 -147h114l62 83l64 -83h114z" />
    <glyph glyph-name="idieresis" unicode="&#xef;" horiz-adv-x="277" 
d="M70 533v-533h139v533h-139zM100 746h-127v-115h127v115zM295 746h-127v-115h127v115z" />
    <glyph glyph-name="eth" unicode="&#xf0;" horiz-adv-x="611" 
d="M525 686l-62 52l-102 -45q-41 31 -80 45l-107 -49q17 -8 37 -20q17 -10 35 -24l-107 -47l62 -53l110 47q69 -62 95 -121l-2 -2q-28 34 -61 44t-62 10q-71 0 -127 -33t-87 -91q-32 -59 -32 -133q0 -144 82 -211q83 -69 194 -69q67 0 129 32q60 31 100 101q38 70 38 176
q0 54 -12 105q-12 50 -33 94q-22 45 -49 81q-30 39 -60 68zM307 406q50 0 79 -26t40 -58q10 -31 10 -56t-8 -65q-9 -39 -37 -67q-29 -29 -82 -29q-61 0 -96 41t-35 116q0 22 11 58q11 34 40 60t78 26z" />
    <glyph glyph-name="ntilde" unicode="&#xf1;" horiz-adv-x="611" 
d="M64 0h141v305q0 50 26 87q26 36 83 36q60 0 76 -28t16 -78v-322h141v369q0 56 -22 96q-22 39 -64 61q-43 21 -100 21q-108 0 -162 -92v78h-135v-533zM101 629h65q7 43 43 43l33 -6l43 -13q6 -2 17 -5q20 -6 27 -8q20 -5 30 -5q19 0 37 8t32 21q27 27 41 92h-65
q-11 -41 -49 -41l-22 5l-17 5l-49 20q-32 7 -48 7q-45 0 -76 -31q-32 -32 -42 -92z" />
    <glyph glyph-name="ograve" unicode="&#xf2;" horiz-adv-x="611" 
d="M33 266q0 -71 29 -135q28 -64 89 -104q62 -41 156 -41q87 0 148 37q60 35 92 99q31 62 31 144q0 66 -19 117q-19 50 -54 88q-34 37 -85 57q-48 19 -113 19q-71 0 -121 -22q-51 -22 -85 -61q-35 -39 -51 -91q-17 -54 -17 -107zM434 266q0 -65 -27 -113q-28 -49 -100 -49
q-74 0 -101 49q-28 47 -28 113q0 68 28 115q27 47 101 47q71 0 100 -47q27 -48 27 -115zM145 768l146 -147h102l-96 147h-152z" />
    <glyph glyph-name="oacute" unicode="&#xf3;" horiz-adv-x="611" 
d="M33 266q0 -71 29 -135q28 -64 89 -104q62 -41 156 -41q87 0 148 37q60 35 92 99q31 62 31 144q0 66 -19 117q-19 50 -54 88q-34 37 -85 57q-48 19 -113 19q-71 0 -121 -22q-51 -22 -85 -61q-35 -39 -51 -91q-17 -54 -17 -107zM434 266q0 -65 -27 -113q-28 -49 -100 -49
q-74 0 -101 49q-28 47 -28 113q0 68 28 115q27 47 101 47q71 0 100 -47q27 -48 27 -115zM457 768h-154l-94 -147h100z" />
    <glyph glyph-name="ocircumflex" unicode="&#xf4;" horiz-adv-x="611" 
d="M33 266q0 -71 29 -135q28 -64 89 -104q62 -41 156 -41q87 0 148 37q60 35 92 99q31 62 31 144q0 66 -19 117q-19 50 -54 88q-34 37 -85 57q-48 19 -113 19q-71 0 -121 -22q-51 -22 -85 -61q-35 -39 -51 -91q-17 -54 -17 -107zM434 266q0 -65 -27 -113q-28 -49 -100 -49
q-74 0 -101 49q-28 47 -28 113q0 68 28 115q27 47 101 47q71 0 100 -47q27 -48 27 -115zM378 768h-125l-115 -147h114l62 83l64 -83h114z" />
    <glyph glyph-name="otilde" unicode="&#xf5;" horiz-adv-x="611" 
d="M33 266q0 -71 29 -135q28 -64 89 -104q62 -41 156 -41q87 0 148 37q60 35 92 99q31 62 31 144q0 66 -19 117q-19 50 -54 88q-34 37 -85 57q-48 19 -113 19q-71 0 -121 -22q-51 -22 -85 -61q-35 -39 -51 -91q-17 -54 -17 -107zM434 266q0 -65 -27 -113q-28 -49 -100 -49
q-74 0 -101 49q-28 47 -28 113q0 68 28 115q27 47 101 47q71 0 100 -47q27 -48 27 -115zM119 629h65q7 43 43 43l33 -6l43 -13q6 -2 17 -5q20 -6 27 -8q20 -5 30 -5q19 0 37 8t32 21q27 27 41 92h-65q-11 -41 -49 -41l-22 5l-17 5l-49 20q-32 7 -48 7q-45 0 -76 -31
q-32 -32 -42 -92z" />
    <glyph glyph-name="odieresis" unicode="&#xf6;" horiz-adv-x="611" 
d="M33 266q0 -71 29 -135q28 -64 89 -104q62 -41 156 -41q87 0 148 37q60 35 92 99q31 62 31 144q0 66 -19 117q-19 50 -54 88q-34 37 -85 57q-48 19 -113 19q-71 0 -121 -22q-51 -22 -85 -61q-35 -39 -51 -91q-17 -54 -17 -107zM434 266q0 -65 -27 -113q-28 -49 -100 -49
q-74 0 -101 49q-28 47 -28 113q0 68 28 115q27 47 101 47q71 0 100 -47q27 -48 27 -115zM281 746h-127v-115h127v115zM476 746h-127v-115h127v115z" />
    <glyph glyph-name="divide" unicode="&#xf7;" horiz-adv-x="564" 
d="M35 303h473v131h-473v-131zM198 58h151v146h-151v-146zM196 520h151v146h-151v-146z" />
    <glyph glyph-name="oslash" unicode="&#xf8;" horiz-adv-x="611" 
d="M590 529l-35 32l-69 -73q-39 30 -83 45q-47 14 -96 14q-54 0 -102 -16q-49 -16 -88 -52q-38 -34 -60 -88q-22 -51 -22 -123q0 -120 61 -190l-73 -78l38 -29l68 74q74 -59 178 -59q51 0 102 17q50 17 88 52q37 34 60 89q21 53 21 124q0 117 -58 187zM420 352
q16 -32 16 -84q0 -68 -28 -115q-28 -48 -101 -48q-60 0 -88 34zM193 180q-15 39 -15 88q0 64 28 113t101 49q54 0 89 -35z" />
    <glyph glyph-name="ugrave" unicode="&#xf9;" horiz-adv-x="611" 
d="M545 533h-139v-308q0 -44 -16 -70q-16 -28 -42 -39q-27 -12 -51 -12q-90 0 -90 99v330h-141v-351q0 -96 50 -146t132 -50q54 0 94 22t70 66v-74h133v533zM127 768l146 -147h102l-96 147h-152z" />
    <glyph glyph-name="uacute" unicode="&#xfa;" horiz-adv-x="611" 
d="M545 533h-139v-308q0 -44 -16 -70q-16 -28 -42 -39q-27 -12 -51 -12q-90 0 -90 99v330h-141v-351q0 -96 50 -146t132 -50q54 0 94 22t70 66v-74h133v533zM505 768h-154l-94 -147h100z" />
    <glyph glyph-name="ucircumflex" unicode="&#xfb;" horiz-adv-x="611" 
d="M545 533h-139v-308q0 -44 -16 -70q-16 -28 -42 -39q-27 -12 -51 -12q-90 0 -90 99v330h-141v-351q0 -96 50 -146t132 -50q54 0 94 22t70 66v-74h133v533zM363 768h-125l-115 -147h114l62 83l64 -83h114z" />
    <glyph glyph-name="udieresis" unicode="&#xfc;" horiz-adv-x="611" 
d="M545 533h-139v-308q0 -44 -16 -70q-16 -28 -42 -39q-27 -12 -51 -12q-90 0 -90 99v330h-141v-351q0 -96 50 -146t132 -50q54 0 94 22t70 66v-74h133v533zM266 746h-127v-115h127v115zM461 746h-127v-115h127v115z" />
    <glyph glyph-name="yacute" unicode="&#xfd;" 
d="M207 -21q-4 -16 -9 -32q-4 -12 -10 -22q-13 -17 -30 -22q-18 -5 -45 -5l-25 2v-113l27 -1l35 -1q47 0 77 8q27 7 48 31q20 23 38 65l44 121l4 11l178 512h-148l-112 -392l-113 392h-156l15 -45zM490 768h-154l-94 -147h100z" />
    <glyph glyph-name="thorn" unicode="&#xfe;" horiz-adv-x="611" 
d="M76 0h151v160h171q88 0 140 40t71 93q20 55 20 96q0 69 -27 123q-28 53 -78 81q-49 28 -120 28h-177v98h-151v-207v-512zM227 283v213h119q70 0 102 -23q31 -24 31 -77q0 -43 -20 -78q-21 -35 -94 -35h-138z" />
    <glyph glyph-name="ydieresis" unicode="&#xff;" 
d="M207 -21q-4 -16 -9 -32q-4 -12 -10 -22q-13 -17 -30 -22q-18 -5 -45 -5l-25 2v-113l27 -1l35 -1q47 0 77 8q27 7 48 31q20 23 38 65l44 121l4 11l178 512h-148l-112 -392l-113 392h-156l15 -45zM248 746h-127v-115h127v115zM443 746h-127v-115h127v115z" />
    </font>
</defs>
</svg>
