<?xml version="1.0" standalone="no"?>
<!DOCTYPE svg PUBLIC "-//W3C//DTD SVG 1.1//EN" "http://www.w3.org/Graphics/SVG/1.1/DTD/svg11.dtd" >
<svg>
<metadata>
Created by FontForge 20110222 at Sat Jun 28 09:47:45 2014
 By Orthosie Webhosting
Copyright (c) 2014, Cooper Hewitt Smithsonian Design Museum (cooperhewitt.org)
</metadata>
<defs>
<font id="CooperHewitt-Thin" horiz-adv-x="300" >
  <font-face 
    font-family="Cooper Hewitt"
    font-weight="701"
    font-stretch="normal"
    units-per-em="1000"
    panose-1="0 0 0 0 0 0 0 0 0 0"
    ascent="750"
    descent="-250"
    x-height="530"
    cap-height="780"
    bbox="-200 -206 1375 1030"
    underline-thickness="20"
    underline-position="-70"
    unicode-range="U+0020-F222"
  />
<missing-glyph horiz-adv-x="963" 
d="M92 0v780h780v-780h-780zM482 345l-279 -279h558zM203 714l279 -279l279 279h-558zM437 390l-275 275v-550zM527 390l275 -275v550z" />
    <glyph glyph-name=".notdef" horiz-adv-x="963" 
d="M92 0v780h780v-780h-780zM482 345l-279 -279h558zM203 714l279 -279l279 279h-558zM437 390l-275 275v-550zM527 390l275 -275v550z" />
    <glyph glyph-name=".null" horiz-adv-x="0" 
 />
    <glyph glyph-name="nonmarkingreturn" horiz-adv-x="333" 
 />
    <glyph glyph-name="space" unicode=" " horiz-adv-x="180" 
 />
    <glyph glyph-name="exclam" unicode="!" horiz-adv-x="180" 
d="M80 780h20l-3 -605h-14zM110 40v-40h-40v40h40z" />
    <glyph glyph-name="quotedbl" unicode="&#x22;" horiz-adv-x="280" 
d="M80 780h20l-5 -250h-10zM180 780h20l-5 -250h-10z" />
    <glyph glyph-name="numbersign" unicode="#" horiz-adv-x="600" 
d="M100 510v20h117l60 250h20l-60 -250h193l60 250h20l-60 -250h113v-20h-118l-58 -240h113v-20h-118l-59 -250h-20l60 250h-194l-59 -250h-20l60 250h-113v20h118l57 240h-112zM232 510l-58 -240h194l57 240h-193z" />
    <glyph glyph-name="dollar" unicode="$" horiz-adv-x="600" 
d="M413 840l-31 -131q69 -19 103.5 -70.5t34.5 -126.5v-14h-20q0 158 -123 192l-67 -281q112 -12 163.5 -52t51.5 -114v-8q0 -81 -63.5 -128t-161.5 -47q-41 0 -72 7l-30 -127h-20l31 132q-67 21 -100.5 72.5t-33.5 121.5v5h20q0 -141 119 -180l72 301q-110 13 -158 50.5
t-48 102.5v8q0 75 62.5 121t156.5 46q34 0 64 -6l30 126h20zM505 239q0 72 -48 105t-152 46l-72 -304q28 -6 65 -6h3q89 0 146.5 41.5t57.5 112.5v5zM101 549q0 -62 43 -93.5t146 -44.5l68 284q-28 5 -57 5h-3q-83 0 -140 -40t-57 -106v-5z" />
    <glyph glyph-name="percent" unicode="%" horiz-adv-x="900" 
d="M846 165v-10q0 -75 -40.5 -118t-107.5 -43t-107.5 43t-40.5 118v10q0 75 40.5 118t107.5 43t107.5 -43t40.5 -118zM570 168v-16q0 -60 34 -99t91 -39h6q57 0 91 39t34 99v16q0 60 -34 99t-91 39h-6q-57 0 -91 -39t-34 -99zM330 612v16q0 60 -34 99t-91 39h-6
q-57 0 -91 -39t-34 -99v-16q0 -60 34 -99t91 -39h6q57 0 91 39t34 99zM277 0l314 753q-71 -23 -151 -23q-70 0 -130 13q40 -45 40 -118v-10q0 -75 -40.5 -118t-107.5 -43t-107.5 43t-40.5 118v10q0 75 40.5 118t107.5 43q30 0 56 -9q82 -27 182 -27q92 0 177 30v-15
l-318 -765h-22z" />
    <glyph glyph-name="ampersand" unicode="&#x26;" horiz-adv-x="640" 
d="M275 -6q-102 0 -158.5 53t-56.5 153v10q0 69 37.5 118t104.5 95q-62 66 -89.5 109.5t-27.5 97.5v10q0 63 43 104.5t122 41.5t122 -41.5t43 -104.5v-10q0 -18 -5 -34.5t-11 -29.5t-19.5 -28.5t-23 -24.5t-29.5 -24.5t-30 -22t-34 -22.5l-33 -22l265 -280q49 92 50 248v5
h20q0 -168 -55 -268l120 -127h-26l-104 110q-74 -116 -225 -116zM272 14h6q139 0 208 110l-272 287q-63 -45 -98.5 -91t-35.5 -110v-10q0 -88 50 -137t142 -49zM105 640v-10q0 -35 17 -70.5t37 -60t59 -65.5q7 5 28.5 19t29.5 19.5t26 18.5t26 20t21.5 19.5t19.5 22.5t13 23
t10 26.5t3 27.5v10q0 55 -37 90.5t-104 35.5h-8q-67 0 -104 -35.5t-37 -90.5z" />
    <glyph glyph-name="quotesingle" unicode="'" horiz-adv-x="180" 
d="M80 780h20l-5 -250h-10z" />
    <glyph glyph-name="parenleft" unicode="(" 
d="M65 350v20q0 158 42.5 264t119.5 206h23q-80 -101 -122.5 -209.5t-42.5 -260.5v-20q0 -152 42.5 -260.5t122.5 -209.5h-23q-77 100 -119.5 206t-42.5 264z" />
    <glyph glyph-name="parenright" unicode=")" 
d="M235 370v-20q0 -158 -42.5 -264t-119.5 -206h-23q80 101 122.5 209.5t42.5 260.5v20q0 152 -42.5 260.5t-122.5 209.5h23q77 -100 119.5 -206t42.5 -264z" />
    <glyph glyph-name="asterisk" unicode="*" horiz-adv-x="380" 
d="M180 800h20v-150h-20v150zM92 468l-16 12l88 121l16 -11zM15 666l6 19l143 -46l-6 -19zM304 480l-16 -12l-88 122l16 11zM359 685l6 -19l-143 -46l-6 19z" />
    <glyph glyph-name="plus" unicode="+" horiz-adv-x="600" 
d="M290 640h20v-240h240v-20h-240v-240h-20v240h-240v20h240v240z" />
    <glyph glyph-name="comma" unicode="," horiz-adv-x="180" 
d="M110 40v-32q0 -56 -23 -84.5t-62 -28.5v20q64 0 65 85h-20v40h40z" />
    <glyph glyph-name="hyphen" unicode="-" horiz-adv-x="320" 
d="M50 330v20h220v-20h-220z" />
    <glyph glyph-name="period" unicode="." horiz-adv-x="180" 
d="M110 40v-40h-40v40h40z" />
    <glyph glyph-name="slash" unicode="/" 
d="M275 840l-230 -960h-20l230 960h20z" />
    <glyph glyph-name="zero" unicode="0" horiz-adv-x="600" 
d="M70 544q0 112 58.5 177t171.5 65t171.5 -65t58.5 -177v-308q0 -112 -58.5 -177t-171.5 -65t-171.5 65t-58.5 177v308zM90 250q0 -120 54.5 -178t152.5 -58h6q98 0 152.5 58t54.5 178v280q0 120 -54.5 178t-152.5 58h-6q-98 0 -152.5 -58t-54.5 -178v-280z" />
    <glyph glyph-name="one" unicode="1" horiz-adv-x="600" 
d="M540 0h-460v20h220v737l-219 -147l-11 17l235 158h15v-765h220v-20z" />
    <glyph glyph-name="two" unicode="2" horiz-adv-x="600" 
d="M205 20h330v-20h-470v15l349 366q58 61 79.5 101t21.5 98v10q0 80 -61.5 128t-149.5 48h-8q-117 0 -164 -60.5t-47 -185.5h-20v25q0 119 56.5 180t178.5 61q100 0 167.5 -53.5t67.5 -142.5v-10q0 -62 -22 -104t-86 -109l-332 -348z" />
    <glyph glyph-name="three" unicode="3" horiz-adv-x="600" 
d="M513 597q0 75 -61.5 122t-149.5 47h-6q-107 0 -159 -58.5t-52 -187.5h-20v25q0 115 58 178t177 63q101 0 168 -52.5t67 -141.5v-10q0 -73 -39 -121t-107 -63q151 -32 151 -193v-10q0 -97 -67 -149t-173 -52q-117 0 -178.5 66.5t-61.5 179.5v10h20q0 -116 56 -176t161 -60
h6q96 0 156.5 46.5t60.5 131.5v15q0 87 -52 134t-145 47h-123v20h123q85 0 137.5 46t52.5 123v20z" />
    <glyph glyph-name="four" unicode="4" horiz-adv-x="600" 
d="M410 0h-20v230h-350v15l345 535h25v-530h150v-20h-150v-230zM391 753l-325 -504l114 1h210v350z" />
    <glyph glyph-name="five" unicode="5" horiz-adv-x="600" 
d="M297 466q-78 0 -132.5 -34t-78.5 -99l-20 6l19 441h445v-20h-426l-16 -380q64 106 212 106q104 0 172 -65.5t68 -175.5v-10q0 -110 -68 -175.5t-172 -65.5q-117 0 -178.5 66.5t-61.5 179.5v10h20q0 -116 56 -176t161 -60h6q94 0 155.5 60t61.5 158v16q0 98 -61.5 158
t-155.5 60h-6z" />
    <glyph glyph-name="six" unicode="6" horiz-adv-x="600" 
d="M510 786v-19q-88 0 -174 -43t-145 -125q-79 -111 -99 -241q32 57 88 92.5t130 35.5q103 0 169 -65.5t66 -175.5v-10q0 -110 -68 -175.5t-172 -65.5t-172 70t-68 191v10q0 197 112 347q63 85 151 129.5t182 44.5zM307 466q-74 0 -134.5 -43.5t-85.5 -109.5q-2 -32 -2 -45
v-16q0 -108 61 -173t156 -65h6q94 0 155.5 60t61.5 158v16q0 98 -59 158t-153 60h-6z" />
    <glyph glyph-name="seven" unicode="7" horiz-adv-x="600" 
d="M70 500v280h470v-15l-317 -765h-22l316 761l-117 -1h-310v-260h-20z" />
    <glyph glyph-name="eight" unicode="8" horiz-adv-x="600" 
d="M535 582q0 -73 -39 -121t-107 -63q151 -32 151 -193v-10q0 -97 -67 -149t-173 -52t-173 52t-67 149v10q0 161 150 193q-68 15 -106.5 63t-38.5 121v10q0 89 67 141.5t168 52.5t168 -52.5t67 -141.5v-10zM277 388q-93 0 -145 -47t-52 -134v-15q0 -85 60.5 -131.5
t156.5 -46.5h6q96 0 156.5 46.5t60.5 131.5v15q0 87 -52 134t-145 47h-46zM303 766h-6q-87 0 -148.5 -47t-61.5 -122v-20q0 -77 52.5 -123t137.5 -46h46q85 0 137.5 46t52.5 123v20q0 75 -61.5 122t-148.5 47z" />
    <glyph glyph-name="nine" unicode="9" horiz-adv-x="600" 
d="M90 -6v19q88 0 174 43t145 125q78 109 99 240q-33 -57 -89 -92t-129 -35q-103 0 -169 65.5t-66 175.5v10q0 110 68 175.5t172 65.5t172 -70t68 -191v-10q0 -197 -112 -347q-63 -85 -151 -129.5t-182 -44.5zM287 314h6q74 0 134 43.5t86 109.5q2 30 2 45v16q0 108 -61 173
t-156 65h-6q-94 0 -155.5 -60t-61.5 -158v-16q0 -98 59 -158t153 -60z" />
    <glyph glyph-name="colon" unicode=":" horiz-adv-x="180" 
d="M110 40v-40h-40v40h40zM110 410v-40h-40v40h40z" />
    <glyph glyph-name="semicolon" unicode=";" horiz-adv-x="180" 
d="M110 410v-40h-40v40h40zM110 40v-32q0 -56 -23 -84.5t-62 -28.5v20q64 0 65 85h-20v40h40z" />
    <glyph glyph-name="less" unicode="&#x3c;" horiz-adv-x="600" 
d="M50 400l500 246v-22l-480 -234l480 -234v-22l-500 246v20z" />
    <glyph glyph-name="equal" unicode="=" horiz-adv-x="600" 
d="M50 480v20h500v-20h-500zM50 280v20h500v-20h-500z" />
    <glyph glyph-name="greater" unicode="&#x3e;" horiz-adv-x="600" 
d="M550 380l-500 -246v22l480 234l-480 234v22l500 -246v-20z" />
    <glyph glyph-name="question" unicode="?" horiz-adv-x="440" 
d="M227 175h-14q0 55 17.5 103t42.5 82.5t50 66t42.5 69.5t17.5 79q0 80 -38 135.5t-122 55.5q-170 0 -170 -266h-20v7q0 279 190 279q63 0 105 -32t58.5 -76t16.5 -96q0 -46 -17.5 -87t-43 -73t-51 -66t-44.5 -80.5t-20 -100.5zM240 40v-40h-40v40h40z" />
    <glyph glyph-name="at" unicode="@" horiz-adv-x="930" 
d="M487 -186h6q96 0 174 22t155 77l12 -16q-138 -103 -344 -103q-201 0 -328 130.5t-127 345.5v40q0 216 125 346t325 130q173 0 291.5 -107t118.5 -294v-30q0 -87 -19 -146.5t-56 -91t-82.5 -44.5t-107.5 -13h-5l-7 79q-23 -33 -66.5 -59t-99.5 -26q-97 0 -149.5 63.5
t-52.5 167.5v20q0 104 52.5 167.5t149.5 63.5q56 0 99.5 -26t66.5 -59l7 79h15l-5 -120v-230l4 -100q55 0 94 11t73.5 39.5t51.5 84.5t17 140v30q0 93 -32 167t-86 120t-123 70t-146 24h-6q-189 0 -308 -123t-119 -333v-40q0 -210 121.5 -333t310.5 -123zM615 423
q-61 93 -162 93q-87 0 -135 -57.5t-48 -153.5v-20q0 -96 48 -153.5t135 -57.5q101 0 162 93v256z" />
    <glyph glyph-name="A" unicode="A" horiz-adv-x="590" 
d="M285 790h20l250 -790h-21l-72 230h-334l-72 -230h-21zM295 760l-160 -510h320z" />
    <glyph glyph-name="B" unicode="B" horiz-adv-x="552" 
d="M80 780h179q215 0 215 -188v-16q0 -149 -135 -177q155 -23 155 -185v-20q0 -194 -215 -194h-199v780zM277 388h-177v-368h177q196 0 196 175v18q0 175 -196 175zM257 760h-157v-352h157q29 0 52 2.5t51.5 12.5t47.5 27.5t32 50t13 76.5v14q0 44 -13 76.5t-32 50
t-47.5 27.5t-51.5 12.5t-52 2.5z" />
    <glyph glyph-name="C" unicode="C" horiz-adv-x="593" 
d="M65 410q0 198 61.5 287t188.5 89q114 0 167 -63t53 -203v-20h-20q0 146 -46 206t-151 60h-6q-114 0 -170.5 -83.5t-56.5 -272.5v-40q0 -189 56.5 -272.5t170.5 -83.5h6q197 0 197 236h20v-14q0 -113 -54 -177.5t-166 -64.5q-127 0 -188.5 89t-61.5 287v40z" />
    <glyph glyph-name="D" unicode="D" horiz-adv-x="615" 
d="M555 370q0 -370 -285 -370h-190v780h190q285 0 285 -370v-40zM100 20h165q270 0 270 350v40q0 350 -270 350h-165v-740z" />
    <glyph glyph-name="E" unicode="E" horiz-adv-x="540" 
d="M80 780h410v-20h-390v-352h340v-20h-340v-368h390v-20h-410v780z" />
    <glyph glyph-name="F" unicode="F" horiz-adv-x="484" 
d="M80 780h390v-20h-370v-352h320v-20h-320v-388h-20v780z" />
    <glyph glyph-name="G" unicode="G" horiz-adv-x="625" 
d="M336 -6q-136 0 -203.5 88.5t-67.5 287.5v40q0 198 66 287t194 89q225 0 225 -263v-23h-20q0 140 -47.5 203t-154.5 63h-6q-115 0 -176 -84t-61 -272v-40q0 -189 62.5 -272.5t185.5 -83.5h6q68 0 117 21t74 53v254h-159v20h179v-283q-66 -85 -214 -85z" />
    <glyph glyph-name="H" unicode="H" horiz-adv-x="620" 
d="M520 780h20v-780h-20v388h-420v-388h-20v780h20v-372h420v372z" />
    <glyph glyph-name="I" unicode="I" horiz-adv-x="190" 
d="M105 780v-780h-20v780h20z" />
    <glyph glyph-name="J" unicode="J" horiz-adv-x="470" 
d="M373 780h20v-540q0 -246 -180 -246t-180 246v7h20q0 -116 36.5 -174.5t123.5 -58.5q88 0 124 58.5t36 174.5v533z" />
    <glyph glyph-name="K" unicode="K" horiz-adv-x="518" 
d="M100 780v-501l356 501h24l-241 -339l241 -441h-24l-229 424l-127 -178v-246h-20v780h20z" />
    <glyph glyph-name="L" unicode="L" horiz-adv-x="464" 
d="M450 0h-370v780h20v-760h350v-20z" />
    <glyph glyph-name="M" unicode="M" horiz-adv-x="760" 
d="M380 28l279 752h21v-780h-20v561l3 173l-273 -734h-20l-273 734l3 -173v-561h-20v780h21z" />
    <glyph glyph-name="N" unicode="N" horiz-adv-x="640" 
d="M541 29l-1 151v600h20v-780h-25l-436 751l1 -151v-600h-20v780h25z" />
    <glyph glyph-name="O" unicode="O" horiz-adv-x="630" 
d="M65 410q0 198 61.5 287t188.5 89t188.5 -89t61.5 -287v-40q0 -198 -61.5 -287t-188.5 -89t-188.5 89t-61.5 287v40zM85 370q0 -189 56.5 -272.5t170.5 -83.5h6q114 0 170.5 83.5t56.5 272.5v40q0 189 -56.5 272.5t-170.5 83.5h-6q-114 0 -170.5 -83.5t-56.5 -272.5v-40z
" />
    <glyph glyph-name="P" unicode="P" horiz-adv-x="544" 
d="M100 340v-340h-20v780h193q43 0 79.5 -10t70 -32t52.5 -65t19 -103v-20q0 -60 -19 -103t-52.5 -65t-70 -32t-79.5 -10h-173zM100 360h172q36 0 67 7t63.5 26t51.5 59.5t19 98.5v18q0 58 -19 98.5t-51.5 59.5t-63.5 26t-67 7h-172v-400z" />
    <glyph glyph-name="Q" unicode="Q" horiz-adv-x="626" 
d="M65 410q0 198 61.5 287t188.5 89t188.5 -89t61.5 -287v-40q0 -160 -40 -248t-121 -115l41 -107h-20l-39 102q-35 -8 -71 -8q-127 0 -188.5 89t-61.5 287v40zM85 370q0 -189 56.5 -272.5t170.5 -83.5h6q34 0 61 7l-69 184h20l67 -179q148 50 148 344v40q0 189 -56.5 272.5
t-170.5 83.5h-6q-114 0 -170.5 -83.5t-56.5 -272.5v-40z" />
    <glyph glyph-name="R" unicode="R" horiz-adv-x="553" 
d="M100 340v-340h-20v780h193q43 0 79.5 -10t70 -32t52.5 -65t19 -103v-20q0 -166 -143 -201l143 -349h-22l-141 345q-24 -5 -58 -5h-173zM100 360h172q36 0 67 7t63.5 26t51.5 59.5t19 98.5v18q0 58 -19 98.5t-51.5 59.5t-63.5 26t-67 7h-172v-400z" />
    <glyph glyph-name="S" unicode="S" horiz-adv-x="580" 
d="M286 395q-123 15 -177 61.5t-54 123.5v10q0 89 67 142.5t167 53.5q119 0 177.5 -63t58.5 -178v-25h-20q0 129 -52.5 187.5t-159.5 58.5h-6q-87 0 -148.5 -48t-61.5 -123v-10q0 -76 50.5 -116.5t168.5 -54.5q124 -15 179 -65.5t55 -137.5v-10q0 -98 -67.5 -152.5
t-172.5 -54.5q-117 0 -178.5 66.5t-61.5 179.5v10h20q0 -116 56 -176t161 -60h6q95 0 156 49t61 134v10q0 85 -52.5 129t-171.5 59z" />
    <glyph glyph-name="T" unicode="T" horiz-adv-x="490" 
d="M255 760v-760h-20v760h-210v20h440v-20h-210z" />
    <glyph glyph-name="U" unicode="U" horiz-adv-x="620" 
d="M310 -6q-113 0 -173 56t-60 193v537h20v-534q0 -130 52.5 -181t160.5 -51t160.5 51t52.5 181v534h20v-537q0 -137 -60 -193t-173 -56z" />
    <glyph glyph-name="V" unicode="V" horiz-adv-x="590" 
d="M305 -10h-20l-250 790h21l239 -760l239 760h21z" />
    <glyph glyph-name="W" unicode="W" horiz-adv-x="860" 
d="M440 780l203 -747l158 747h21l-167 -780h-22l-203 747l-203 -747h-22l-167 780h21l158 -747l203 747h20z" />
    <glyph glyph-name="X" unicode="X" horiz-adv-x="580" 
d="M290 378l-238 -378h-24l249 395l-249 385h24l238 -369l238 369h24l-249 -385l249 -395h-24z" />
    <glyph glyph-name="Y" unicode="Y" horiz-adv-x="540" 
d="M265 259l228 521h22l-240 -545v-235h-20v235l-240 545h22z" />
    <glyph glyph-name="Z" unicode="Z" horiz-adv-x="550" 
d="M40 15l435 746l-115 -1h-310v20h450v-15l-435 -746l115 1h330v-20h-470v15z" />
    <glyph glyph-name="bracketleft" unicode="[" 
d="M80 840h170v-20h-150v-920h150v-20h-170v960z" />
    <glyph glyph-name="backslash" unicode="\" 
d="M255 -120l-230 960h20l230 -960h-20z" />
    <glyph glyph-name="bracketright" unicode="]" 
d="M220 -120h-170v20h150v920h-150v20h170v-960z" />
    <glyph glyph-name="asciicircum" unicode="^" horiz-adv-x="600" 
d="M310 780l246 -500h-22l-234 480l-234 -480h-22l246 500h20z" />
    <glyph glyph-name="underscore" unicode="_" horiz-adv-x="320" 
d="M50 -110v20h220v-20h-220z" />
    <glyph glyph-name="grave" unicode="`" horiz-adv-x="500" 
d="M149 780h22l90 -160h-22z" />
    <glyph glyph-name="a" unicode="a" horiz-adv-x="485" 
d="M52 125v10q0 43 13.5 72.5t40 45.5t50.5 23t59 12l180 29v33q0 79 -30.5 122.5t-119.5 43.5t-119.5 -43.5t-30.5 -122.5h-20v11q0 175 170 175t170 -175v-241l5 -120h-15l-8 84q-64 -90 -197 -90q-66 0 -107 34.5t-41 96.5zM201 14q138 0 194 104v180l-187 -30
q-66 -12 -101 -39t-35 -93v-11q0 -47 33.5 -79t95.5 -32z" />
    <glyph glyph-name="b" unicode="b" horiz-adv-x="510" 
d="M90 800v-345q62 81 162 81q99 0 151 -69t52 -192v-20q0 -123 -52 -192t-151 -69q-58 0 -100 26t-65 59l-7 -79h-15l5 120v680h20zM90 423v-316q61 -93 162 -93q90 0 136.5 64t46.5 177v20q0 113 -46.5 177t-136.5 64q-101 0 -162 -93z" />
    <glyph glyph-name="c" unicode="c" horiz-adv-x="505" 
d="M55 275q0 119 53 190t160 71q94 0 138 -53.5t44 -127.5v-10h-20q0 77 -39.5 124t-122.5 47q-95 0 -144 -64.5t-49 -176.5v-20q0 -112 49 -176.5t144 -64.5q83 0 122.5 43.5t39.5 117.5h20v-10q0 -70 -44 -120.5t-138 -50.5q-107 0 -160 71t-53 190v20z" />
    <glyph glyph-name="d" unicode="d" horiz-adv-x="510" 
d="M258 536q100 0 162 -81v345h20v-680l5 -120h-15l-7 79q-61 -85 -165 -85q-99 0 -151 69t-52 192v20q0 123 52 192t151 69zM420 423q-61 93 -162 93q-90 0 -136.5 -64t-46.5 -177v-20q0 -113 46.5 -177t136.5 -64q101 0 162 93v316z" />
    <glyph glyph-name="e" unicode="e" horiz-adv-x="530" 
d="M475 255h-400q0 -110 48.5 -175.5t146.5 -65.5q94 0 139.5 47t45.5 109h20v-5q0 -66 -52 -118.5t-153 -52.5q-108 0 -161.5 72t-53.5 189v20q0 117 52 189t158 72t158 -72t52 -189v-20zM265 516q-94 0 -142 -65.5t-48 -175.5h380q0 110 -48 175.5t-142 65.5z" />
    <glyph glyph-name="f" unicode="f" horiz-adv-x="340" 
d="M135 665v-135h165v-20h-165v-510h-20v510h-85v20h85v141q0 135 131 135q39 0 64 -10v-20q-20 10 -60 10q-57 0 -86 -26t-29 -95z" />
    <glyph glyph-name="g" unicode="g" horiz-adv-x="510" 
d="M250 -206q-100 0 -147.5 52t-47.5 143v11h20q0 -91 40.5 -138.5t134.5 -47.5q170 0 170 186v115q-60 -81 -163 -81q-99 0 -150.5 63t-51.5 178v20q0 115 51.5 178t150.5 63q105 0 166 -85l7 79h15l-5 -120v-421q0 -90 -47 -142.5t-143 -52.5zM420 147v276q-61 93 -162 93
q-90 0 -136.5 -58t-46.5 -163v-20q0 -105 46.5 -163t136.5 -58q101 0 162 93z" />
    <glyph glyph-name="h" unicode="h" horiz-adv-x="490" 
d="M430 0h-20v375q0 76 -35 108.5t-106 32.5q-121 0 -179 -93v-423h-20v800h20v-348q61 84 181 84q159 0 159 -156v-380z" />
    <glyph glyph-name="i" unicode="i" horiz-adv-x="180" 
d="M80 0v530h20v-530h-20zM110 720v-40h-40v40h40z" />
    <glyph glyph-name="j" unicode="j" horiz-adv-x="180" 
d="M80 -65v595h20v-601q0 -135 -131 -135q-39 0 -64 10v20q20 -10 60 -10q57 0 86 26t29 95zM110 720v-40h-40v40h40z" />
    <glyph glyph-name="k" unicode="k" horiz-adv-x="458" 
d="M95 800v-600l303 330h27l-186 -201l186 -329h-23l-176 314l-131 -142v-172h-20v800h20z" />
    <glyph glyph-name="l" unicode="l" horiz-adv-x="180" 
d="M80 0v800h20v-800h-20z" />
    <glyph glyph-name="m" unicode="m" horiz-adv-x="750" 
d="M690 0h-20v385q0 70 -29.5 100.5t-91.5 30.5q-101 0 -159 -93v-423h-20v385q0 70 -29.5 100.5t-91.5 30.5q-101 0 -159 -93v-423h-20v410l-5 120h15l7 -81q58 87 164 87q110 0 133 -92q58 92 167 92q139 0 139 -146v-390z" />
    <glyph glyph-name="n" unicode="n" horiz-adv-x="490" 
d="M430 0h-20v375q0 76 -35 108.5t-106 32.5q-121 0 -179 -93v-423h-20v410l-5 120h15l7 -82q63 88 184 88q159 0 159 -156v-380z" />
    <glyph glyph-name="o" unicode="o" horiz-adv-x="526" 
d="M263 -6q-100 0 -154 69t-54 192v20q0 123 54 192t154 69t154 -69t54 -192v-20q0 -123 -54 -192t-154 -69zM263 14q90 0 139 64t49 177v20q0 113 -49 177t-139 64t-139 -64t-49 -177v-20q0 -113 49 -177t139 -64z" />
    <glyph glyph-name="p" unicode="p" horiz-adv-x="510" 
d="M252 -6q-102 0 -162 81v-275h-20v610l-5 120h15l7 -79q23 33 65 59t100 26q99 0 151 -69t52 -192v-20q0 -123 -52 -192t-151 -69zM90 423v-316q61 -93 162 -93q90 0 136.5 64t46.5 177v20q0 113 -46.5 177t-136.5 64q-101 0 -162 -93z" />
    <glyph glyph-name="q" unicode="q" horiz-adv-x="510" 
d="M420 -200v275q-60 -81 -162 -81q-99 0 -151 69t-52 192v20q0 123 52 192t151 69q104 0 165 -85l7 79h15l-5 -120v-610h-20zM420 107v316q-61 93 -162 93q-90 0 -136.5 -64t-46.5 -177v-20q0 -113 46.5 -177t136.5 -64q101 0 162 93z" />
    <glyph glyph-name="r" unicode="r" horiz-adv-x="297" 
d="M240 536l15 -1v-19h-9q-60 0 -99 -28t-57 -67v-421h-20v410l-5 120h15l7 -81q52 87 153 87z" />
    <glyph glyph-name="s" unicode="s" horiz-adv-x="480" 
d="M240 14q79 0 124.5 34t45.5 92q0 65 -40.5 89.5t-139.5 32.5q-100 10 -137.5 41.5t-37.5 88.5v6q0 62 49.5 100t135.5 38q185 0 185 -172v-4h-20q0 76 -37.5 116t-127.5 40q-76 0 -120.5 -32t-44.5 -89q0 -56 36 -82t139 -35q101 -9 140.5 -38.5t39.5 -96.5v-6
q0 -65 -51 -104t-139 -39q-103 0 -146.5 46.5t-43.5 115.5v4h20q0 -146 170 -146z" />
    <glyph glyph-name="t" unicode="t" horiz-adv-x="360" 
d="M135 530h185v-20h-185v-375q0 -69 29 -95t86 -26q40 0 60 10v-20q-25 -10 -64 -10q-131 0 -131 135v381h-85v20h85v150h20v-150z" />
    <glyph glyph-name="u" unicode="u" horiz-adv-x="490" 
d="M60 530h20v-375q0 -76 35 -108.5t106 -32.5q121 0 179 93v423h20v-410l5 -120h-15l-8 81q-60 -87 -183 -87q-159 0 -159 156v380z" />
    <glyph glyph-name="v" unicode="v" horiz-adv-x="480" 
d="M240 25l188 505h22l-200 -530h-20l-200 530h22z" />
    <glyph glyph-name="w" unicode="w" horiz-adv-x="670" 
d="M335 498l-152 -498h-24l-126 530h21l118 -504l153 504h20l153 -504l118 504h21l-126 -530h-24z" />
    <glyph glyph-name="x" unicode="x" horiz-adv-x="440" 
d="M21 530h24l175 -246l175 246h24l-187 -262l187 -268h-24l-175 253l-175 -253h-24l187 268z" />
    <glyph glyph-name="y" unicode="y" horiz-adv-x="460" 
d="M230 44l181 486h22l-194 -512l-81 -218h-19l82 218l-194 512h22z" />
    <glyph glyph-name="z" unicode="z" horiz-adv-x="430" 
d="M35 15l324 496l-114 -1h-200v20h340v-15l-324 -496l114 1h220v-20h-360v15z" />
    <glyph glyph-name="braceleft" unicode="{" 
d="M250 840v-20q-52 0 -78.5 -23.5t-26.5 -86.5v-247q0 -83 -58 -103q58 -20 58 -103v-247q0 -63 26.5 -86.5t78.5 -23.5v-20h-4q-121 0 -121 125v251q0 54 -23 74t-67 20v20q44 0 67 20t23 74v251q0 125 121 125h4z" />
    <glyph glyph-name="bar" unicode="|" horiz-adv-x="180" 
d="M80 -120v960h20v-960h-20z" />
    <glyph glyph-name="braceright" unicode="}" 
d="M50 -120v20q52 0 78.5 23.5t26.5 86.5v247q0 83 58 103q-58 20 -58 103v247q0 63 -26.5 86.5t-78.5 23.5v20h4q121 0 121 -125v-251q0 -54 23 -74t67 -20v-20q-44 0 -67 -20t-23 -74v-251q0 -125 -121 -125h-4z" />
    <glyph glyph-name="asciitilde" unicode="~" horiz-adv-x="600" 
d="M429 354q59 0 111 60l15 -15q-56 -65 -125 -65q-48 0 -91 20.5t-84 41t-84 20.5q-58 0 -111 -60l-15 15q56 65 125 65q48 0 91 -20.5t84 -41t84 -20.5z" />
    <glyph glyph-name="nbspace" unicode="&#xa0;" horiz-adv-x="180" 
 />
    <glyph glyph-name="exclamdown" unicode="&#xa1;" horiz-adv-x="180" 
d="M100 -200h-20l3 555h14zM70 490v40h40v-40h-40z" />
    <glyph glyph-name="cent" unicode="&#xa2;" horiz-adv-x="600" 
d="M413 840l-31 -128q144 -35 144 -216v-15h-20q0 180 -128 212l-144 -601q36 -12 80 -12h3q91 0 140 51t49 147h20v-12q0 -90 -53.5 -148t-157.5 -58q-49 0 -85 13l-32 -133h-20l33 140q-137 61 -137 298v23q0 157 61.5 238t179.5 81q28 0 48 -4l30 124h20zM94 378
q0 -219 122 -278l143 597q-19 3 -42 3h-3q-106 0 -163 -75t-57 -224v-23z" />
    <glyph glyph-name="sterling" unicode="&#xa3;" horiz-adv-x="600" 
d="M60 380v20h98q-28 110 -28 182q0 79 53.5 141.5t146.5 62.5q99 0 154.5 -74.5t55.5 -204.5v-7h-20q0 127 -49.5 196.5t-140.5 69.5q-86 0 -133 -57t-47 -134q0 -64 30 -175h220v-20h-215q3 -9 15.5 -55.5t17 -63t14 -57t13.5 -64.5t8 -57.5t4 -62.5h283v-20h-480v20h177
q-1 36 -5.5 73t-14 78t-16 67.5t-20 75t-18.5 66.5h-103z" />
    <glyph glyph-name="yen" unicode="&#xa5;" horiz-adv-x="600" 
d="M50 450v20h132l-152 310h22l248 -506l248 506h22l-152 -310h132v-20h-142l-88 -180h230v-20h-240v-250h-20v250h-240v20h230l-88 180h-142z" />
    <glyph glyph-name="brokenbar" unicode="&#xa6;" horiz-adv-x="180" 
d="M80 400v440h20v-440h-20zM80 -120v440h20v-440h-20z" />
    <glyph glyph-name="section" unicode="&#xa7;" horiz-adv-x="500" 
d="M50 389q0 52 33.5 87t94.5 48q-58 15 -80.5 43.5t-22.5 74.5v6q0 62 49.5 100t135.5 38q185 0 185 -172v-4h-20q0 76 -37.5 116t-127.5 40q-76 0 -120.5 -32t-44.5 -89q0 -56 36 -82t139 -35q101 -9 140.5 -38.5t39.5 -96.5v-6q0 -52 -33.5 -87.5t-94.5 -47.5
q57 -15 80 -43.5t23 -74.5v-6q0 -62 -49.5 -100t-135.5 -38q-185 0 -185 172v4h20q0 -76 37.5 -116t127.5 -40q76 0 120.5 32t44.5 89q0 56 -36 82t-139 35q-101 9 -140.5 38.5t-39.5 96.5v6zM70 386q0 -65 40.5 -89.5t139.5 -32.5h10q79 0 124.5 34t45.5 92
q0 65 -40.5 89.5t-139.5 32.5h-10q-79 0 -124.5 -34t-45.5 -92z" />
    <glyph glyph-name="dieresis" unicode="&#xa8;" horiz-adv-x="500" 
d="M200 720v-40h-40v40h40zM340 720v-40h-40v40h40z" />
    <glyph glyph-name="copyright" unicode="&#xa9;" horiz-adv-x="900" 
d="M54 390q0 164 116 280t280 116t280 -116t116 -280t-116 -280t-280 -116t-280 116t-116 280zM74 390q0 -156 110 -266t266 -110t266 110t110 266t-110 266t-266 110t-266 -110t-110 -266zM450 149q-97 0 -150 63.5t-53 167.5v20q0 104 53 167.5t150 63.5q92 0 136 -42.5
t44 -108.5v-10h-20q0 141 -160 141q-87 0 -135 -57.5t-48 -153.5v-20q0 -96 48 -153.5t135 -57.5q78 0 119 37.5t41 93.5h20v-10q0 -53 -45.5 -97t-134.5 -44z" />
    <glyph glyph-name="ordfeminine" unicode="&#xaa;" horiz-adv-x="377" 
d="M42 481v9q0 32 10 53.5t31 33.5t38 17t45 10l133 22v18q0 60 -23.5 91t-86.5 31q-65 0 -87.5 -31.5t-22.5 -88.5h-20v8q0 132 130 132t130 -137v-164l3 -97h-15l-6 62q-50 -70 -147 -70q-50 0 -81 27t-31 74zM155 400q98 0 144 79v128l-138 -23q-47 -8 -73 -28t-26 -65
v-10q0 -34 24 -57.5t69 -23.5zM50 230v20h272v-20h-272z" />
    <glyph glyph-name="guillemotleft" unicode="&#xab;" horiz-adv-x="500" 
d="M250 506v-25l-182 -141l182 -141v-25l-200 156v20zM450 506v-25l-182 -141l182 -141v-25l-200 156v20z" />
    <glyph glyph-name="logicalnot" unicode="&#xac;" horiz-adv-x="600" 
d="M50 540v20h500v-340h-20v320h-480z" />
    <glyph glyph-name="uni00AD" unicode="&#xad;" horiz-adv-x="320" 
d="M50 330v20h220v-20h-220z" />
    <glyph glyph-name="registered" unicode="&#xae;" horiz-adv-x="330" 
d="M24 665q0 59 41 100t100 41t100 -41t41 -100t-41 -100t-100 -41t-100 41t-41 100zM40 665q0 -52 36.5 -88.5t88.5 -36.5t88.5 36.5t36.5 88.5t-36.5 88.5t-88.5 36.5t-88.5 -36.5t-36.5 -88.5zM219 696q0 -34 -32 -44l32 -73h-17l-32 70h-43v-70h-16v172h55q53 0 53 -47
v-8zM204 703q0 32 -41 32h-36v-70h36q41 0 41 32v6z" />
    <glyph glyph-name="macron" unicode="&#xaf;" horiz-adv-x="500" 
d="M150 690v20h200v-20h-200z" />
    <glyph glyph-name="degree" unicode="&#xb0;" horiz-adv-x="400" 
d="M326 635v10q0 55 -35.5 88t-87.5 33h-6q-52 0 -87.5 -33t-35.5 -88v-10q0 -55 35.5 -88t87.5 -33h6q52 0 87.5 33t35.5 88zM346 642v-4q0 -66 -41 -105t-105 -39t-105 39t-41 105v4q0 66 41 105t105 39t105 -39t41 -105z" />
    <glyph glyph-name="plusminus" unicode="&#xb1;" horiz-adv-x="600" 
d="M290 640h20v-160h240v-20h-240v-160h-20v160h-240v20h240v160zM50 180v20h500v-20h-500z" />
    <glyph glyph-name="twosuperior" unicode="&#xb2;" 
d="M102 410h163v-20h-235v12l175 184q44 47 44 89v5q0 39 -27 62.5t-71 23.5h-3q-50 0 -74 -27.5t-24 -88.5h-20v12q0 123 120 123q55 0 87.5 -27.5t32.5 -75.5v-5q0 -29 -9.5 -50t-36.5 -50l-160 -168z" />
    <glyph glyph-name="threesuperior" unicode="&#xb3;" 
d="M147 404h5q42 0 70.5 21.5t28.5 61.5v8q0 41 -26 62.5t-67 21.5h-58v19h56q41 0 67 19.5t26 58.5v4q0 39 -26.5 62.5t-70.5 23.5h-5q-50 0 -73.5 -27.5t-23.5 -88.5h-20v12q0 123 120 123q55 0 87.5 -27.5t32.5 -75.5v-7q0 -69 -71 -87q73 -18 73 -92v-8q0 -48 -35 -75.5
t-87 -27.5q-62 0 -92.5 33t-30.5 92v5h20q0 -111 100 -111z" />
    <glyph glyph-name="acute" unicode="&#xb4;" horiz-adv-x="500" 
d="M329 780h22l-90 -160h-22z" />
    <glyph glyph-name="paragraph" unicode="&#xb6;" horiz-adv-x="500" 
d="M400 0v760h-90v-760h-20v340h-19q-43 0 -79.5 10t-70 32t-52.5 65t-19 103v20q0 60 19 103t52.5 65t70 32t79.5 10h149v-780h-20zM71 551q0 -58 19 -98.5t51.5 -59.5t63.5 -26t67 -7h18v400h-18q-36 0 -67 -7t-63.5 -26t-51.5 -59.5t-19 -98.5v-18z" />
    <glyph glyph-name="periodcentered" unicode="&#xb7;" horiz-adv-x="180" 
d="M110 360v-40h-40v40h40z" />
    <glyph glyph-name="cedilla" unicode="&#xb8;" horiz-adv-x="602" 
d="M171 -188l6 16q28 -16 73 -16q35 0 54 10t19 43t-19 43t-54 10l-25 -2l-11 11l26 73h20l-23 -65q5 1 18 1q86 0 86 -71t-91 -71q-43 0 -79 18z" />
    <glyph glyph-name="onesuperior" unicode="&#xb9;" 
d="M272 390h-235v20h108v342l-102 -70l-11 17l123 83h10v-372h107v-20z" />
    <glyph glyph-name="ordmasculine" unicode="&#xba;" horiz-adv-x="410" 
d="M205 400q67 0 103 47t36 129v14q0 82 -36 129t-103 47t-103 -47t-36 -129v-14q0 -82 36 -129t103 -47zM205 380q-77 0 -118 53t-41 143v14q0 90 41 143t118 53t118 -53t41 -143v-14q0 -90 -41 -143t-118 -53zM56 230v20h298v-20h-298z" />
    <glyph glyph-name="guillemotright" unicode="&#xbb;" horiz-adv-x="500" 
d="M250 481v25l200 -156v-20l-200 -156v25l182 141zM50 481v25l200 -156v-20l-200 -156v25l182 141z" />
    <glyph glyph-name="onequarter" unicode="&#xbc;" horiz-adv-x="800" 
d="M710 0h-20v110h-173v12l173 268h20v-260h72v-20h-72v-110zM124 0h-24l576 780h24zM690 354l-144 -225l49 1h95v224zM272 390h-235v20h108v342l-102 -70l-11 17l123 83h10v-372h107v-20z" />
    <glyph glyph-name="onehalf" unicode="&#xbd;" horiz-adv-x="800" 
d="M602 20h163v-20h-235v12l175 184q44 47 44 89v5q0 39 -27 62.5t-71 23.5h-3q-50 0 -74 -27.5t-24 -88.5h-20v12q0 123 120 123q55 0 87.5 -27.5t32.5 -75.5v-5q0 -29 -9.5 -50t-36.5 -50l-160 -168zM124 0h-24l576 780h24zM272 390h-235v20h108v342l-102 -70l-11 17
l123 83h10v-372h107v-20z" />
    <glyph glyph-name="threequarters" unicode="&#xbe;" horiz-adv-x="800" 
d="M710 0h-20v110h-173v12l173 268h20v-260h72v-20h-72v-110zM147 404h5q42 0 70.5 21.5t28.5 61.5v8q0 41 -26 62.5t-67 21.5h-58v19h56q41 0 67 19.5t26 58.5v4q0 39 -26.5 62.5t-70.5 23.5h-5q-50 0 -73.5 -27.5t-23.5 -88.5h-20v12q0 123 120 123q55 0 87.5 -27.5
t32.5 -75.5v-7q0 -69 -71 -87q73 -18 73 -92v-8q0 -48 -35 -75.5t-87 -27.5q-62 0 -92.5 33t-30.5 92v5h20q0 -111 100 -111zM124 0h-24l576 780h24zM690 354l-144 -225l49 1h95v224z" />
    <glyph glyph-name="questiondown" unicode="&#xbf;" horiz-adv-x="440" 
d="M200 490v40h40v-40h-40zM213 355h14q0 -59 -17.5 -106t-42.5 -77.5t-50 -58.5t-42.5 -64t-17.5 -79q0 -65 38 -110.5t122 -45.5q170 0 170 246h20v-7q0 -123 -47 -191t-143 -68q-92 0 -136 51t-44 120q0 48 17.5 87t43 67.5t51 58.5t44.5 75t20 102z" />
    <glyph glyph-name="Agrave" unicode="&#xc0;" horiz-adv-x="590" 
d="M285 790h20l250 -790h-21l-72 230h-334l-72 -230h-21zM295 760l-160 -510h320zM222 950h22l62 -110h-22z" />
    <glyph glyph-name="Aacute" unicode="&#xc1;" horiz-adv-x="590" 
d="M285 790h20l250 -790h-21l-72 230h-334l-72 -230h-21zM295 760l-160 -510h320zM346 950h22l-62 -110h-22z" />
    <glyph glyph-name="Acircumflex" unicode="&#xc2;" horiz-adv-x="590" 
d="M285 790h20l250 -790h-21l-72 230h-334l-72 -230h-21zM295 760l-160 -510h320zM209 840h-24l100 110h20l100 -110h-24l-86 95z" />
    <glyph glyph-name="Atilde" unicode="&#xc3;" horiz-adv-x="590" 
d="M285 790h20l250 -790h-21l-72 230h-334l-72 -230h-21zM295 760l-160 -510h320zM412 927h18q0 -70 -60 -70q-28 0 -76 29t-71 29q-21 0 -33 -10.5t-12 -41.5h-18q0 70 60 70q28 0 76 -29t71 -29q21 0 33 10.5t12 41.5z" />
    <glyph glyph-name="Adieresis" unicode="&#xc4;" horiz-adv-x="590" 
d="M285 790h20l250 -790h-21l-72 230h-334l-72 -230h-21zM295 760l-160 -510h320zM245 915v-40h-40v40h40zM385 915v-40h-40v40h40z" />
    <glyph glyph-name="Aring" unicode="&#xc5;" horiz-adv-x="590" 
d="M209 870q0 35 25.5 60.5t60.5 25.5t60.5 -25.5t25.5 -60.5q0 -32 -21.5 -56.5t-53.5 -29.5l249 -784h-21l-72 230h-334l-72 -230h-21l248 784q-32 5 -53 29.5t-21 56.5zM295 760l-160 -510h320zM227 870q0 -28 19.5 -48t48.5 -20t48.5 20t19.5 48t-19.5 48t-48.5 20
t-48.5 -20t-19.5 -48z" />
    <glyph glyph-name="AE" unicode="&#xc6;" horiz-adv-x="820" 
d="M325 780h445v-20h-415l57 -352h308v-20h-304l60 -368h294v-20h-312l-38 230h-282l-87 -230h-21zM337 757l-191 -507h271z" />
    <glyph glyph-name="Ccedilla" unicode="&#xc7;" horiz-adv-x="593" 
d="M236 -188l6 16q28 -16 73 -16q35 0 54 10t19 43t-19 43t-54 10l-25 -2l-11 11l24 67q-120 4 -179 93t-59 283v40q0 198 61.5 287t188.5 89q114 0 167 -63t53 -203v-20h-20q0 146 -46 206t-151 60h-6q-114 0 -170.5 -83.5t-56.5 -272.5v-40q0 -189 56.5 -272.5
t170.5 -83.5h6q197 0 197 236h20v-14q0 -111 -52.5 -175t-159.5 -67l-21 -59q5 1 18 1q86 0 86 -71t-91 -71q-43 0 -79 18z" />
    <glyph glyph-name="Egrave" unicode="&#xc8;" horiz-adv-x="540" 
d="M80 780h410v-20h-390v-352h340v-20h-340v-368h390v-20h-410v780zM217 950h22l62 -110h-22z" />
    <glyph glyph-name="Eacute" unicode="&#xc9;" horiz-adv-x="540" 
d="M80 780h410v-20h-390v-352h340v-20h-340v-368h390v-20h-410v780zM341 950h22l-62 -110h-22z" />
    <glyph glyph-name="Ecircumflex" unicode="&#xca;" horiz-adv-x="540" 
d="M80 780h410v-20h-390v-352h340v-20h-340v-368h390v-20h-410v780zM204 840h-24l100 110h20l100 -110h-24l-86 95z" />
    <glyph glyph-name="Edieresis" unicode="&#xcb;" horiz-adv-x="540" 
d="M80 780h410v-20h-390v-352h340v-20h-340v-368h390v-20h-410v780zM380 915v-40h-40v40h40zM240 915v-40h-40v40h40z" />
    <glyph glyph-name="Igrave" unicode="&#xcc;" horiz-adv-x="190" 
d="M105 780v-780h-20v780h20zM22 950h22l62 -110h-22z" />
    <glyph glyph-name="Iacute" unicode="&#xcd;" horiz-adv-x="190" 
d="M105 780v-780h-20v780h20zM146 950h22l-62 -110h-22z" />
    <glyph glyph-name="Icircumflex" unicode="&#xce;" horiz-adv-x="190" 
d="M105 780v-780h-20v780h20zM9 840h-24l100 110h20l100 -110h-24l-86 95z" />
    <glyph glyph-name="Idieresis" unicode="&#xcf;" horiz-adv-x="190" 
d="M105 780v-780h-20v780h20zM185 915v-40h-40v40h40zM45 915v-40h-40v40h40z" />
    <glyph glyph-name="Eth" unicode="&#xd0;" horiz-adv-x="670" 
d="M25 408h110v372h190q285 0 285 -370v-40q0 -370 -285 -370h-190v388h-110v20zM155 20h165q270 0 270 350v40q0 350 -270 350h-165v-352h230v-20h-230v-368z" />
    <glyph glyph-name="Ntilde" unicode="&#xd1;" horiz-adv-x="640" 
d="M541 29l-1 151v600h20v-780h-25l-436 751l1 -151v-600h-20v780h25zM437 927h18q0 -70 -60 -70q-28 0 -76 29t-71 29q-21 0 -33 -10.5t-12 -41.5h-18q0 70 60 70q28 0 76 -29t71 -29q21 0 33 10.5t12 41.5z" />
    <glyph glyph-name="Ograve" unicode="&#xd2;" horiz-adv-x="630" 
d="M65 410q0 198 61.5 287t188.5 89t188.5 -89t61.5 -287v-40q0 -198 -61.5 -287t-188.5 -89t-188.5 89t-61.5 287v40zM85 370q0 -189 56.5 -272.5t170.5 -83.5h6q114 0 170.5 83.5t56.5 272.5v40q0 189 -56.5 272.5t-170.5 83.5h-6q-114 0 -170.5 -83.5t-56.5 -272.5v-40z
M242 950h22l62 -110h-22z" />
    <glyph glyph-name="Oacute" unicode="&#xd3;" horiz-adv-x="630" 
d="M65 410q0 198 61.5 287t188.5 89t188.5 -89t61.5 -287v-40q0 -198 -61.5 -287t-188.5 -89t-188.5 89t-61.5 287v40zM85 370q0 -189 56.5 -272.5t170.5 -83.5h6q114 0 170.5 83.5t56.5 272.5v40q0 189 -56.5 272.5t-170.5 83.5h-6q-114 0 -170.5 -83.5t-56.5 -272.5v-40z
M366 950h22l-62 -110h-22z" />
    <glyph glyph-name="Ocircumflex" unicode="&#xd4;" horiz-adv-x="630" 
d="M65 410q0 198 61.5 287t188.5 89t188.5 -89t61.5 -287v-40q0 -198 -61.5 -287t-188.5 -89t-188.5 89t-61.5 287v40zM85 370q0 -189 56.5 -272.5t170.5 -83.5h6q114 0 170.5 83.5t56.5 272.5v40q0 189 -56.5 272.5t-170.5 83.5h-6q-114 0 -170.5 -83.5t-56.5 -272.5v-40z
M229 840h-24l100 110h20l100 -110h-24l-86 95z" />
    <glyph glyph-name="Otilde" unicode="&#xd5;" horiz-adv-x="630" 
d="M65 410q0 198 61.5 287t188.5 89t188.5 -89t61.5 -287v-40q0 -198 -61.5 -287t-188.5 -89t-188.5 89t-61.5 287v40zM85 370q0 -189 56.5 -272.5t170.5 -83.5h6q114 0 170.5 83.5t56.5 272.5v40q0 189 -56.5 272.5t-170.5 83.5h-6q-114 0 -170.5 -83.5t-56.5 -272.5v-40z
M432 927h18q0 -70 -60 -70q-28 0 -76 29t-71 29q-21 0 -33 -10.5t-12 -41.5h-18q0 70 60 70q28 0 76 -29t71 -29q21 0 33 10.5t12 41.5z" />
    <glyph glyph-name="Odieresis" unicode="&#xd6;" horiz-adv-x="630" 
d="M65 410q0 198 61.5 287t188.5 89t188.5 -89t61.5 -287v-40q0 -198 -61.5 -287t-188.5 -89t-188.5 89t-61.5 287v40zM85 370q0 -189 56.5 -272.5t170.5 -83.5h6q114 0 170.5 83.5t56.5 272.5v40q0 189 -56.5 272.5t-170.5 83.5h-6q-114 0 -170.5 -83.5t-56.5 -272.5v-40z
M265 915v-40h-40v40h40zM405 915v-40h-40v40h40z" />
    <glyph glyph-name="multiply" unicode="&#xd7;" horiz-adv-x="600" 
d="M45 630l15 15l240 -240l240 240l15 -15l-240 -240l240 -240l-15 -15l-240 240l-240 -240l-15 15l240 240z" />
    <glyph glyph-name="Oslash" unicode="&#xd8;" horiz-adv-x="626" 
d="M565 780l-56 -92q56 -91 56 -278v-40q0 -198 -61.5 -287t-188.5 -89q-122 0 -182 80l-45 -74h-23l56 91q-56 92 -56 279v40q0 198 61.5 287t188.5 89q121 0 182 -80l45 74h23zM545 410q0 172 -48 258l-353 -575q55 -79 168 -79h6q114 0 170.5 83.5t56.5 272.5v40zM85 370
q0 -174 48 -259l352 576q-55 79 -167 79h-6q-114 0 -170.5 -83.5t-56.5 -272.5v-40z" />
    <glyph glyph-name="Ugrave" unicode="&#xd9;" horiz-adv-x="620" 
d="M310 -6q-113 0 -173 56t-60 193v537h20v-534q0 -130 52.5 -181t160.5 -51t160.5 51t52.5 181v534h20v-537q0 -137 -60 -193t-173 -56zM237 950h22l62 -110h-22z" />
    <glyph glyph-name="Uacute" unicode="&#xda;" horiz-adv-x="620" 
d="M310 -6q-113 0 -173 56t-60 193v537h20v-534q0 -130 52.5 -181t160.5 -51t160.5 51t52.5 181v534h20v-537q0 -137 -60 -193t-173 -56zM361 950h22l-62 -110h-22z" />
    <glyph glyph-name="Ucircumflex" unicode="&#xdb;" horiz-adv-x="620" 
d="M310 -6q-113 0 -173 56t-60 193v537h20v-534q0 -130 52.5 -181t160.5 -51t160.5 51t52.5 181v534h20v-537q0 -137 -60 -193t-173 -56zM224 840h-24l100 110h20l100 -110h-24l-86 95z" />
    <glyph glyph-name="Udieresis" unicode="&#xdc;" horiz-adv-x="620" 
d="M310 -6q-113 0 -173 56t-60 193v537h20v-534q0 -130 52.5 -181t160.5 -51t160.5 51t52.5 181v534h20v-537q0 -137 -60 -193t-173 -56zM400 915v-40h-40v40h40zM260 915v-40h-40v40h40z" />
    <glyph glyph-name="Yacute" unicode="&#xdd;" horiz-adv-x="540" 
d="M265 259l228 521h22l-240 -545v-235h-20v235l-240 545h22zM316 950h22l-62 -110h-22z" />
    <glyph glyph-name="Thorn" unicode="&#xde;" horiz-adv-x="544" 
d="M100 780v-170h173q43 0 79.5 -10t70 -32t52.5 -65t19 -103v-20q0 -60 -19 -103t-52.5 -65t-70 -32t-79.5 -10h-173v-170h-20v780h20zM100 190h172q36 0 67 7t63.5 26t51.5 59.5t19 98.5v18q0 58 -19 98.5t-51.5 59.5t-63.5 26t-67 7h-172v-400z" />
    <glyph glyph-name="germandbls" unicode="&#xdf;" horiz-adv-x="550" 
d="M260 786q-160 0 -160 -176v-610h-20v614q0 87 44 139.5t136 52.5t136 -52.5t44 -139.5v-6q0 -66 -34.5 -111.5t-122.5 -96.5l52 -34q55 -36 77.5 -52.5t50.5 -42.5t37.5 -50.5t9.5 -57.5v-6q0 -68 -38.5 -115.5t-121.5 -47.5t-121.5 47.5t-38.5 114.5v4h20
q0 -63 33 -104.5t107 -41.5t107 41.5t33 104.5q0 13 -2.5 25.5t-5.5 22.5t-11 21.5t-13 19t-18 18.5t-19 16.5t-23.5 17.5t-24.5 17t-28.5 19t-29.5 19l-56 37v15q88 49 124.5 92.5t36.5 109.5q0 176 -160 176z" />
    <glyph glyph-name="agrave" unicode="&#xe0;" horiz-adv-x="485" 
d="M52 125v10q0 43 13.5 72.5t40 45.5t50.5 23t59 12l180 29v33q0 79 -30.5 122.5t-119.5 43.5t-119.5 -43.5t-30.5 -122.5h-20v11q0 175 170 175t170 -175v-241l5 -120h-15l-8 84q-64 -90 -197 -90q-66 0 -107 34.5t-41 96.5zM201 14q138 0 194 104v180l-187 -30
q-66 -12 -101 -39t-35 -93v-11q0 -47 33.5 -79t95.5 -32zM144 780h22l90 -160h-22z" />
    <glyph glyph-name="aacute" unicode="&#xe1;" horiz-adv-x="485" 
d="M52 125v10q0 43 13.5 72.5t40 45.5t50.5 23t59 12l180 29v33q0 79 -30.5 122.5t-119.5 43.5t-119.5 -43.5t-30.5 -122.5h-20v11q0 175 170 175t170 -175v-241l5 -120h-15l-8 84q-64 -90 -197 -90q-66 0 -107 34.5t-41 96.5zM201 14q138 0 194 104v180l-187 -30
q-66 -12 -101 -39t-35 -93v-11q0 -47 33.5 -79t95.5 -32zM324 780h22l-90 -160h-22z" />
    <glyph glyph-name="acircumflex" unicode="&#xe2;" horiz-adv-x="485" 
d="M52 125v10q0 43 13.5 72.5t40 45.5t50.5 23t59 12l180 29v33q0 79 -30.5 122.5t-119.5 43.5t-119.5 -43.5t-30.5 -122.5h-20v11q0 175 170 175t170 -175v-241l5 -120h-15l-8 84q-64 -90 -197 -90q-66 0 -107 34.5t-41 96.5zM201 14q138 0 194 104v180l-187 -30
q-66 -12 -101 -39t-35 -93v-11q0 -47 33.5 -79t95.5 -32zM135 620h-25l125 160h20l125 -160h-25l-110 142z" />
    <glyph glyph-name="atilde" unicode="&#xe3;" horiz-adv-x="485" 
d="M52 125v10q0 43 13.5 72.5t40 45.5t50.5 23t59 12l180 29v33q0 79 -30.5 122.5t-119.5 43.5t-119.5 -43.5t-30.5 -122.5h-20v11q0 175 170 175t170 -175v-241l5 -120h-15l-8 84q-64 -90 -197 -90q-66 0 -107 34.5t-41 96.5zM201 14q138 0 194 104v180l-187 -30
q-66 -12 -101 -39t-35 -93v-11q0 -47 33.5 -79t95.5 -32zM362 732h18q0 -70 -60 -70q-28 0 -76 29t-71 29q-21 0 -33 -10.5t-12 -41.5h-18q0 70 60 70q28 0 76 -29t71 -29q21 0 33 10.5t12 41.5z" />
    <glyph glyph-name="adieresis" unicode="&#xe4;" horiz-adv-x="485" 
d="M52 125v10q0 43 13.5 72.5t40 45.5t50.5 23t59 12l180 29v33q0 79 -30.5 122.5t-119.5 43.5t-119.5 -43.5t-30.5 -122.5h-20v11q0 175 170 175t170 -175v-241l5 -120h-15l-8 84q-64 -90 -197 -90q-66 0 -107 34.5t-41 96.5zM201 14q138 0 194 104v180l-187 -30
q-66 -12 -101 -39t-35 -93v-11q0 -47 33.5 -79t95.5 -32zM195 720v-40h-40v40h40zM335 720v-40h-40v40h40z" />
    <glyph glyph-name="aring" unicode="&#xe5;" horiz-adv-x="480" 
d="M47 125v10q0 43 13.5 72.5t40 45.5t50.5 23t59 12l180 29v33q0 79 -30.5 122.5t-119.5 43.5t-119.5 -43.5t-30.5 -122.5h-20v11q0 175 170 175t170 -175v-241l5 -120h-15l-8 84q-64 -90 -197 -90q-66 0 -107 34.5t-41 96.5zM196 14q138 0 194 104v180l-187 -30
q-66 -12 -101 -39t-35 -93v-11q0 -47 33.5 -79t95.5 -32zM154 700q0 35 25.5 60.5t60.5 25.5t60.5 -25.5t25.5 -60.5t-25.5 -60.5t-60.5 -25.5t-60.5 25.5t-25.5 60.5zM172 700q0 -28 20 -48t48 -20t48 20t20 48t-20 48t-48 20t-48 -20t-20 -48z" />
    <glyph glyph-name="ae" unicode="&#xe6;" horiz-adv-x="865" 
d="M47 125v10q0 43 13.5 72.5t40 45.5t50.5 23t59 12l180 29v33q0 79 -30.5 122.5t-119.5 43.5t-119.5 -43.5t-30.5 -122.5h-20v11q0 175 170 175q156 0 167 -149q42 149 193 149q106 0 158 -72t52 -189v-20h-400q0 -110 48.5 -175.5t146.5 -65.5q94 0 139.5 47t45.5 109h20
v-5q0 -66 -52 -118.5t-153 -52.5q-140 0 -191 124q-63 -124 -219 -124q-66 0 -107 34.5t-41 96.5zM600 516q-94 0 -142 -65.5t-48 -175.5h380q0 110 -48 175.5t-142 65.5zM196 14q150 0 209 129q-15 51 -15 112v43l-187 -30q-65 -11 -100.5 -38.5t-35.5 -93.5v-11
q0 -47 33.5 -79t95.5 -32z" />
    <glyph glyph-name="ccedilla" unicode="&#xe7;" horiz-adv-x="505" 
d="M189 -188l6 16q28 -16 73 -16q35 0 54 10t19 43t-19 43t-54 10l-25 -2l-11 11l24 67q-101 4 -151 75t-50 186v20q0 119 53 190t160 71q94 0 138 -53.5t44 -127.5v-10h-20q0 77 -39.5 124t-122.5 47q-95 0 -144 -64.5t-49 -176.5v-20q0 -112 49 -176.5t144 -64.5
q83 0 122.5 43.5t39.5 117.5h20v-10q0 -69 -42 -118.5t-132 -52.5l-21 -59q5 1 18 1q86 0 86 -71t-91 -71q-43 0 -79 18z" />
    <glyph glyph-name="egrave" unicode="&#xe8;" horiz-adv-x="530" 
d="M475 255h-400q0 -110 48.5 -175.5t146.5 -65.5q94 0 139.5 47t45.5 109h20v-5q0 -66 -52 -118.5t-153 -52.5q-108 0 -161.5 72t-53.5 189v20q0 117 52 189t158 72t158 -72t52 -189v-20zM265 516q-94 0 -142 -65.5t-48 -175.5h380q0 110 -48 175.5t-142 65.5zM164 780h22
l90 -160h-22z" />
    <glyph glyph-name="eacute" unicode="&#xe9;" horiz-adv-x="530" 
d="M475 255h-400q0 -110 48.5 -175.5t146.5 -65.5q94 0 139.5 47t45.5 109h20v-5q0 -66 -52 -118.5t-153 -52.5q-108 0 -161.5 72t-53.5 189v20q0 117 52 189t158 72t158 -72t52 -189v-20zM265 516q-94 0 -142 -65.5t-48 -175.5h380q0 110 -48 175.5t-142 65.5zM344 780h22
l-90 -160h-22z" />
    <glyph glyph-name="ecircumflex" unicode="&#xea;" horiz-adv-x="530" 
d="M475 255h-400q0 -110 48.5 -175.5t146.5 -65.5q94 0 139.5 47t45.5 109h20v-5q0 -66 -52 -118.5t-153 -52.5q-108 0 -161.5 72t-53.5 189v20q0 117 52 189t158 72t158 -72t52 -189v-20zM265 516q-94 0 -142 -65.5t-48 -175.5h380q0 110 -48 175.5t-142 65.5zM155 620h-25
l125 160h20l125 -160h-25l-110 142z" />
    <glyph glyph-name="edieresis" unicode="&#xeb;" horiz-adv-x="530" 
d="M475 255h-400q0 -110 48.5 -175.5t146.5 -65.5q94 0 139.5 47t45.5 109h20v-5q0 -66 -52 -118.5t-153 -52.5q-108 0 -161.5 72t-53.5 189v20q0 117 52 189t158 72t158 -72t52 -189v-20zM265 516q-94 0 -142 -65.5t-48 -175.5h380q0 110 -48 175.5t-142 65.5zM215 720v-40
h-40v40h40zM355 720v-40h-40v40h40z" />
    <glyph glyph-name="igrave" unicode="&#xec;" horiz-adv-x="180" 
d="M80 0v530h20v-530h-20zM-11 780h22l90 -160h-22z" />
    <glyph glyph-name="iacute" unicode="&#xed;" horiz-adv-x="180" 
d="M80 0v530h20v-530h-20zM169 780h22l-90 -160h-22z" />
    <glyph glyph-name="icircumflex" unicode="&#xee;" horiz-adv-x="180" 
d="M80 0v530h20v-530h-20zM-20 620h-25l125 160h20l125 -160h-25l-110 142z" />
    <glyph glyph-name="idieresis" unicode="&#xef;" horiz-adv-x="180" 
d="M80 0v530h20v-530h-20zM180 720v-40h-40v40h40zM40 720v-40h-40v40h40z" />
    <glyph glyph-name="eth" unicode="&#xf0;" horiz-adv-x="526" 
d="M346 623q-43 50 -99 88l-152 -89v24l132 78q-80 48 -171 62v20q102 -13 191 -70l119 70v-24l-100 -60q49 -35 93 -85q112 -131 112 -362v-20q0 -123 -54 -192t-154 -69t-154 69t-54 192v20q0 123 54 192t154 69q124 0 174 -107q-26 116 -91 194zM263 14q90 0 139 64
t49 177v20q0 113 -49 177t-139 64t-139 -64t-49 -177v-20q0 -113 49 -177t139 -64z" />
    <glyph glyph-name="ntilde" unicode="&#xf1;" horiz-adv-x="490" 
d="M430 0h-20v375q0 76 -35 108.5t-106 32.5q-121 0 -179 -93v-423h-20v410l-5 120h15l7 -82q63 88 184 88q159 0 159 -156v-380zM367 732h18q0 -70 -60 -70q-28 0 -76 29t-71 29q-21 0 -33 -10.5t-12 -41.5h-18q0 70 60 70q28 0 76 -29t71 -29q21 0 33 10.5t12 41.5z" />
    <glyph glyph-name="ograve" unicode="&#xf2;" horiz-adv-x="526" 
d="M263 -6q-100 0 -154 69t-54 192v20q0 123 54 192t154 69t154 -69t54 -192v-20q0 -123 -54 -192t-154 -69zM263 14q90 0 139 64t49 177v20q0 113 -49 177t-139 64t-139 -64t-49 -177v-20q0 -113 49 -177t139 -64zM162 780h22l90 -160h-22z" />
    <glyph glyph-name="oacute" unicode="&#xf3;" horiz-adv-x="526" 
d="M263 -6q-100 0 -154 69t-54 192v20q0 123 54 192t154 69t154 -69t54 -192v-20q0 -123 -54 -192t-154 -69zM263 14q90 0 139 64t49 177v20q0 113 -49 177t-139 64t-139 -64t-49 -177v-20q0 -113 49 -177t139 -64zM342 780h22l-90 -160h-22z" />
    <glyph glyph-name="ocircumflex" unicode="&#xf4;" horiz-adv-x="526" 
d="M263 -6q-100 0 -154 69t-54 192v20q0 123 54 192t154 69t154 -69t54 -192v-20q0 -123 -54 -192t-154 -69zM263 14q90 0 139 64t49 177v20q0 113 -49 177t-139 64t-139 -64t-49 -177v-20q0 -113 49 -177t139 -64zM153 620h-25l125 160h20l125 -160h-25l-110 142z" />
    <glyph glyph-name="otilde" unicode="&#xf5;" horiz-adv-x="526" 
d="M263 -6q-100 0 -154 69t-54 192v20q0 123 54 192t154 69t154 -69t54 -192v-20q0 -123 -54 -192t-154 -69zM263 14q90 0 139 64t49 177v20q0 113 -49 177t-139 64t-139 -64t-49 -177v-20q0 -113 49 -177t139 -64zM380 732h18q0 -70 -60 -70q-28 0 -76 29t-71 29
q-21 0 -33 -10.5t-12 -41.5h-18q0 70 60 70q28 0 76 -29t71 -29q21 0 33 10.5t12 41.5z" />
    <glyph glyph-name="odieresis" unicode="&#xf6;" horiz-adv-x="526" 
d="M263 -6q-100 0 -154 69t-54 192v20q0 123 54 192t154 69t154 -69t54 -192v-20q0 -123 -54 -192t-154 -69zM263 14q90 0 139 64t49 177v20q0 113 -49 177t-139 64t-139 -64t-49 -177v-20q0 -113 49 -177t139 -64zM213 720v-40h-40v40h40zM353 720v-40h-40v40h40z" />
    <glyph glyph-name="divide" unicode="&#xf7;" horiz-adv-x="600" 
d="M50 380v20h500v-20h-500zM320 640v-40h-40v40h40zM320 180v-40h-40v40h40z" />
    <glyph glyph-name="oslash" unicode="&#xf8;" horiz-adv-x="526" 
d="M471 530l-51 -68q51 -70 51 -187v-20q0 -123 -54 -192t-154 -69q-91 0 -145 59l-39 -53h-24l50 68q-50 68 -50 187v20q0 123 54 192t154 69q91 0 145 -59l39 53h24zM263 14q90 0 139 64t49 177v20q0 107 -44 169l-277 -374q50 -56 133 -56zM75 255q0 -105 43 -170
l277 375q-48 56 -132 56q-90 0 -139 -64t-49 -177v-20z" />
    <glyph glyph-name="ugrave" unicode="&#xf9;" horiz-adv-x="490" 
d="M60 530h20v-375q0 -76 35 -108.5t106 -32.5q121 0 179 93v423h20v-410l5 -120h-15l-8 81q-60 -87 -183 -87q-159 0 -159 156v380zM139 780h22l90 -160h-22z" />
    <glyph glyph-name="uacute" unicode="&#xfa;" horiz-adv-x="490" 
d="M60 530h20v-375q0 -76 35 -108.5t106 -32.5q121 0 179 93v423h20v-410l5 -120h-15l-8 81q-60 -87 -183 -87q-159 0 -159 156v380zM319 780h22l-90 -160h-22z" />
    <glyph glyph-name="ucircumflex" unicode="&#xfb;" horiz-adv-x="490" 
d="M60 530h20v-375q0 -76 35 -108.5t106 -32.5q121 0 179 93v423h20v-410l5 -120h-15l-8 81q-60 -87 -183 -87q-159 0 -159 156v380zM130 620h-25l125 160h20l125 -160h-25l-110 142z" />
    <glyph glyph-name="udieresis" unicode="&#xfc;" horiz-adv-x="490" 
d="M60 530h20v-375q0 -76 35 -108.5t106 -32.5q121 0 179 93v423h20v-410l5 -120h-15l-8 81q-60 -87 -183 -87q-159 0 -159 156v380zM330 720v-40h-40v40h40zM190 720v-40h-40v40h40z" />
    <glyph glyph-name="yacute" unicode="&#xfd;" horiz-adv-x="460" 
d="M230 44l181 486h22l-194 -512l-81 -218h-19l82 218l-194 512h22zM309 780h22l-90 -160h-22z" />
    <glyph glyph-name="thorn" unicode="&#xfe;" horiz-adv-x="510" 
d="M90 423v-316q61 -93 162 -93q90 0 136.5 64t46.5 177v20q0 113 -46.5 177t-136.5 64q-101 0 -162 -93zM70 -200v1000h20v-345q60 81 162 81q99 0 151 -69t52 -192v-20q0 -123 -52 -192t-151 -69q-102 0 -162 81v-275h-20z" />
    <glyph glyph-name="ydieresis" unicode="&#xff;" horiz-adv-x="460" 
d="M230 44l181 486h22l-194 -512l-81 -218h-19l82 218l-194 512h22zM320 720v-40h-40v40h40zM180 720v-40h-40v40h40z" />
    <glyph glyph-name="Amacron" unicode="&#x100;" horiz-adv-x="590" 
d="M285 790h20l250 -790h-21l-72 230h-334l-72 -230h-21zM295 760l-160 -510h320zM195 885v20h200v-20h-200z" />
    <glyph glyph-name="amacron" unicode="&#x101;" horiz-adv-x="485" 
d="M52 125v10q0 43 13.5 72.5t40 45.5t50.5 23t59 12l180 29v33q0 79 -30.5 122.5t-119.5 43.5t-119.5 -43.5t-30.5 -122.5h-20v11q0 175 170 175t170 -175v-241l5 -120h-15l-8 84q-64 -90 -197 -90q-66 0 -107 34.5t-41 96.5zM201 14q138 0 194 104v180l-187 -30
q-66 -12 -101 -39t-35 -93v-11q0 -47 33.5 -79t95.5 -32zM145 690v20h200v-20h-200z" />
    <glyph glyph-name="Abreve" unicode="&#x102;" horiz-adv-x="590" 
d="M285 790h20l250 -790h-21l-72 230h-334l-72 -230h-21zM295 760l-160 -510h320zM295 852q53 0 82.5 26.5t29.5 71.5h18q0 -53 -35 -84.5t-95 -31.5t-95 31.5t-35 84.5h18q0 -45 29.5 -71.5t82.5 -26.5z" />
    <glyph glyph-name="abreve" unicode="&#x103;" horiz-adv-x="485" 
d="M52 125v10q0 43 13.5 72.5t40 45.5t50.5 23t59 12l180 29v33q0 79 -30.5 122.5t-119.5 43.5t-119.5 -43.5t-30.5 -122.5h-20v11q0 175 170 175t170 -175v-241l5 -120h-15l-8 84q-64 -90 -197 -90q-66 0 -107 34.5t-41 96.5zM201 14q138 0 194 104v180l-187 -30
q-66 -12 -101 -39t-35 -93v-11q0 -47 33.5 -79t95.5 -32zM245 614q-72 0 -111 47.5t-39 118.5h18q0 -64 33.5 -106t98.5 -42t98.5 42t33.5 106h18q0 -71 -39 -118.5t-111 -47.5z" />
    <glyph glyph-name="Aogonek" unicode="&#x104;" horiz-adv-x="590" 
d="M594 -172l6 -16q-36 -18 -79 -18q-39 0 -65 22.5t-26 68.5q0 85 101 124l-69 221h-334l-72 -230h-21l250 790h20l250 -790q-107 -34 -107 -115q0 -38 20.5 -55.5t52.5 -17.5q39 0 73 16zM295 760l-160 -510h320z" />
    <glyph glyph-name="aogonek" unicode="&#x105;" horiz-adv-x="485" 
d="M459 -172l6 -16q-36 -18 -79 -18q-39 0 -65 22.5t-26 68.5q0 52 29.5 80.5t79.5 46.5l-7 72q-64 -90 -197 -90q-66 0 -107 34.5t-41 96.5v10q0 43 13.5 72.5t40 45.5t50.5 23t59 12l180 29v33q0 79 -30.5 122.5t-119.5 43.5t-119.5 -43.5t-30.5 -122.5h-20v11
q0 175 170 175t170 -175v-241l5 -120q-107 -34 -107 -115q0 -38 20.5 -55.5t52.5 -17.5q39 0 73 16zM201 14q138 0 194 104v180l-187 -30q-66 -12 -101 -39t-35 -93v-11q0 -47 33.5 -79t95.5 -32z" />
    <glyph glyph-name="Cacute" unicode="&#x106;" horiz-adv-x="593" 
d="M65 410q0 198 61.5 287t188.5 89q114 0 167 -63t53 -203v-20h-20q0 146 -46 206t-151 60h-6q-114 0 -170.5 -83.5t-56.5 -272.5v-40q0 -189 56.5 -272.5t170.5 -83.5h6q197 0 197 236h20v-14q0 -113 -54 -177.5t-166 -64.5q-127 0 -188.5 89t-61.5 287v40zM366 950h22
l-62 -110h-22z" />
    <glyph glyph-name="cacute" unicode="&#x107;" horiz-adv-x="505" 
d="M55 275q0 119 53 190t160 71q94 0 138 -53.5t44 -127.5v-10h-20q0 77 -39.5 124t-122.5 47q-95 0 -144 -64.5t-49 -176.5v-20q0 -112 49 -176.5t144 -64.5q83 0 122.5 43.5t39.5 117.5h20v-10q0 -70 -44 -120.5t-138 -50.5q-107 0 -160 71t-53 190v20zM347 780h22
l-90 -160h-22z" />
    <glyph glyph-name="Ccircumflex" unicode="&#x108;" horiz-adv-x="593" 
d="M65 410q0 198 61.5 287t188.5 89q114 0 167 -63t53 -203v-20h-20q0 146 -46 206t-151 60h-6q-114 0 -170.5 -83.5t-56.5 -272.5v-40q0 -189 56.5 -272.5t170.5 -83.5h6q197 0 197 236h20v-14q0 -113 -54 -177.5t-166 -64.5q-127 0 -188.5 89t-61.5 287v40zM229 840h-24
l100 110h20l100 -110h-24l-86 95z" />
    <glyph glyph-name="ccircumflex" unicode="&#x109;" horiz-adv-x="505" 
d="M55 275q0 119 53 190t160 71q94 0 138 -53.5t44 -127.5v-10h-20q0 77 -39.5 124t-122.5 47q-95 0 -144 -64.5t-49 -176.5v-20q0 -112 49 -176.5t144 -64.5q83 0 122.5 43.5t39.5 117.5h20v-10q0 -70 -44 -120.5t-138 -50.5q-107 0 -160 71t-53 190v20zM158 620h-25
l125 160h20l125 -160h-25l-110 142z" />
    <glyph glyph-name="Cdotaccent" unicode="&#x10a;" horiz-adv-x="593" 
d="M65 410q0 198 61.5 287t188.5 89q114 0 167 -63t53 -203v-20h-20q0 146 -46 206t-151 60h-6q-114 0 -170.5 -83.5t-56.5 -272.5v-40q0 -189 56.5 -272.5t170.5 -83.5h6q197 0 197 236h20v-14q0 -113 -54 -177.5t-166 -64.5q-127 0 -188.5 89t-61.5 287v40zM335 915v-40
h-40v40h40z" />
    <glyph glyph-name="cdotaccent" unicode="&#x10b;" horiz-adv-x="505" 
d="M55 275q0 119 53 190t160 71q94 0 138 -53.5t44 -127.5v-10h-20q0 77 -39.5 124t-122.5 47q-95 0 -144 -64.5t-49 -176.5v-20q0 -112 49 -176.5t144 -64.5q83 0 122.5 43.5t39.5 117.5h20v-10q0 -70 -44 -120.5t-138 -50.5q-107 0 -160 71t-53 190v20zM288 720v-40h-40
v40h40z" />
    <glyph glyph-name="Ccaron" unicode="&#x10c;" horiz-adv-x="593" 
d="M65 410q0 198 61.5 287t188.5 89q114 0 167 -63t53 -203v-20h-20q0 146 -46 206t-151 60h-6q-114 0 -170.5 -83.5t-56.5 -272.5v-40q0 -189 56.5 -272.5t170.5 -83.5h6q197 0 197 236h20v-14q0 -113 -54 -177.5t-166 -64.5q-127 0 -188.5 89t-61.5 287v40zM401 950h24
l-100 -110h-20l-100 110h24l86 -95z" />
    <glyph glyph-name="ccaron" unicode="&#x10d;" horiz-adv-x="505" 
d="M55 275q0 119 53 190t160 71q94 0 138 -53.5t44 -127.5v-10h-20q0 77 -39.5 124t-122.5 47q-95 0 -144 -64.5t-49 -176.5v-20q0 -112 49 -176.5t144 -64.5q83 0 122.5 43.5t39.5 117.5h20v-10q0 -70 -44 -120.5t-138 -50.5q-107 0 -160 71t-53 190v20zM133 780h25
l110 -142l110 142h25l-125 -160h-20z" />
    <glyph glyph-name="Dcaron" unicode="&#x10e;" horiz-adv-x="615" 
d="M555 370q0 -370 -285 -370h-190v780h190q285 0 285 -370v-40zM100 20h165q270 0 270 350v40q0 350 -270 350h-165v-740zM356 950h24l-100 -110h-20l-100 110h24l86 -95z" />
    <glyph glyph-name="dcaron" unicode="&#x10f;" horiz-adv-x="510" 
d="M258 536q100 0 162 -81v345h20v-680l5 -120h-15l-7 79q-61 -85 -165 -85q-99 0 -151 69t-52 192v20q0 123 52 192t151 69zM420 423q-61 93 -162 93q-90 0 -136.5 -64t-46.5 -177v-20q0 -113 46.5 -177t136.5 -64q101 0 162 93v316zM530 800h21l-11 -180h-10v180z" />
    <glyph glyph-name="Dcroat" unicode="&#x110;" horiz-adv-x="670" 
d="M25 408h110v372h190q285 0 285 -370v-40q0 -370 -285 -370h-190v388h-110v20zM155 20h165q270 0 270 350v40q0 350 -270 350h-165v-352h230v-20h-230v-368z" />
    <glyph glyph-name="dcroat" unicode="&#x111;" horiz-adv-x="510" 
d="M255 655v20h165v125h20v-125h105v-20h-105v-535l5 -120h-15l-7 79q-61 -85 -165 -85q-99 0 -151 69t-52 192v20q0 123 52 192t151 69q100 0 162 -81v200h-165zM420 423q-61 93 -162 93q-90 0 -136.5 -64t-46.5 -177v-20q0 -113 46.5 -177t136.5 -64q101 0 162 93v316z
" />
    <glyph glyph-name="Emacron" unicode="&#x112;" horiz-adv-x="540" 
d="M80 780h410v-20h-390v-352h340v-20h-340v-368h390v-20h-410v780zM190 885v20h200v-20h-200z" />
    <glyph glyph-name="emacron" unicode="&#x113;" horiz-adv-x="530" 
d="M475 255h-400q0 -110 48.5 -175.5t146.5 -65.5q94 0 139.5 47t45.5 109h20v-5q0 -66 -52 -118.5t-153 -52.5q-108 0 -161.5 72t-53.5 189v20q0 117 52 189t158 72t158 -72t52 -189v-20zM265 516q-94 0 -142 -65.5t-48 -175.5h380q0 110 -48 175.5t-142 65.5zM165 690v20
h200v-20h-200z" />
    <glyph glyph-name="Ebreve" unicode="&#x114;" horiz-adv-x="540" 
d="M80 780h410v-20h-390v-352h340v-20h-340v-368h390v-20h-410v780zM290 852q53 0 82.5 26.5t29.5 71.5h18q0 -53 -35 -84.5t-95 -31.5t-95 31.5t-35 84.5h18q0 -45 29.5 -71.5t82.5 -26.5z" />
    <glyph glyph-name="ebreve" unicode="&#x115;" horiz-adv-x="530" 
d="M475 255h-400q0 -110 48.5 -175.5t146.5 -65.5q94 0 139.5 47t45.5 109h20v-5q0 -66 -52 -118.5t-153 -52.5q-108 0 -161.5 72t-53.5 189v20q0 117 52 189t158 72t158 -72t52 -189v-20zM265 516q-94 0 -142 -65.5t-48 -175.5h380q0 110 -48 175.5t-142 65.5zM265 614
q-72 0 -111 47.5t-39 118.5h18q0 -64 33.5 -106t98.5 -42t98.5 42t33.5 106h18q0 -71 -39 -118.5t-111 -47.5z" />
    <glyph glyph-name="Edotaccent" unicode="&#x116;" horiz-adv-x="540" 
d="M80 780h410v-20h-390v-352h340v-20h-340v-368h390v-20h-410v780zM310 915v-40h-40v40h40z" />
    <glyph glyph-name="edotaccent" unicode="&#x117;" horiz-adv-x="530" 
d="M475 255h-400q0 -110 48.5 -175.5t146.5 -65.5q94 0 139.5 47t45.5 109h20v-5q0 -66 -52 -118.5t-153 -52.5q-108 0 -161.5 72t-53.5 189v20q0 117 52 189t158 72t158 -72t52 -189v-20zM265 516q-94 0 -142 -65.5t-48 -175.5h380q0 110 -48 175.5t-142 65.5zM285 720v-40
h-40v40h40z" />
    <glyph glyph-name="Eogonek" unicode="&#x118;" horiz-adv-x="540" 
d="M529 -172l6 -16q-36 -18 -79 -18q-39 0 -65 22.5t-26 68.5q0 76 79 115h-364v780h410v-20h-390v-352h340v-20h-340v-368h390v-20q-107 -34 -107 -115q0 -38 20.5 -55.5t52.5 -17.5q39 0 73 16z" />
    <glyph glyph-name="eogonek" unicode="&#x119;" horiz-adv-x="530" 
d="M369 -172l6 -16q-36 -18 -79 -18q-39 0 -65 22.5t-26 68.5q0 72 67 109h-2q-108 0 -161.5 72t-53.5 189v20q0 117 52 189t158 72t158 -72t52 -189v-20h-400q0 -110 48.5 -175.5t146.5 -65.5q94 0 139.5 47t45.5 109h20v-5q0 -54 -36.5 -102t-108.5 -63
q-40 -8 -73.5 -37.5t-33.5 -77.5q0 -38 20.5 -55.5t52.5 -17.5q39 0 73 16zM265 516q-94 0 -142 -65.5t-48 -175.5h380q0 110 -48 175.5t-142 65.5z" />
    <glyph glyph-name="Ecaron" unicode="&#x11a;" horiz-adv-x="540" 
d="M80 780h410v-20h-390v-352h340v-20h-340v-368h390v-20h-410v780zM376 950h24l-100 -110h-20l-100 110h24l86 -95z" />
    <glyph glyph-name="ecaron" unicode="&#x11b;" horiz-adv-x="530" 
d="M475 255h-400q0 -110 48.5 -175.5t146.5 -65.5q94 0 139.5 47t45.5 109h20v-5q0 -66 -52 -118.5t-153 -52.5q-108 0 -161.5 72t-53.5 189v20q0 117 52 189t158 72t158 -72t52 -189v-20zM265 516q-94 0 -142 -65.5t-48 -175.5h380q0 110 -48 175.5t-142 65.5zM130 780h25
l110 -142l110 142h25l-125 -160h-20z" />
    <glyph glyph-name="Gcircumflex" unicode="&#x11c;" horiz-adv-x="625" 
d="M336 -6q-136 0 -203.5 88.5t-67.5 287.5v40q0 198 66 287t194 89q225 0 225 -263v-23h-20q0 140 -47.5 203t-154.5 63h-6q-115 0 -176 -84t-61 -272v-40q0 -189 62.5 -272.5t185.5 -83.5h6q68 0 117 21t74 53v254h-159v20h179v-283q-66 -85 -214 -85zM239 840h-24
l100 110h20l100 -110h-24l-86 95z" />
    <glyph glyph-name="gcircumflex" unicode="&#x11d;" horiz-adv-x="510" 
d="M250 -206q-100 0 -147.5 52t-47.5 143v11h20q0 -91 40.5 -138.5t134.5 -47.5q170 0 170 186v115q-60 -81 -163 -81q-99 0 -150.5 63t-51.5 178v20q0 115 51.5 178t150.5 63q105 0 166 -85l7 79h15l-5 -120v-421q0 -90 -47 -142.5t-143 -52.5zM420 147v276q-61 93 -162 93
q-90 0 -136.5 -58t-46.5 -163v-20q0 -105 46.5 -163t136.5 -58q101 0 162 93zM147 620h-25l125 160h20l125 -160h-25l-110 142z" />
    <glyph glyph-name="Gbreve" unicode="&#x11e;" horiz-adv-x="625" 
d="M336 -6q-136 0 -203.5 88.5t-67.5 287.5v40q0 198 66 287t194 89q225 0 225 -263v-23h-20q0 140 -47.5 203t-154.5 63h-6q-115 0 -176 -84t-61 -272v-40q0 -189 62.5 -272.5t185.5 -83.5h6q68 0 117 21t74 53v254h-159v20h179v-283q-66 -85 -214 -85zM325 852
q53 0 82.5 26.5t29.5 71.5h18q0 -53 -35 -84.5t-95 -31.5t-95 31.5t-35 84.5h18q0 -45 29.5 -71.5t82.5 -26.5z" />
    <glyph glyph-name="gbreve" unicode="&#x11f;" horiz-adv-x="510" 
d="M250 -206q-100 0 -147.5 52t-47.5 143v11h20q0 -91 40.5 -138.5t134.5 -47.5q170 0 170 186v115q-60 -81 -163 -81q-99 0 -150.5 63t-51.5 178v20q0 115 51.5 178t150.5 63q105 0 166 -85l7 79h15l-5 -120v-421q0 -90 -47 -142.5t-143 -52.5zM420 147v276q-61 93 -162 93
q-90 0 -136.5 -58t-46.5 -163v-20q0 -105 46.5 -163t136.5 -58q101 0 162 93zM257 614q-72 0 -111 47.5t-39 118.5h18q0 -64 33.5 -106t98.5 -42t98.5 42t33.5 106h18q0 -71 -39 -118.5t-111 -47.5z" />
    <glyph glyph-name="Gdotaccent" unicode="&#x120;" horiz-adv-x="625" 
d="M336 -6q-136 0 -203.5 88.5t-67.5 287.5v40q0 198 66 287t194 89q225 0 225 -263v-23h-20q0 140 -47.5 203t-154.5 63h-6q-115 0 -176 -84t-61 -272v-40q0 -189 62.5 -272.5t185.5 -83.5h6q68 0 117 21t74 53v254h-159v20h179v-283q-66 -85 -214 -85zM345 915v-40h-40v40
h40z" />
    <glyph glyph-name="gdotaccent" unicode="&#x121;" horiz-adv-x="510" 
d="M250 -206q-100 0 -147.5 52t-47.5 143v11h20q0 -91 40.5 -138.5t134.5 -47.5q170 0 170 186v115q-60 -81 -163 -81q-99 0 -150.5 63t-51.5 178v20q0 115 51.5 178t150.5 63q105 0 166 -85l7 79h15l-5 -120v-421q0 -90 -47 -142.5t-143 -52.5zM420 147v276q-61 93 -162 93
q-90 0 -136.5 -58t-46.5 -163v-20q0 -105 46.5 -163t136.5 -58q101 0 162 93zM277 720v-40h-40v40h40z" />
    <glyph glyph-name="Gcommaaccent" unicode="&#x122;" horiz-adv-x="625" 
d="M336 -6q-136 0 -203.5 88.5t-67.5 287.5v40q0 198 66 287t194 89q225 0 225 -263v-23h-20q0 140 -47.5 203t-154.5 63h-6q-115 0 -176 -84t-61 -272v-40q0 -189 62.5 -272.5t185.5 -83.5h6q68 0 117 21t74 53v254h-159v20h179v-283q-66 -85 -214 -85zM356 -70v-32
q0 -56 -18 -80t-57 -24v18q29 0 41.5 15.5t13.5 62.5h-20v40h40z" />
    <glyph glyph-name="gcommaaccent" unicode="&#x123;" horiz-adv-x="510" 
d="M250 -206q-100 0 -147.5 52t-47.5 143v11h20q0 -91 40.5 -138.5t134.5 -47.5q170 0 170 186v115q-60 -81 -163 -81q-99 0 -150.5 63t-51.5 178v20q0 115 51.5 178t150.5 63q105 0 166 -85l7 79h15l-5 -120v-421q0 -90 -47 -142.5t-143 -52.5zM420 147v276q-61 93 -162 93
q-90 0 -136.5 -58t-46.5 -163v-20q0 -105 46.5 -163t136.5 -58q101 0 162 93zM237 650v32q0 56 18 80t57 24v-18q-29 0 -41.5 -15.5t-13.5 -62.5h20v-40h-40z" />
    <glyph glyph-name="Hcircumflex" unicode="&#x124;" horiz-adv-x="620" 
d="M520 780h20v-780h-20v388h-420v-388h-20v780h20v-372h420v372zM224 840h-24l100 110h20l100 -110h-24l-86 95z" />
    <glyph glyph-name="hcircumflex" unicode="&#x125;" horiz-adv-x="490" 
d="M430 0h-20v375q0 76 -35 108.5t-106 32.5q-121 0 -179 -93v-423h-20v800h20v-348q61 84 181 84q159 0 159 -156v-380zM-6 840h-24l100 110h20l100 -110h-24l-86 95z" />
    <glyph glyph-name="Hbar" unicode="&#x126;" horiz-adv-x="620" 
d="M520 780h20v-780h-20v388h-420v-388h-20v780h20v-176h420v176zM100 408h420v176h-420v-176z" />
    <glyph glyph-name="hbar" unicode="&#x127;" horiz-adv-x="490" 
d="M-35 655v20h105v125h20v-125h165v-20h-165v-203q61 84 181 84q159 0 159 -156v-380h-20v375q0 76 -35 108.5t-106 32.5q-121 0 -179 -93v-423h-20v655h-105z" />
    <glyph glyph-name="Itilde" unicode="&#x128;" horiz-adv-x="190" 
d="M105 780v-780h-20v780h20zM212 927h18q0 -70 -60 -70q-28 0 -76 29t-71 29q-21 0 -33 -10.5t-12 -41.5h-18q0 70 60 70q28 0 76 -29t71 -29q21 0 33 10.5t12 41.5z" />
    <glyph glyph-name="itilde" unicode="&#x129;" horiz-adv-x="180" 
d="M80 0v530h20v-530h-20zM207 732h18q0 -70 -60 -70q-28 0 -76 29t-71 29q-21 0 -33 -10.5t-12 -41.5h-18q0 70 60 70q28 0 76 -29t71 -29q21 0 33 10.5t12 41.5z" />
    <glyph glyph-name="Imacron" unicode="&#x12a;" horiz-adv-x="190" 
d="M105 780v-780h-20v780h20zM-5 885v20h200v-20h-200z" />
    <glyph glyph-name="imacron" unicode="&#x12b;" horiz-adv-x="180" 
d="M80 0v530h20v-530h-20zM-10 690v20h200v-20h-200z" />
    <glyph glyph-name="Ibreve" unicode="&#x12c;" horiz-adv-x="190" 
d="M105 780v-780h-20v780h20zM95 852q53 0 82.5 26.5t29.5 71.5h18q0 -53 -35 -84.5t-95 -31.5t-95 31.5t-35 84.5h18q0 -45 29.5 -71.5t82.5 -26.5z" />
    <glyph glyph-name="ibreve" unicode="&#x12d;" horiz-adv-x="180" 
d="M80 0v530h20v-530h-20zM90 614q-72 0 -111 47.5t-39 118.5h18q0 -64 33.5 -106t98.5 -42t98.5 42t33.5 106h18q0 -71 -39 -118.5t-111 -47.5z" />
    <glyph glyph-name="Iogonek" unicode="&#x12e;" horiz-adv-x="190" 
d="M144 -172l6 -16q-36 -18 -79 -18q-39 0 -65 22.5t-26 68.5q0 51 28.5 79.5t76.5 46.5v769h20v-780q-107 -34 -107 -115q0 -38 20.5 -55.5t52.5 -17.5q39 0 73 16z" />
    <glyph glyph-name="iogonek" unicode="&#x12f;" horiz-adv-x="180" 
d="M139 -172l6 -16q-36 -18 -79 -18q-39 0 -65 22.5t-26 68.5q0 51 28.5 79.5t76.5 46.5v519h20v-530q-107 -34 -107 -115q0 -38 20.5 -55.5t52.5 -17.5q39 0 73 16zM110 720v-40h-40v40h40z" />
    <glyph glyph-name="Idotaccent" unicode="&#x130;" horiz-adv-x="190" 
d="M105 780v-780h-20v780h20zM115 915v-40h-40v40h40z" />
    <glyph glyph-name="dotlessi" unicode="&#x131;" horiz-adv-x="180" 
d="M80 0v530h20v-530h-20z" />
    <glyph glyph-name="IJ" unicode="&#x132;" horiz-adv-x="450" 
d="M105 780v-780h-20v780h20zM353 135v645h20v-651q0 -135 -131 -135q-39 0 -64 10v20q20 -10 60 -10q57 0 86 26t29 95z" />
    <glyph glyph-name="ij" unicode="&#x133;" horiz-adv-x="320" 
d="M220 -65v595h20v-601q0 -135 -131 -135q-39 0 -64 10v20q20 -10 60 -10q57 0 86 26t29 95zM80 0v530h20v-530h-20zM110 720v-40h-40v40h40zM250 720v-40h-40v40h40z" />
    <glyph glyph-name="Jcircumflex" unicode="&#x134;" horiz-adv-x="470" 
d="M373 780h20v-540q0 -246 -180 -246t-180 246v7h20q0 -116 36.5 -174.5t123.5 -58.5q88 0 124 58.5t36 174.5v533zM297 840h-24l100 110h20l100 -110h-24l-86 95z" />
    <glyph glyph-name="jcircumflex" unicode="&#x135;" horiz-adv-x="180" 
d="M80 -65v595h20v-601q0 -135 -131 -135q-39 0 -64 10v20q20 -10 60 -10q57 0 86 26t29 95zM-20 620h-25l125 160h20l125 -160h-25l-110 142z" />
    <glyph glyph-name="Kcommaaccent" unicode="&#x136;" horiz-adv-x="518" 
d="M100 780v-501l356 501h24l-241 -339l241 -441h-24l-229 424l-127 -178v-246h-20v780h20zM280 -70v-32q0 -56 -18 -80t-57 -24v18q29 0 41.5 15.5t13.5 62.5h-20v40h40z" />
    <glyph glyph-name="kcommaaccent" unicode="&#x137;" horiz-adv-x="458" 
d="M95 800v-600l303 330h27l-186 -201l186 -329h-23l-176 314l-131 -142v-172h-20v800h20zM260 -70v-32q0 -56 -18 -80t-57 -24v18q29 0 41.5 15.5t13.5 62.5h-20v40h40z" />
    <glyph glyph-name="kgreenlandic" unicode="&#x138;" horiz-adv-x="458" 
d="M95 530v-330l303 330h27l-186 -201l186 -329h-23l-176 314l-131 -142v-172h-20v530h20z" />
    <glyph glyph-name="Lacute" unicode="&#x139;" horiz-adv-x="464" 
d="M450 0h-370v780h20v-760h350v-20zM141 950h22l-62 -110h-22z" />
    <glyph glyph-name="lacute" unicode="&#x13a;" horiz-adv-x="180" 
d="M80 0v800h20v-800h-20zM141 950h22l-62 -110h-22z" />
    <glyph glyph-name="Lcommaaccent" unicode="&#x13b;" horiz-adv-x="464" 
d="M450 0h-370v780h20v-760h350v-20zM285 -70v-32q0 -56 -18 -80t-57 -24v18q29 0 41.5 15.5t13.5 62.5h-20v40h40z" />
    <glyph glyph-name="lcommaaccent" unicode="&#x13c;" horiz-adv-x="180" 
d="M80 0v800h20v-800h-20zM110 -70v-32q0 -56 -18 -80t-57 -24v18q29 0 41.5 15.5t13.5 62.5h-20v40h40z" />
    <glyph glyph-name="Lcaron" unicode="&#x13d;" horiz-adv-x="464" 
d="M450 0h-370v780h20v-760h350v-20zM300 800h21l-11 -180h-10v180z" />
    <glyph glyph-name="lcaron" unicode="&#x13e;" horiz-adv-x="180" 
d="M80 0v800h20v-800h-20zM190 800h21l-11 -180h-10v180z" />
    <glyph glyph-name="Ldot" unicode="&#x13f;" horiz-adv-x="464" 
d="M450 0h-370v780h20v-760h350v-20zM302 378v40h40v-40h-40z" />
    <glyph glyph-name="ldot" unicode="&#x140;" horiz-adv-x="280" 
d="M80 0v800h20v-800h-20zM250 360v-40h-40v40h40z" />
    <glyph glyph-name="Lslash" unicode="&#x141;" horiz-adv-x="519" 
d="M25 306l110 63v411h20v-399l230 133v-24l-230 -133v-337h350v-20h-370v345l-110 -63v24z" />
    <glyph glyph-name="lslash" unicode="&#x142;" horiz-adv-x="260" 
d="M240 530v-25l-100 -74v-431h-20v417l-90 -66v25l90 66v358h20v-344z" />
    <glyph glyph-name="Nacute" unicode="&#x143;" horiz-adv-x="640" 
d="M541 29l-1 151v600h20v-780h-25l-436 751l1 -151v-600h-20v780h25zM371 950h22l-62 -110h-22z" />
    <glyph glyph-name="nacute" unicode="&#x144;" horiz-adv-x="490" 
d="M430 0h-20v375q0 76 -35 108.5t-106 32.5q-121 0 -179 -93v-423h-20v410l-5 120h15l7 -82q63 88 184 88q159 0 159 -156v-380zM329 780h22l-90 -160h-22z" />
    <glyph glyph-name="Ncommaaccent" unicode="&#x145;" horiz-adv-x="640" 
d="M541 29l-1 151v600h20v-780h-25l-436 751l1 -151v-600h-20v780h25zM340 -70v-32q0 -56 -18 -80t-57 -24v18q29 0 41.5 15.5t13.5 62.5h-20v40h40z" />
    <glyph glyph-name="ncommaaccent" unicode="&#x146;" horiz-adv-x="490" 
d="M430 0h-20v375q0 76 -35 108.5t-106 32.5q-121 0 -179 -93v-423h-20v410l-5 120h15l7 -82q63 88 184 88q159 0 159 -156v-380zM270 -70v-32q0 -56 -18 -80t-57 -24v18q29 0 41.5 15.5t13.5 62.5h-20v40h40z" />
    <glyph glyph-name="Ncaron" unicode="&#x147;" horiz-adv-x="640" 
d="M541 29l-1 151v600h20v-780h-25l-436 751l1 -151v-600h-20v780h25zM406 950h24l-100 -110h-20l-100 110h24l86 -95z" />
    <glyph glyph-name="ncaron" unicode="&#x148;" horiz-adv-x="490" 
d="M430 0h-20v375q0 76 -35 108.5t-106 32.5q-121 0 -179 -93v-423h-20v410l-5 120h15l7 -82q63 88 184 88q159 0 159 -156v-380zM115 780h25l110 -142l110 142h25l-125 -160h-20z" />
    <glyph glyph-name="Eng" unicode="&#x14a;" horiz-adv-x="640" 
d="M540 -65v56l-441 760l1 -151v-600h-20v780h25l436 -751l-1 151v600h20v-851q0 -135 -131 -135q-39 0 -64 10v20q20 -10 60 -10q57 0 86 26t29 95z" />
    <glyph glyph-name="eng" unicode="&#x14b;" horiz-adv-x="490" 
d="M410 -65v440q0 76 -35 108.5t-106 32.5q-121 0 -179 -93v-423h-20v410l-5 120h15l7 -82q63 88 184 88q159 0 159 -156v-451q0 -135 -131 -135q-39 0 -64 10v20q20 -10 60 -10q57 0 86 26t29 95z" />
    <glyph glyph-name="Omacron" unicode="&#x14c;" horiz-adv-x="630" 
d="M65 410q0 198 61.5 287t188.5 89t188.5 -89t61.5 -287v-40q0 -198 -61.5 -287t-188.5 -89t-188.5 89t-61.5 287v40zM85 370q0 -189 56.5 -272.5t170.5 -83.5h6q114 0 170.5 83.5t56.5 272.5v40q0 189 -56.5 272.5t-170.5 83.5h-6q-114 0 -170.5 -83.5t-56.5 -272.5v-40z
M215 885v20h200v-20h-200z" />
    <glyph glyph-name="omacron" unicode="&#x14d;" horiz-adv-x="526" 
d="M263 -6q-100 0 -154 69t-54 192v20q0 123 54 192t154 69t154 -69t54 -192v-20q0 -123 -54 -192t-154 -69zM263 14q90 0 139 64t49 177v20q0 113 -49 177t-139 64t-139 -64t-49 -177v-20q0 -113 49 -177t139 -64zM163 690v20h200v-20h-200z" />
    <glyph glyph-name="Obreve" unicode="&#x14e;" horiz-adv-x="630" 
d="M65 410q0 198 61.5 287t188.5 89t188.5 -89t61.5 -287v-40q0 -198 -61.5 -287t-188.5 -89t-188.5 89t-61.5 287v40zM85 370q0 -189 56.5 -272.5t170.5 -83.5h6q114 0 170.5 83.5t56.5 272.5v40q0 189 -56.5 272.5t-170.5 83.5h-6q-114 0 -170.5 -83.5t-56.5 -272.5v-40z
M315 852q53 0 82.5 26.5t29.5 71.5h18q0 -53 -35 -84.5t-95 -31.5t-95 31.5t-35 84.5h18q0 -45 29.5 -71.5t82.5 -26.5z" />
    <glyph glyph-name="obreve" unicode="&#x14f;" horiz-adv-x="526" 
d="M263 -6q-100 0 -154 69t-54 192v20q0 123 54 192t154 69t154 -69t54 -192v-20q0 -123 -54 -192t-154 -69zM263 14q90 0 139 64t49 177v20q0 113 -49 177t-139 64t-139 -64t-49 -177v-20q0 -113 49 -177t139 -64zM263 614q-72 0 -111 47.5t-39 118.5h18q0 -64 33.5 -106
t98.5 -42t98.5 42t33.5 106h18q0 -71 -39 -118.5t-111 -47.5z" />
    <glyph glyph-name="Ohungarumlaut" unicode="&#x150;" horiz-adv-x="630" 
d="M65 410q0 198 61.5 287t188.5 89t188.5 -89t61.5 -287v-40q0 -198 -61.5 -287t-188.5 -89t-188.5 89t-61.5 287v40zM85 370q0 -189 56.5 -272.5t170.5 -83.5h6q114 0 170.5 83.5t56.5 272.5v40q0 189 -56.5 272.5t-170.5 83.5h-6q-114 0 -170.5 -83.5t-56.5 -272.5v-40z
M416 950h22l-62 -110h-22zM316 950h22l-62 -110h-22z" />
    <glyph glyph-name="ohungarumlaut" unicode="&#x151;" horiz-adv-x="526" 
d="M263 -6q-100 0 -154 69t-54 192v20q0 123 54 192t154 69t154 -69t54 -192v-20q0 -123 -54 -192t-154 -69zM263 14q90 0 139 64t49 177v20q0 113 -49 177t-139 64t-139 -64t-49 -177v-20q0 -113 49 -177t139 -64zM392 780h22l-90 -160h-22zM292 780h22l-90 -160h-22z" />
    <glyph glyph-name="OE" unicode="&#x152;" horiz-adv-x="940" 
d="M60 370v40q0 370 285 370h545v-20h-390v-352h340v-20h-340v-368h390v-20h-545q-285 0 -285 370zM480 760h-130q-270 0 -270 -350v-40q0 -350 270 -350h130v740z" />
    <glyph glyph-name="oe" unicode="&#x153;" horiz-adv-x="926" 
d="M871 255h-400q0 -110 48.5 -175.5t146.5 -65.5q94 0 139.5 47t45.5 109h20v-5q0 -66 -52 -118.5t-153 -52.5q-86 0 -137 47t-68 128q-17 -84 -67.5 -129.5t-130.5 -45.5q-100 0 -154 69t-54 192v20q0 123 54 192t154 69q80 0 130.5 -45.5t67.5 -129.5q16 81 66 128
t134 47q106 0 158 -72t52 -189v-20zM263 14q90 0 139 64t49 177v20q0 113 -49 177t-139 64t-139 -64t-49 -177v-20q0 -113 49 -177t139 -64zM661 516q-94 0 -142 -65.5t-48 -175.5h380q0 110 -48 175.5t-142 65.5z" />
    <glyph glyph-name="Racute" unicode="&#x154;" horiz-adv-x="553" 
d="M100 340v-340h-20v780h193q43 0 79.5 -10t70 -32t52.5 -65t19 -103v-20q0 -166 -143 -201l143 -349h-22l-141 345q-24 -5 -58 -5h-173zM100 360h172q36 0 67 7t63.5 26t51.5 59.5t19 98.5v18q0 58 -19 98.5t-51.5 59.5t-63.5 26t-67 7h-172v-400zM321 950h22l-62 -110
h-22z" />
    <glyph glyph-name="racute" unicode="&#x155;" horiz-adv-x="297" 
d="M240 536l15 -1v-19h-9q-60 0 -99 -28t-57 -67v-421h-20v410l-5 120h15l7 -81q52 87 153 87zM239 780h22l-90 -160h-22z" />
    <glyph glyph-name="Rcommaaccent" unicode="&#x156;" horiz-adv-x="553" 
d="M100 340v-340h-20v780h193q43 0 79.5 -10t70 -32t52.5 -65t19 -103v-20q0 -166 -143 -201l143 -349h-22l-141 345q-24 -5 -58 -5h-173zM100 360h172q36 0 67 7t63.5 26t51.5 59.5t19 98.5v18q0 58 -19 98.5t-51.5 59.5t-63.5 26t-67 7h-172v-400zM290 -70v-32
q0 -56 -18 -80t-57 -24v18q29 0 41.5 15.5t13.5 62.5h-20v40h40z" />
    <glyph glyph-name="rcommaaccent" unicode="&#x157;" horiz-adv-x="297" 
d="M240 536l15 -1v-19h-9q-60 0 -99 -28t-57 -67v-421h-20v410l-5 120h15l7 -81q52 87 153 87zM100 -70v-32q0 -56 -18 -80t-57 -24v18q29 0 41.5 15.5t13.5 62.5h-20v40h40z" />
    <glyph glyph-name="Rcaron" unicode="&#x158;" horiz-adv-x="553" 
d="M100 340v-340h-20v780h193q43 0 79.5 -10t70 -32t52.5 -65t19 -103v-20q0 -166 -143 -201l143 -349h-22l-141 345q-24 -5 -58 -5h-173zM100 360h172q36 0 67 7t63.5 26t51.5 59.5t19 98.5v18q0 58 -19 98.5t-51.5 59.5t-63.5 26t-67 7h-172v-400zM356 950h24l-100 -110
h-20l-100 110h24l86 -95z" />
    <glyph glyph-name="rcaron" unicode="&#x159;" horiz-adv-x="297" 
d="M240 536l15 -1v-19h-9q-60 0 -99 -28t-57 -67v-421h-20v410l-5 120h15l7 -81q52 87 153 87zM25 780h25l110 -142l110 142h25l-125 -160h-20z" />
    <glyph glyph-name="Sacute" unicode="&#x15a;" horiz-adv-x="580" 
d="M286 395q-123 15 -177 61.5t-54 123.5v10q0 89 67 142.5t167 53.5q119 0 177.5 -63t58.5 -178v-25h-20q0 129 -52.5 187.5t-159.5 58.5h-6q-87 0 -148.5 -48t-61.5 -123v-10q0 -76 50.5 -116.5t168.5 -54.5q124 -15 179 -65.5t55 -137.5v-10q0 -98 -67.5 -152.5
t-172.5 -54.5q-117 0 -178.5 66.5t-61.5 179.5v10h20q0 -116 56 -176t161 -60h6q95 0 156 49t61 134v10q0 85 -52.5 129t-171.5 59zM341 950h22l-62 -110h-22z" />
    <glyph glyph-name="sacute" unicode="&#x15b;" horiz-adv-x="480" 
d="M240 14q79 0 124.5 34t45.5 92q0 65 -40.5 89.5t-139.5 32.5q-100 10 -137.5 41.5t-37.5 88.5v6q0 62 49.5 100t135.5 38q185 0 185 -172v-4h-20q0 76 -37.5 116t-127.5 40q-76 0 -120.5 -32t-44.5 -89q0 -56 36 -82t139 -35q101 -9 140.5 -38.5t39.5 -96.5v-6
q0 -65 -51 -104t-139 -39q-103 0 -146.5 46.5t-43.5 115.5v4h20q0 -146 170 -146zM319 780h22l-90 -160h-22z" />
    <glyph glyph-name="Scircumflex" unicode="&#x15c;" horiz-adv-x="580" 
d="M286 395q-123 15 -177 61.5t-54 123.5v10q0 89 67 142.5t167 53.5q119 0 177.5 -63t58.5 -178v-25h-20q0 129 -52.5 187.5t-159.5 58.5h-6q-87 0 -148.5 -48t-61.5 -123v-10q0 -76 50.5 -116.5t168.5 -54.5q124 -15 179 -65.5t55 -137.5v-10q0 -98 -67.5 -152.5
t-172.5 -54.5q-117 0 -178.5 66.5t-61.5 179.5v10h20q0 -116 56 -176t161 -60h6q95 0 156 49t61 134v10q0 85 -52.5 129t-171.5 59zM204 840h-24l100 110h20l100 -110h-24l-86 95z" />
    <glyph glyph-name="scircumflex" unicode="&#x15d;" horiz-adv-x="480" 
d="M240 14q79 0 124.5 34t45.5 92q0 65 -40.5 89.5t-139.5 32.5q-100 10 -137.5 41.5t-37.5 88.5v6q0 62 49.5 100t135.5 38q185 0 185 -172v-4h-20q0 76 -37.5 116t-127.5 40q-76 0 -120.5 -32t-44.5 -89q0 -56 36 -82t139 -35q101 -9 140.5 -38.5t39.5 -96.5v-6
q0 -65 -51 -104t-139 -39q-103 0 -146.5 46.5t-43.5 115.5v4h20q0 -146 170 -146zM130 620h-25l125 160h20l125 -160h-25l-110 142z" />
    <glyph glyph-name="Scedilla" unicode="&#x15e;" horiz-adv-x="580" 
d="M211 -188l6 16q28 -16 73 -16q35 0 54 10t19 43t-19 43t-54 10l-25 -2l-11 11l24 67q-112 4 -170 70t-58 176v10h20q0 -116 56 -176t161 -60h6q95 0 156 49t61 134v10q0 85 -52.5 129t-171.5 59q-123 15 -177 61.5t-54 123.5v10q0 89 67 142.5t167 53.5q119 0 177.5 -63
t58.5 -178v-25h-20q0 129 -52.5 187.5t-159.5 58.5h-6q-87 0 -148.5 -48t-61.5 -123v-10q0 -76 50.5 -116.5t168.5 -54.5q124 -15 179 -65.5t55 -137.5v-10q0 -96 -65 -150.5t-167 -56.5l-21 -59q5 1 18 1q86 0 86 -71t-91 -71q-43 0 -79 18z" />
    <glyph glyph-name="scedilla" unicode="&#x15f;" horiz-adv-x="480" 
d="M161 -188l6 16q28 -16 73 -16q35 0 54 10t19 43t-19 43t-54 10l-25 -2l-11 11l24 67q-50 2 -86.5 16.5t-55.5 38.5t-27.5 50t-8.5 57v4h20q0 -146 170 -146q79 0 124.5 34t45.5 92q0 65 -40.5 89.5t-139.5 32.5q-100 10 -137.5 41.5t-37.5 88.5v6q0 62 49.5 100t135.5 38
q185 0 185 -172v-4h-20q0 76 -37.5 116t-127.5 40q-76 0 -120.5 -32t-44.5 -89q0 -56 36 -82t139 -35q101 -9 140.5 -38.5t39.5 -96.5v-6q0 -63 -48.5 -102t-133.5 -41l-21 -59q5 1 18 1q86 0 86 -71t-91 -71q-43 0 -79 18z" />
    <glyph glyph-name="Scaron" unicode="&#x160;" horiz-adv-x="580" 
d="M286 395q-123 15 -177 61.5t-54 123.5v10q0 89 67 142.5t167 53.5q119 0 177.5 -63t58.5 -178v-25h-20q0 129 -52.5 187.5t-159.5 58.5h-6q-87 0 -148.5 -48t-61.5 -123v-10q0 -76 50.5 -116.5t168.5 -54.5q124 -15 179 -65.5t55 -137.5v-10q0 -98 -67.5 -152.5
t-172.5 -54.5q-117 0 -178.5 66.5t-61.5 179.5v10h20q0 -116 56 -176t161 -60h6q95 0 156 49t61 134v10q0 85 -52.5 129t-171.5 59zM376 950h24l-100 -110h-20l-100 110h24l86 -95z" />
    <glyph glyph-name="scaron" unicode="&#x161;" horiz-adv-x="480" 
d="M240 14q79 0 124.5 34t45.5 92q0 65 -40.5 89.5t-139.5 32.5q-100 10 -137.5 41.5t-37.5 88.5v6q0 62 49.5 100t135.5 38q185 0 185 -172v-4h-20q0 76 -37.5 116t-127.5 40q-76 0 -120.5 -32t-44.5 -89q0 -56 36 -82t139 -35q101 -9 140.5 -38.5t39.5 -96.5v-6
q0 -65 -51 -104t-139 -39q-103 0 -146.5 46.5t-43.5 115.5v4h20q0 -146 170 -146zM105 780h25l110 -142l110 142h25l-125 -160h-20z" />
    <glyph glyph-name="Tcommaaccent" unicode="&#x162;" horiz-adv-x="490" 
d="M255 760v-760h-20v760h-210v20h440v-20h-210zM265 -70v-32q0 -56 -18 -80t-57 -24v18q29 0 41.5 15.5t13.5 62.5h-20v40h40z" />
    <glyph glyph-name="tcommaaccent" unicode="&#x163;" horiz-adv-x="360" 
d="M135 530h185v-20h-185v-375q0 -69 29 -95t86 -26q40 0 60 10v-20q-25 -10 -64 -10q-131 0 -131 135v381h-85v20h85v150h20v-150zM230 -70v-32q0 -56 -18 -80t-57 -24v18q29 0 41.5 15.5t13.5 62.5h-20v40h40z" />
    <glyph glyph-name="Tcaron" unicode="&#x164;" horiz-adv-x="490" 
d="M255 760v-760h-20v760h-210v20h440v-20h-210zM331 950h24l-100 -110h-20l-100 110h24l86 -95z" />
    <glyph glyph-name="tcaron" unicode="&#x165;" horiz-adv-x="360" 
d="M135 530h185v-20h-185v-375q0 -69 29 -95t86 -26q40 0 60 10v-20q-25 -10 -64 -10q-131 0 -131 135v381h-85v20h85v150h20v-150zM225 800h21l-11 -180h-10v180z" />
    <glyph glyph-name="Tbar" unicode="&#x166;" horiz-adv-x="490" 
d="M235 408v352h-210v20h440v-20h-210v-352h120v-20h-120v-388h-20v388h-120v20h120z" />
    <glyph glyph-name="tbar" unicode="&#x167;" horiz-adv-x="360" 
d="M30 255v20h85v235h-85v20h85v150h20v-150h185v-20h-185v-235h145v-20h-145v-120q0 -69 29 -95t86 -26q40 0 60 10v-20q-25 -10 -64 -10q-131 0 -131 135v126h-85z" />
    <glyph glyph-name="Utilde" unicode="&#x168;" horiz-adv-x="620" 
d="M310 -6q-113 0 -173 56t-60 193v537h20v-534q0 -130 52.5 -181t160.5 -51t160.5 51t52.5 181v534h20v-537q0 -137 -60 -193t-173 -56zM427 927h18q0 -70 -60 -70q-28 0 -76 29t-71 29q-21 0 -33 -10.5t-12 -41.5h-18q0 70 60 70q28 0 76 -29t71 -29q21 0 33 10.5t12 41.5
z" />
    <glyph glyph-name="utilde" unicode="&#x169;" horiz-adv-x="490" 
d="M60 530h20v-375q0 -76 35 -108.5t106 -32.5q121 0 179 93v423h20v-410l5 -120h-15l-8 81q-60 -87 -183 -87q-159 0 -159 156v380zM357 732h18q0 -70 -60 -70q-28 0 -76 29t-71 29q-21 0 -33 -10.5t-12 -41.5h-18q0 70 60 70q28 0 76 -29t71 -29q21 0 33 10.5t12 41.5z
" />
    <glyph glyph-name="Umacron" unicode="&#x16a;" horiz-adv-x="620" 
d="M310 -6q-113 0 -173 56t-60 193v537h20v-534q0 -130 52.5 -181t160.5 -51t160.5 51t52.5 181v534h20v-537q0 -137 -60 -193t-173 -56zM210 885v20h200v-20h-200z" />
    <glyph glyph-name="umacron" unicode="&#x16b;" horiz-adv-x="490" 
d="M60 530h20v-375q0 -76 35 -108.5t106 -32.5q121 0 179 93v423h20v-410l5 -120h-15l-8 81q-60 -87 -183 -87q-159 0 -159 156v380zM140 690v20h200v-20h-200z" />
    <glyph glyph-name="Ubreve" unicode="&#x16c;" horiz-adv-x="620" 
d="M310 -6q-113 0 -173 56t-60 193v537h20v-534q0 -130 52.5 -181t160.5 -51t160.5 51t52.5 181v534h20v-537q0 -137 -60 -193t-173 -56zM310 852q53 0 82.5 26.5t29.5 71.5h18q0 -53 -35 -84.5t-95 -31.5t-95 31.5t-35 84.5h18q0 -45 29.5 -71.5t82.5 -26.5z" />
    <glyph glyph-name="ubreve" unicode="&#x16d;" horiz-adv-x="490" 
d="M60 530h20v-375q0 -76 35 -108.5t106 -32.5q121 0 179 93v423h20v-410l5 -120h-15l-8 81q-60 -87 -183 -87q-159 0 -159 156v380zM240 614q-72 0 -111 47.5t-39 118.5h18q0 -64 33.5 -106t98.5 -42t98.5 42t33.5 106h18q0 -71 -39 -118.5t-111 -47.5z" />
    <glyph glyph-name="Uring" unicode="&#x16e;" horiz-adv-x="620" 
d="M310 -6q-113 0 -173 56t-60 193v537h20v-534q0 -130 52.5 -181t160.5 -51t160.5 51t52.5 181v534h20v-537q0 -137 -60 -193t-173 -56zM224 870q0 35 25.5 60.5t60.5 25.5t60.5 -25.5t25.5 -60.5t-25.5 -60.5t-60.5 -25.5t-60.5 25.5t-25.5 60.5zM242 870q0 -28 20 -48
t48 -20t48 20t20 48t-20 48t-48 20t-48 -20t-20 -48z" />
    <glyph glyph-name="uring" unicode="&#x16f;" horiz-adv-x="490" 
d="M60 530h20v-375q0 -76 35 -108.5t106 -32.5q121 0 179 93v423h20v-410l5 -120h-15l-8 81q-60 -87 -183 -87q-159 0 -159 156v380zM154 700q0 35 25.5 60.5t60.5 25.5t60.5 -25.5t25.5 -60.5t-25.5 -60.5t-60.5 -25.5t-60.5 25.5t-25.5 60.5zM172 700q0 -28 20 -48t48 -20
t48 20t20 48t-20 48t-48 20t-48 -20t-20 -48z" />
    <glyph glyph-name="Uhungarumlaut" unicode="&#x170;" horiz-adv-x="620" 
d="M310 -6q-113 0 -173 56t-60 193v537h20v-534q0 -130 52.5 -181t160.5 -51t160.5 51t52.5 181v534h20v-537q0 -137 -60 -193t-173 -56zM311 950h22l-62 -110h-22zM411 950h22l-62 -110h-22z" />
    <glyph glyph-name="uhungarumlaut" unicode="&#x171;" horiz-adv-x="490" 
d="M60 530h20v-375q0 -76 35 -108.5t106 -32.5q121 0 179 93v423h20v-410l5 -120h-15l-8 81q-60 -87 -183 -87q-159 0 -159 156v380zM269 780h22l-90 -160h-22zM369 780h22l-90 -160h-22z" />
    <glyph glyph-name="Uogonek" unicode="&#x172;" horiz-adv-x="620" 
d="M420 -172l6 -16q-36 -18 -79 -18q-39 0 -65 22.5t-26 68.5q0 72 67 109h-13q-113 0 -173 56t-60 193v537h20v-534q0 -130 52.5 -181t160.5 -51t160.5 51t52.5 181v534h20v-537q0 -213 -162 -243q-40 -7 -73.5 -37t-33.5 -78q0 -38 20.5 -55.5t52.5 -17.5q39 0 73 16z" />
    <glyph glyph-name="uogonek" unicode="&#x173;" horiz-adv-x="490" 
d="M464 -172l6 -16q-36 -18 -79 -18q-39 0 -65 22.5t-26 68.5q0 52 29 80.5t79 46.5l-6 69q-60 -87 -183 -87q-159 0 -159 156v380h20v-375q0 -76 35 -108.5t106 -32.5q121 0 179 93v423h20v-410l5 -120q-107 -34 -107 -115q0 -38 20.5 -55.5t52.5 -17.5q39 0 73 16z" />
    <glyph glyph-name="Wcircumflex" unicode="&#x174;" horiz-adv-x="860" 
d="M440 780l203 -747l158 747h21l-167 -780h-22l-203 747l-203 -747h-22l-167 780h21l158 -747l203 747h20zM344 840h-24l100 110h20l100 -110h-24l-86 95z" />
    <glyph glyph-name="wcircumflex" unicode="&#x175;" horiz-adv-x="670" 
d="M335 498l-152 -498h-24l-126 530h21l118 -504l153 504h20l153 -504l118 504h21l-126 -530h-24zM225 620h-25l125 160h20l125 -160h-25l-110 142z" />
    <glyph glyph-name="Ycircumflex" unicode="&#x176;" horiz-adv-x="540" 
d="M265 259l228 521h22l-240 -545v-235h-20v235l-240 545h22zM179 840h-24l100 110h20l100 -110h-24l-86 95z" />
    <glyph glyph-name="ycircumflex" unicode="&#x177;" horiz-adv-x="460" 
d="M230 44l181 486h22l-194 -512l-81 -218h-19l82 218l-194 512h22zM120 620h-25l125 160h20l125 -160h-25l-110 142z" />
    <glyph glyph-name="Ydieresis" unicode="&#x178;" horiz-adv-x="540" 
d="M265 259l228 521h22l-240 -545v-235h-20v235l-240 545h22zM355 915v-40h-40v40h40zM215 915v-40h-40v40h40z" />
    <glyph glyph-name="Zacute" unicode="&#x179;" horiz-adv-x="550" 
d="M40 15l435 746l-115 -1h-310v20h450v-15l-435 -746l115 1h330v-20h-470v15zM326 950h22l-62 -110h-22z" />
    <glyph glyph-name="zacute" unicode="&#x17a;" horiz-adv-x="430" 
d="M35 15l324 496l-114 -1h-200v20h340v-15l-324 -496l114 1h220v-20h-360v15zM294 780h22l-90 -160h-22z" />
    <glyph glyph-name="Zdotaccent" unicode="&#x17b;" horiz-adv-x="550" 
d="M40 15l435 746l-115 -1h-310v20h450v-15l-435 -746l115 1h330v-20h-470v15zM295 915v-40h-40v40h40z" />
    <glyph glyph-name="zdotaccent" unicode="&#x17c;" horiz-adv-x="430" 
d="M35 15l324 496l-114 -1h-200v20h340v-15l-324 -496l114 1h220v-20h-360v15zM235 720v-40h-40v40h40z" />
    <glyph glyph-name="Zcaron" unicode="&#x17d;" horiz-adv-x="550" 
d="M40 15l435 746l-115 -1h-310v20h450v-15l-435 -746l115 1h330v-20h-470v15zM361 950h24l-100 -110h-20l-100 110h24l86 -95z" />
    <glyph glyph-name="zcaron" unicode="&#x17e;" horiz-adv-x="430" 
d="M35 15l324 496l-114 -1h-200v20h340v-15l-324 -496l114 1h220v-20h-360v15zM80 780h25l110 -142l110 142h25l-125 -160h-20z" />
    <glyph glyph-name="Scommaaccent" unicode="&#x218;" horiz-adv-x="580" 
d="M286 395q-123 15 -177 61.5t-54 123.5v10q0 89 67 142.5t167 53.5q119 0 177.5 -63t58.5 -178v-25h-20q0 129 -52.5 187.5t-159.5 58.5h-6q-87 0 -148.5 -48t-61.5 -123v-10q0 -76 50.5 -116.5t168.5 -54.5q124 -15 179 -65.5t55 -137.5v-10q0 -98 -67.5 -152.5
t-172.5 -54.5q-117 0 -178.5 66.5t-61.5 179.5v10h20q0 -116 56 -176t161 -60h6q95 0 156 49t61 134v10q0 85 -52.5 129t-171.5 59zM310 -70v-32q0 -56 -18 -80t-57 -24v18q29 0 41.5 15.5t13.5 62.5h-20v40h40z" />
    <glyph glyph-name="scommaaccent" unicode="&#x219;" horiz-adv-x="480" 
d="M240 14q79 0 124.5 34t45.5 92q0 65 -40.5 89.5t-139.5 32.5q-100 10 -137.5 41.5t-37.5 88.5v6q0 62 49.5 100t135.5 38q185 0 185 -172v-4h-20q0 76 -37.5 116t-127.5 40q-76 0 -120.5 -32t-44.5 -89q0 -56 36 -82t139 -35q101 -9 140.5 -38.5t39.5 -96.5v-6
q0 -65 -51 -104t-139 -39q-103 0 -146.5 46.5t-43.5 115.5v4h20q0 -146 170 -146zM260 -70v-32q0 -56 -18 -80t-57 -24v18q29 0 41.5 15.5t13.5 62.5h-20v40h40z" />
    <glyph glyph-name="Ymacron" unicode="&#x232;" horiz-adv-x="540" 
d="M265 259l228 521h22l-240 -545v-235h-20v235l-240 545h22zM165 885v20h200v-20h-200z" />
    <glyph glyph-name="ymacron" unicode="&#x233;" horiz-adv-x="460" 
d="M230 44l181 486h22l-194 -512l-81 -218h-19l82 218l-194 512h22zM130 690v20h200v-20h-200z" />
    <glyph glyph-name="dotlessj" unicode="&#x237;" horiz-adv-x="180" 
d="M80 -65v595h20v-601q0 -135 -131 -135q-39 0 -64 10v20q20 -10 60 -10q57 0 86 26t29 95z" />
    <glyph glyph-name="circumflex" unicode="&#x2c6;" horiz-adv-x="500" 
d="M140 620h-25l125 160h20l125 -160h-25l-110 142z" />
    <glyph glyph-name="caron" unicode="&#x2c7;" horiz-adv-x="500" 
d="M115 780h25l110 -142l110 142h25l-125 -160h-20z" />
    <glyph glyph-name="breve" unicode="&#x2d8;" horiz-adv-x="500" 
d="M250 614q-72 0 -111 47.5t-39 118.5h18q0 -64 33.5 -106t98.5 -42t98.5 42t33.5 106h18q0 -71 -39 -118.5t-111 -47.5z" />
    <glyph glyph-name="dotaccent" unicode="&#x2d9;" horiz-adv-x="500" 
d="M270 720v-40h-40v40h40z" />
    <glyph glyph-name="ring" unicode="&#x2da;" horiz-adv-x="500" 
d="M164 700q0 35 25.5 60.5t60.5 25.5t60.5 -25.5t25.5 -60.5t-25.5 -60.5t-60.5 -25.5t-60.5 25.5t-25.5 60.5zM182 700q0 -28 20 -48t48 -20t48 20t20 48t-20 48t-48 20t-48 -20t-20 -48z" />
    <glyph glyph-name="ogonek" unicode="&#x2db;" horiz-adv-x="602" 
d="M323 -172l6 -16q-36 -18 -79 -18q-39 0 -65 22.5t-26 68.5q0 54 31.5 82.5t86.5 48.5l7 -16q-107 -34 -107 -115q0 -38 20.5 -55.5t52.5 -17.5q39 0 73 16z" />
    <glyph glyph-name="tilde" unicode="&#x2dc;" horiz-adv-x="500" 
d="M367 732h18q0 -70 -60 -70q-28 0 -76 29t-71 29q-21 0 -33 -10.5t-12 -41.5h-18q0 70 60 70q28 0 76 -29t71 -29q21 0 33 10.5t12 41.5z" />
    <glyph glyph-name="hungarumlaut" unicode="&#x2dd;" horiz-adv-x="500" 
d="M379 780h22l-90 -160h-22zM279 780h22l-90 -160h-22z" />
    <glyph glyph-name="Bdotaccent" unicode="&#x1e02;" horiz-adv-x="552" 
d="M80 780h179q215 0 215 -188v-16q0 -149 -135 -177q155 -23 155 -185v-20q0 -194 -215 -194h-199v780zM277 388h-177v-368h177q196 0 196 175v18q0 175 -196 175zM257 760h-157v-352h157q29 0 52 2.5t51.5 12.5t47.5 27.5t32 50t13 76.5v14q0 44 -13 76.5t-32 50
t-47.5 27.5t-51.5 12.5t-52 2.5zM280 915v-40h-40v40h40z" />
    <glyph glyph-name="bdotaccent" unicode="&#x1e03;" horiz-adv-x="510" 
d="M90 800v-345q62 81 162 81q99 0 151 -69t52 -192v-20q0 -123 -52 -192t-151 -69q-58 0 -100 26t-65 59l-7 -79h-15l5 120v680h20zM90 423v-316q61 -93 162 -93q90 0 136.5 64t46.5 177v20q0 113 -46.5 177t-136.5 64q-101 0 -162 -93zM100 915v-40h-40v40h40z" />
    <glyph glyph-name="Ddotaccent" unicode="&#x1e0a;" horiz-adv-x="615" 
d="M555 370q0 -370 -285 -370h-190v780h190q285 0 285 -370v-40zM100 20h165q270 0 270 350v40q0 350 -270 350h-165v-740zM290 915v-40h-40v40h40z" />
    <glyph glyph-name="ddotaccent" unicode="&#x1e0b;" horiz-adv-x="510" 
d="M258 536q100 0 162 -81v345h20v-680l5 -120h-15l-7 79q-61 -85 -165 -85q-99 0 -151 69t-52 192v20q0 123 52 192t151 69zM420 423q-61 93 -162 93q-90 0 -136.5 -64t-46.5 -177v-20q0 -113 46.5 -177t136.5 -64q101 0 162 93v316zM450 915v-40h-40v40h40z" />
    <glyph glyph-name="Fdotaccent" unicode="&#x1e1e;" horiz-adv-x="484" 
d="M80 780h390v-20h-370v-352h320v-20h-320v-388h-20v780zM295 915v-40h-40v40h40z" />
    <glyph glyph-name="fdotaccent" unicode="&#x1e1f;" horiz-adv-x="340" 
d="M135 665v-135h165v-20h-165v-510h-20v510h-85v20h85v141q0 135 131 135q39 0 64 -10v-20q-20 10 -60 10q-57 0 -86 -26t-29 -95zM220 915v-40h-40v40h40z" />
    <glyph glyph-name="Mdotaccent" unicode="&#x1e40;" horiz-adv-x="757" 
d="M380 28l279 752h21v-780h-20v561l3 173l-273 -734h-20l-273 734l3 -173v-561h-20v780h21zM400 915v-40h-40v40h40z" />
    <glyph glyph-name="mdotaccent" unicode="&#x1e41;" horiz-adv-x="750" 
d="M690 0h-20v385q0 70 -29.5 100.5t-91.5 30.5q-101 0 -159 -93v-423h-20v385q0 70 -29.5 100.5t-91.5 30.5q-101 0 -159 -93v-423h-20v410l-5 120h15l7 -81q58 87 164 87q110 0 133 -92q58 92 167 92q139 0 139 -146v-390zM400 720v-40h-40v40h40z" />
    <glyph glyph-name="Pdotaccent" unicode="&#x1e56;" horiz-adv-x="544" 
d="M100 340v-340h-20v780h193q43 0 79.5 -10t70 -32t52.5 -65t19 -103v-20q0 -60 -19 -103t-52.5 -65t-70 -32t-79.5 -10h-173zM100 360h172q36 0 67 7t63.5 26t51.5 59.5t19 98.5v18q0 58 -19 98.5t-51.5 59.5t-63.5 26t-67 7h-172v-400zM295 915v-40h-40v40h40z" />
    <glyph glyph-name="pdotaccent" unicode="&#x1e57;" horiz-adv-x="510" 
d="M252 -6q-102 0 -162 81v-275h-20v610l-5 120h15l7 -79q23 33 65 59t100 26q99 0 151 -69t52 -192v-20q0 -123 -52 -192t-151 -69zM90 423v-316q61 -93 162 -93q90 0 136.5 64t46.5 177v20q0 113 -46.5 177t-136.5 64q-101 0 -162 -93zM272 720v-40h-40v40h40z" />
    <glyph glyph-name="Tdotaccent" unicode="&#x1e6a;" horiz-adv-x="490" 
d="M255 760v-760h-20v760h-210v20h440v-20h-210zM265 915v-40h-40v40h40z" />
    <glyph glyph-name="tdotaccent" unicode="&#x1e6b;" horiz-adv-x="360" 
d="M135 530h185v-20h-185v-375q0 -69 29 -95t86 -26q40 0 60 10v-20q-25 -10 -64 -10q-131 0 -131 135v381h-85v20h85v150h20v-150zM145 795v-40h-40v40h40z" />
    <glyph glyph-name="Wgrave" unicode="&#x1e80;" horiz-adv-x="860" 
d="M440 780l203 -747l158 747h21l-167 -780h-22l-203 747l-203 -747h-22l-167 780h21l158 -747l203 747h20zM357 950h22l62 -110h-22z" />
    <glyph glyph-name="wgrave" unicode="&#x1e81;" horiz-adv-x="670" 
d="M335 498l-152 -498h-24l-126 530h21l118 -504l153 504h20l153 -504l118 504h21l-126 -530h-24zM234 780h22l90 -160h-22z" />
    <glyph glyph-name="Wacute" unicode="&#x1e82;" horiz-adv-x="860" 
d="M440 780l203 -747l158 747h21l-167 -780h-22l-203 747l-203 -747h-22l-167 780h21l158 -747l203 747h20zM481 950h22l-62 -110h-22z" />
    <glyph glyph-name="wacute" unicode="&#x1e83;" horiz-adv-x="670" 
d="M335 498l-152 -498h-24l-126 530h21l118 -504l153 504h20l153 -504l118 504h21l-126 -530h-24zM414 780h22l-90 -160h-22z" />
    <glyph glyph-name="Wdieresis" unicode="&#x1e84;" horiz-adv-x="860" 
d="M440 780l203 -747l158 747h21l-167 -780h-22l-203 747l-203 -747h-22l-167 780h21l158 -747l203 747h20zM520 915v-40h-40v40h40zM380 915v-40h-40v40h40z" />
    <glyph glyph-name="wdieresis" unicode="&#x1e85;" horiz-adv-x="670" 
d="M335 498l-152 -498h-24l-126 530h21l118 -504l153 504h20l153 -504l118 504h21l-126 -530h-24zM425 720v-40h-40v40h40zM285 720v-40h-40v40h40z" />
    <glyph glyph-name="Eszett" unicode="&#x1e9e;" horiz-adv-x="700" 
d="M306 425l182 309q-57 32 -148 32q-243 0 -243 -232v-534h-20v537q0 134 72.5 191.5t190.5 57.5q105 0 168 -41v-15l-179 -303l107 -13q122 -15 173 -65.5t51 -137.5v-10q0 -100 -56.5 -153.5t-158.5 -53.5q-215 0 -215 246v10h20q0 -126 49.5 -181t142.5 -55h6
q93 0 142.5 48t49.5 135v10q0 87 -48 130t-166 58l-120 15v15z" />
    <glyph glyph-name="Ygrave" unicode="&#x1ef2;" horiz-adv-x="540" 
d="M265 259l228 521h22l-240 -545v-235h-20v235l-240 545h22zM214 1030h22l90 -160h-22z" />
    <glyph glyph-name="ygrave" unicode="&#x1ef3;" horiz-adv-x="460" 
d="M230 44l181 486h22l-194 -512l-81 -218h-19l82 218l-194 512h22zM129 780h22l90 -160h-22z" />
    <glyph glyph-name="enspace" unicode="&#x2002;" horiz-adv-x="500" 
 />
    <glyph glyph-name="emspace" unicode="&#x2003;" horiz-adv-x="1000" 
 />
    <glyph glyph-name="threeperemspace" unicode="&#x2004;" horiz-adv-x="333" 
 />
    <glyph glyph-name="fourperemspace" unicode="&#x2005;" horiz-adv-x="250" 
 />
    <glyph glyph-name="sixperemspace" unicode="&#x2006;" horiz-adv-x="167" 
 />
    <glyph glyph-name="figurespace" unicode="&#x2007;" horiz-adv-x="600" 
 />
    <glyph glyph-name="punctuationspace" unicode="&#x2008;" horiz-adv-x="180" 
 />
    <glyph glyph-name="thinspace" unicode="&#x2009;" horiz-adv-x="150" 
 />
    <glyph glyph-name="hairspace" unicode="&#x200a;" horiz-adv-x="50" 
 />
    <glyph glyph-name="zerowidthspace" unicode="&#x200b;" horiz-adv-x="0" 
 />
    <glyph glyph-name="figuredash" unicode="&#x2012;" horiz-adv-x="600" 
d="M50 330v20h500v-20h-500z" />
    <glyph glyph-name="endash" unicode="&#x2013;" horiz-adv-x="500" 
d="M50 330v20h400v-20h-400z" />
    <glyph glyph-name="emdash" unicode="&#x2014;" horiz-adv-x="1000" 
d="M50 330v20h900v-20h-900z" />
    <glyph glyph-name="uni2015" unicode="&#x2015;" horiz-adv-x="1200" 
d="M50 330v20h1100v-20h-1100z" />
    <glyph glyph-name="doublebar" unicode="&#x2016;" horiz-adv-x="280" 
d="M80 -120v960h20v-960h-20zM180 -120v960h20v-960h-20z" />
    <glyph glyph-name="quoteleft" unicode="&#x2018;" horiz-adv-x="180" 
d="M70 641v32q0 56 23 84.5t62 28.5v-20q-64 0 -65 -85h20v-40h-40z" />
    <glyph glyph-name="quoteright" unicode="&#x2019;" horiz-adv-x="180" 
d="M110 780v-32q0 -56 -23 -84.5t-62 -28.5v20q64 0 65 85h-20v40h40z" />
    <glyph glyph-name="quotesinglbase" unicode="&#x201a;" horiz-adv-x="180" 
d="M110 40v-32q0 -56 -23 -84.5t-62 -28.5v20q64 0 65 85h-20v40h40z" />
    <glyph glyph-name="reversequoteleft" unicode="&#x201b;" horiz-adv-x="180" 
d="M70 748v32h40v-40h-20q1 -85 65 -85v-20q-39 0 -62 28.5t-23 84.5z" />
    <glyph glyph-name="quotedblleft" unicode="&#x201c;" horiz-adv-x="260" 
d="M70 641v32q0 56 23 84.5t62 28.5v-20q-64 0 -65 -85h20v-40h-40zM150 641v32q0 56 23 84.5t62 28.5v-20q-64 0 -65 -85h20v-40h-40z" />
    <glyph glyph-name="quotedblright" unicode="&#x201d;" horiz-adv-x="260" 
d="M110 780v-32q0 -56 -23 -84.5t-62 -28.5v20q64 0 65 85h-20v40h40zM190 780v-32q0 -56 -23 -84.5t-62 -28.5v20q64 0 65 85h-20v40h40z" />
    <glyph glyph-name="quotedblbase" unicode="&#x201e;" horiz-adv-x="260" 
d="M110 40v-32q0 -56 -23 -84.5t-62 -28.5v20q64 0 65 85h-20v40h40zM190 40v-32q0 -56 -23 -84.5t-62 -28.5v20q64 0 65 85h-20v40h40z" />
    <glyph glyph-name="reversequotedblleft" unicode="&#x201f;" horiz-adv-x="260" 
d="M70 748v32h40v-40h-20q1 -85 65 -85v-20q-39 0 -62 28.5t-23 84.5zM150 748v32h40v-40h-20q1 -85 65 -85v-20q-39 0 -62 28.5t-23 84.5z" />
    <glyph glyph-name="dagger" unicode="&#x2020;" horiz-adv-x="380" 
d="M180 800h20v-150h-20v150zM20 610v20h140v-20h-140zM200 340h-20v250h20v-250zM360 630v-20h-140v20h140z" />
    <glyph glyph-name="daggerdbl" unicode="&#x2021;" horiz-adv-x="380" 
d="M180 800h20v-150h-20v150zM20 610v20h140v-20h-140zM200 440h-20v150h20v-150zM360 630v-20h-140v20h140zM20 400v20h140v-20h-140zM200 130h-20v250h20v-250zM360 420v-20h-140v20h140z" />
    <glyph glyph-name="bullet" unicode="&#x2022;" horiz-adv-x="380" 
d="M310 460v-240h-240v240h240z" />
    <glyph glyph-name="ellipsis" unicode="&#x2026;" horiz-adv-x="1000" 
d="M200 40v-40h-40v40h40zM840 40v-40h-40v40h40zM520 40v-40h-40v40h40z" />
    <glyph glyph-name="perthousand" unicode="&#x2030;" horiz-adv-x="1260" 
d="M277 0l314 753q-71 -23 -151 -23q-70 0 -130 13q40 -45 40 -118v-10q0 -75 -40.5 -118t-107.5 -43t-107.5 43t-40.5 118v10q0 75 40.5 118t107.5 43q30 0 56 -9q82 -27 182 -27q92 0 177 30v-15l-318 -765h-22zM846 165v-10q0 -75 -40.5 -118t-107.5 -43t-107.5 43
t-40.5 118v10q0 75 40.5 118t107.5 43t107.5 -43t40.5 -118zM1206 165v-10q0 -75 -40.5 -118t-107.5 -43t-107.5 43t-40.5 118v10q0 75 40.5 118t107.5 43t107.5 -43t40.5 -118zM570 168v-16q0 -60 34 -99t91 -39h6q57 0 91 39t34 99v16q0 60 -34 99t-91 39h-6
q-57 0 -91 -39t-34 -99zM930 168v-16q0 -60 34 -99t91 -39h6q57 0 91 39t34 99v16q0 60 -34 99t-91 39h-6q-57 0 -91 -39t-34 -99zM330 612v16q0 60 -34 99t-91 39h-6q-57 0 -91 -39t-34 -99v-16q0 -60 34 -99t91 -39h6q57 0 91 39t34 99z" />
    <glyph glyph-name="tripleprime" unicode="&#x2034;" horiz-adv-x="380" 
d="M80 780h20l-5 -250h-10zM280 780h20l-5 -250h-10zM180 780h20l-5 -250h-10z" />
    <glyph glyph-name="guilsinglleft" unicode="&#x2039;" 
d="M250 506v-25l-182 -141l182 -141v-25l-200 156v20z" />
    <glyph glyph-name="guilsinglright" unicode="&#x203a;" 
d="M50 481v25l200 -156v-20l-200 -156v25l182 141z" />
    <glyph glyph-name="interrobang" unicode="&#x203d;" horiz-adv-x="440" 
d="M227 175h-14l-3 591q-157 -10 -157 -266h-20v7q0 279 190 279q63 0 105 -32t58.5 -76t16.5 -96q0 -46 -17.5 -87t-43 -73t-51 -66t-44.5 -80.5t-20 -100.5zM383 575q0 78 -36.5 133t-116.5 58l-3 -503q12 43 40 86.5t52.5 72.5t44 70t19.5 83zM240 40v-40h-40v40h40z" />
    <glyph glyph-name="fraction" unicode="&#x2044;" horiz-adv-x="200" 
d="M-176 0h-24l576 780h24z" />
    <glyph glyph-name="uni2070" unicode="&#x2070;" 
d="M266 502q0 -117 -116 -117t-116 117v165q0 118 116 118t116 -118v-165zM245 662q0 104 -94 104h-3q-51 0 -72 -26.5t-21 -77.5v-155q0 -103 93 -103h3q94 0 94 103v155z" />
    <glyph glyph-name="uni2074" unicode="&#x2074;" 
d="M210 390h-20v110h-173v12l173 268h20v-260h72v-20h-72v-110zM190 744l-144 -225l49 1h95v224z" />
    <glyph glyph-name="uni2075" unicode="&#x2075;" 
d="M47 555l-17 4l10 221h227v-20h-208l-7 -167q33 42 98 42q52 0 87 -32t35 -91v-5q0 -58 -35 -90t-87 -32q-62 0 -92.5 33t-30.5 92v5h20q0 -111 100 -111h5q42 0 70.5 25.5t28.5 75.5v10q0 50 -28.5 75.5t-70.5 25.5h-5q-33 0 -61 -16t-39 -45z" />
    <glyph glyph-name="uni2076" unicode="&#x2076;" 
d="M257 785v-20q-42 0 -84 -18.5t-71 -56.5q-34 -43 -46 -102q37 47 99 47q54 0 87 -31t33 -92v-5q0 -61 -33.5 -91.5t-89.5 -30.5q-53 0 -87.5 35.5t-34.5 99.5v5q0 105 55 178q30 40 78 61t94 21zM153 615q-71 0 -102 -63q-1 -9 -1 -27v-5q0 -53 29 -84t72 -31h3
q47 0 73.5 26.5t26.5 74.5v8q0 48 -26.5 74.5t-71.5 26.5h-3z" />
    <glyph glyph-name="uni2077" unicode="&#x2077;" 
d="M32 640v140h240v-13l-153 -377h-22l151 370h-196v-120h-20z" />
    <glyph glyph-name="uni2078" unicode="&#x2078;" 
d="M150 385q-53 0 -88 27t-35 75v7q0 74 73 94q-70 20 -70 89v7q0 48 32 74.5t88 26.5t88 -26.5t32 -74.5v-7q0 -69 -71 -89q73 -20 73 -94v-7q0 -48 -35 -75t-87 -27zM141 579q-40 0 -66.5 -22.5t-26.5 -63.5v-7q0 -40 28.5 -61t70.5 -21h5q42 0 70.5 21t28.5 61v7
q0 41 -26 63.5t-67 22.5h-17zM152 766h-5q-44 0 -70 -23t-26 -62v-3q0 -39 26 -59.5t67 -20.5h12q41 0 67 20.5t26 59.5v3q0 40 -26 62.5t-71 22.5z" />
    <glyph glyph-name="uni2079" unicode="&#x2079;" 
d="M42 385v20q42 0 84.5 18.5t71.5 56.5q33 43 45 102q-36 -47 -98 -47q-54 0 -87 31t-33 91v5q0 61 33.5 92t88.5 31q53 0 88 -35.5t35 -99.5v-5q0 -104 -55 -178q-30 -41 -77.5 -61.5t-95.5 -20.5zM143 555h3q35 0 62 17.5t41 46.5q0 5 0.5 13.5t0.5 12.5v5q0 53 -29 84
t-72 31h-3q-47 0 -73.5 -26.5t-26.5 -74.5v-8q0 -48 26 -74.5t71 -26.5z" />
    <glyph glyph-name="uni207A" unicode="&#x207a;" 
d="M140 710h20v-115h115v-20h-115v-115h-20v115h-115v20h115v115z" />
    <glyph glyph-name="uni207B" unicode="&#x207b;" 
d="M25 575v20h250v-20h-250z" />
    <glyph glyph-name="uni207C" unicode="&#x207c;" 
d="M25 625v20h250v-20h-250zM25 525v20h250v-20h-250z" />
    <glyph glyph-name="uni207D" unicode="&#x207d;" horiz-adv-x="150" 
d="M32 580v10q0 98 62 190h22q-64 -91 -64 -190v-10q0 -99 64 -190h-22q-62 90 -62 190z" />
    <glyph glyph-name="uni207E" unicode="&#x207e;" horiz-adv-x="150" 
d="M117 590v-10q0 -101 -61 -190h-22q63 92 63 190v10q0 98 -63 190h22q61 -91 61 -190z" />
    <glyph glyph-name="uni2080" unicode="&#x2080;" 
d="M266 112q0 -117 -116 -117t-116 117v165q0 118 116 118t116 -118v-165zM245 272q0 104 -94 104h-3q-51 0 -72 -26.5t-21 -77.5v-155q0 -103 93 -103h3q94 0 94 103v155z" />
    <glyph glyph-name="uni2081" unicode="&#x2081;" 
d="M272 0h-235v20h108v342l-102 -70l-11 17l123 83h10v-372h107v-20z" />
    <glyph glyph-name="uni2082" unicode="&#x2082;" 
d="M102 20h163v-20h-235v12l175 184q44 47 44 89v5q0 39 -27 62.5t-71 23.5h-3q-50 0 -74 -27.5t-24 -88.5h-20v12q0 123 120 123q55 0 87.5 -27.5t32.5 -75.5v-5q0 -29 -9.5 -50t-36.5 -50l-160 -168z" />
    <glyph glyph-name="uni2083" unicode="&#x2083;" 
d="M147 14h5q42 0 70.5 21.5t28.5 61.5v8q0 41 -26 62.5t-67 21.5h-58v19h56q41 0 67 19.5t26 58.5v4q0 39 -26.5 62.5t-70.5 23.5h-5q-50 0 -73.5 -27.5t-23.5 -88.5h-20v12q0 123 120 123q55 0 87.5 -27.5t32.5 -75.5v-7q0 -69 -71 -87q73 -18 73 -92v-8q0 -48 -35 -75.5
t-87 -27.5q-62 0 -92.5 33t-30.5 92v5h20q0 -111 100 -111z" />
    <glyph glyph-name="uni2084" unicode="&#x2084;" 
d="M210 0h-20v110h-173v12l173 268h20v-260h72v-20h-72v-110zM190 354l-144 -225l49 1h95v224z" />
    <glyph glyph-name="uni2085" unicode="&#x2085;" 
d="M47 165l-17 4l10 221h227v-20h-208l-7 -167q33 42 98 42q52 0 87 -32t35 -91v-5q0 -58 -35 -90t-87 -32q-62 0 -92.5 33t-30.5 92v5h20q0 -111 100 -111h5q42 0 70.5 25.5t28.5 75.5v10q0 50 -28.5 75.5t-70.5 25.5h-5q-33 0 -61 -16t-39 -45z" />
    <glyph glyph-name="uni2086" unicode="&#x2086;" 
d="M257 395v-20q-42 0 -84 -18.5t-71 -56.5q-34 -43 -46 -102q37 47 99 47q54 0 87 -31t33 -92v-5q0 -61 -33.5 -91.5t-89.5 -30.5q-53 0 -87.5 35.5t-34.5 99.5v5q0 105 55 178q30 40 78 61t94 21zM153 225q-71 0 -102 -63q-1 -9 -1 -27v-5q0 -53 29 -84t72 -31h3
q47 0 73.5 26.5t26.5 74.5v8q0 48 -26.5 74.5t-71.5 26.5h-3z" />
    <glyph glyph-name="uni2087" unicode="&#x2087;" 
d="M32 250v140h240v-13l-153 -377h-22l151 370h-196v-120h-20z" />
    <glyph glyph-name="uni2088" unicode="&#x2088;" 
d="M150 -5q-53 0 -88 27t-35 75v7q0 74 73 94q-70 20 -70 89v7q0 48 32 74.5t88 26.5t88 -26.5t32 -74.5v-7q0 -69 -71 -89q73 -20 73 -94v-7q0 -48 -35 -75t-87 -27zM141 189q-40 0 -66.5 -22.5t-26.5 -63.5v-7q0 -40 28.5 -61t70.5 -21h5q42 0 70.5 21t28.5 61v7
q0 41 -26 63.5t-67 22.5h-17zM152 376h-5q-44 0 -70 -23t-26 -62v-3q0 -39 26 -59.5t67 -20.5h12q41 0 67 20.5t26 59.5v3q0 40 -26 62.5t-71 22.5z" />
    <glyph glyph-name="uni2089" unicode="&#x2089;" 
d="M42 -5v20q42 0 84.5 18.5t71.5 56.5q33 43 45 102q-36 -47 -98 -47q-54 0 -87 31t-33 91v5q0 61 33.5 92t88.5 31q53 0 88 -35.5t35 -99.5v-5q0 -104 -55 -178q-30 -41 -77.5 -61.5t-95.5 -20.5zM143 165h3q35 0 62 17.5t41 46.5q0 5 0.5 13.5t0.5 12.5v5q0 53 -29 84
t-72 31h-3q-47 0 -73.5 -26.5t-26.5 -74.5v-8q0 -48 26 -74.5t71 -26.5z" />
    <glyph glyph-name="uni208A" unicode="&#x208a;" 
d="M140 320h20v-115h115v-20h-115v-115h-20v115h-115v20h115v115z" />
    <glyph glyph-name="uni208B" unicode="&#x208b;" 
d="M25 185v20h250v-20h-250z" />
    <glyph glyph-name="uni208C" unicode="&#x208c;" 
d="M25 235v20h250v-20h-250zM25 135v20h250v-20h-250z" />
    <glyph glyph-name="uni208D" unicode="&#x208d;" horiz-adv-x="150" 
d="M32 190v10q0 98 62 190h22q-64 -91 -64 -190v-10q0 -99 64 -190h-22q-62 90 -62 190z" />
    <glyph glyph-name="uni208E" unicode="&#x208e;" horiz-adv-x="150" 
d="M117 200v-10q0 -101 -61 -190h-22q63 92 63 190v10q0 98 -63 190h22q61 -91 61 -190z" />
    <glyph glyph-name="Euro" unicode="&#x20ac;" horiz-adv-x="600" 
d="M40 310v20h75v120h-75v20h76q8 167 64 241.5t165 74.5q106 0 153 -62.5t47 -203.5v-20h-20q0 147 -40.5 206.5t-136.5 59.5h-6q-97 0 -147.5 -69.5t-57.5 -226.5h303l-10 -20h-294v-120h254l-10 -20h-243q7 -157 57.5 -226.5t147.5 -69.5h6q88 0 132.5 57t44.5 179h20
v-14q0 -242 -200 -242q-109 0 -165 74.5t-64 241.5h-76z" />
    <glyph glyph-name="ruble" unicode="&#x20bd;" horiz-adv-x="600" 
d="M25 340v20h110v420h193q43 0 79.5 -10t70 -32t52.5 -65t19 -103v-20q0 -60 -19 -103t-52.5 -65t-70 -32t-79.5 -10h-173v-120h220v-20h-220v-200h-20v200h-110v20h110v120h-110zM155 360h172q36 0 67 7t63.5 26t51.5 59.5t19 98.5v18q0 58 -19 98.5t-51.5 59.5t-63.5 26
t-67 7h-172v-400z" />
    <glyph glyph-name="numero" unicode="&#x2116;" horiz-adv-x="1050" 
d="M541 29l-1 151v600h20v-780h-25l-436 751l1 -151v-600h-20v780h25zM845 400q67 0 103 47t36 129v14q0 82 -36 129t-103 47t-103 -47t-36 -129v-14q0 -82 36 -129t103 -47zM845 380q-77 0 -118 53t-41 143v14q0 90 41 143t118 53t118 -53t41 -143v-14q0 -90 -41 -143
t-118 -53zM696 230v20h298v-20h-298z" />
    <glyph glyph-name="published" unicode="&#x2117;" horiz-adv-x="900" 
d="M54 390q0 164 116 280t280 116t280 -116t116 -280t-116 -280t-280 -116t-280 116t-116 280zM74 390q0 -156 110 -266t266 -110t266 110t110 266t-110 266t-266 110t-266 -110t-110 -266zM327 355v-200h-20v470h161q56 0 95.5 -29.5t39.5 -98.5v-14q0 -69 -39.5 -98.5
t-95.5 -29.5h-141zM327 375h143q45 0 79 24.5t34 85.5v10q0 61 -34 85.5t-79 24.5h-143v-230z" />
    <glyph glyph-name="servicemark" unicode="&#x2120;" horiz-adv-x="460" 
d="M326 530l-79 224l2 -73v-151h-16v270h14l87 -248l87 248h14v-270h-16v151l2 73l-79 -224h-16zM98 663q-78 11 -78 67v4q0 32 22.5 51t59.5 19q44 0 64 -21.5t20 -67.5v-5h-16q0 45 -14.5 61.5t-51.5 16.5h-4q-28 0 -46 -14t-18 -38v-4q0 -24 15.5 -37t55.5 -19
q81 -12 81 -72v-4q0 -34 -24.5 -54t-63.5 -20q-40 0 -61 23t-21 64v3h16q0 -74 64 -74h4q33 0 51.5 15t18.5 42v3q0 51 -74 61z" />
    <glyph glyph-name="trademark" unicode="&#x2122;" horiz-adv-x="460" 
d="M326 530l-79 224l2 -73v-151h-16v270h14l87 -248l87 248h14v-270h-16v151l2 73l-79 -224h-16zM115 784v-254h-16v254h-79v16h174v-16h-79z" />
    <glyph glyph-name="uni2153" unicode="&#x2153;" horiz-adv-x="800" 
d="M647 14h5q42 0 70.5 21.5t28.5 61.5v8q0 41 -26 62.5t-67 21.5h-58v19h56q41 0 67 19.5t26 58.5v4q0 39 -26.5 62.5t-70.5 23.5h-5q-50 0 -73.5 -27.5t-23.5 -88.5h-20v12q0 123 120 123q55 0 87.5 -27.5t32.5 -75.5v-7q0 -69 -71 -87q73 -18 73 -92v-8q0 -48 -35 -75.5
t-87 -27.5q-62 0 -92.5 33t-30.5 92v5h20q0 -111 100 -111zM124 0h-24l576 780h24zM272 390h-235v20h108v342l-102 -70l-11 17l123 83h10v-372h107v-20z" />
    <glyph glyph-name="uni2154" unicode="&#x2154;" horiz-adv-x="800" 
d="M647 14h5q42 0 70.5 21.5t28.5 61.5v8q0 41 -26 62.5t-67 21.5h-58v19h56q41 0 67 19.5t26 58.5v4q0 39 -26.5 62.5t-70.5 23.5h-5q-50 0 -73.5 -27.5t-23.5 -88.5h-20v12q0 123 120 123q55 0 87.5 -27.5t32.5 -75.5v-7q0 -69 -71 -87q73 -18 73 -92v-8q0 -48 -35 -75.5
t-87 -27.5q-62 0 -92.5 33t-30.5 92v5h20q0 -111 100 -111zM102 410h163v-20h-235v12l175 184q44 47 44 89v5q0 39 -27 62.5t-71 23.5h-3q-50 0 -74 -27.5t-24 -88.5h-20v12q0 123 120 123q55 0 87.5 -27.5t32.5 -75.5v-5q0 -29 -9.5 -50t-36.5 -50l-160 -168zM124 0h-24
l576 780h24z" />
    <glyph glyph-name="uni2155" unicode="&#x2155;" horiz-adv-x="800" 
d="M547 165l-17 4l10 221h227v-20h-208l-7 -167q33 42 98 42q52 0 87 -32t35 -91v-5q0 -58 -35 -90t-87 -32q-62 0 -92.5 33t-30.5 92v5h20q0 -111 100 -111h5q42 0 70.5 25.5t28.5 75.5v10q0 50 -28.5 75.5t-70.5 25.5h-5q-33 0 -61 -16t-39 -45zM124 0h-24l576 780h24z
M272 390h-235v20h108v342l-102 -70l-11 17l123 83h10v-372h107v-20z" />
    <glyph glyph-name="uni2156" unicode="&#x2156;" horiz-adv-x="800" 
d="M547 165l-17 4l10 221h227v-20h-208l-7 -167q33 42 98 42q52 0 87 -32t35 -91v-5q0 -58 -35 -90t-87 -32q-62 0 -92.5 33t-30.5 92v5h20q0 -111 100 -111h5q42 0 70.5 25.5t28.5 75.5v10q0 50 -28.5 75.5t-70.5 25.5h-5q-33 0 -61 -16t-39 -45zM102 410h163v-20h-235v12
l175 184q44 47 44 89v5q0 39 -27 62.5t-71 23.5h-3q-50 0 -74 -27.5t-24 -88.5h-20v12q0 123 120 123q55 0 87.5 -27.5t32.5 -75.5v-5q0 -29 -9.5 -50t-36.5 -50l-160 -168zM124 0h-24l576 780h24z" />
    <glyph glyph-name="uni2157" unicode="&#x2157;" horiz-adv-x="800" 
d="M767 390v-20h-208l-7 -167q33 42 98 42q52 0 87 -32t35 -91v-5q0 -58 -35 -90t-87 -32q-62 0 -92.5 33t-30.5 92v5h20q0 -111 100 -111h5q42 0 70.5 25.5t28.5 75.5v10q0 50 -28.5 75.5t-70.5 25.5h-5q-33 0 -61 -16t-39 -45l-17 4l10 221h227zM147 404h5q42 0 70.5 21.5
t28.5 61.5v8q0 41 -26 62.5t-67 21.5h-58v19h56q41 0 67 19.5t26 58.5v4q0 39 -26.5 62.5t-70.5 23.5h-5q-50 0 -73.5 -27.5t-23.5 -88.5h-20v12q0 123 120 123q55 0 87.5 -27.5t32.5 -75.5v-7q0 -69 -71 -87q73 -18 73 -92v-8q0 -48 -35 -75.5t-87 -27.5q-62 0 -92.5 33
t-30.5 92v5h20q0 -111 100 -111zM124 0h-24l576 780h24z" />
    <glyph glyph-name="uni2158" unicode="&#x2158;" horiz-adv-x="800" 
d="M210 390h-20v110h-173v12l173 268h20v-260h72v-20h-72v-110zM547 165l-17 4l10 221h227v-20h-208l-7 -167q33 42 98 42q52 0 87 -32t35 -91v-5q0 -58 -35 -90t-87 -32q-62 0 -92.5 33t-30.5 92v5h20q0 -111 100 -111h5q42 0 70.5 25.5t28.5 75.5v10q0 50 -28.5 75.5
t-70.5 25.5h-5q-33 0 -61 -16t-39 -45zM124 0h-24l576 780h24zM190 744l-144 -225l49 1h95v224z" />
    <glyph glyph-name="uni2159" unicode="&#x2159;" horiz-adv-x="800" 
d="M757 395v-20q-42 0 -84 -18.5t-71 -56.5q-34 -43 -46 -102q37 47 99 47q54 0 87 -31t33 -92v-5q0 -61 -33.5 -91.5t-89.5 -30.5q-53 0 -87.5 35.5t-34.5 99.5v5q0 105 55 178q30 40 78 61t94 21zM653 225q-71 0 -102 -63q-1 -9 -1 -27v-5q0 -53 29 -84t72 -31h3
q47 0 73.5 26.5t26.5 74.5v8q0 48 -26.5 74.5t-71.5 26.5h-3zM124 0h-24l576 780h24zM272 390h-235v20h108v342l-102 -70l-11 17l123 83h10v-372h107v-20z" />
    <glyph glyph-name="uni215A" unicode="&#x215a;" horiz-adv-x="800" 
d="M757 395v-20q-42 0 -84 -18.5t-71 -56.5q-34 -43 -46 -102q37 47 99 47q54 0 87 -31t33 -92v-5q0 -61 -33.5 -91.5t-89.5 -30.5q-53 0 -87.5 35.5t-34.5 99.5v5q0 105 55 178q30 40 78 61t94 21zM653 225q-71 0 -102 -63q-1 -9 -1 -27v-5q0 -53 29 -84t72 -31h3
q47 0 73.5 26.5t26.5 74.5v8q0 48 -26.5 74.5t-71.5 26.5h-3zM47 555l-17 4l10 221h227v-20h-208l-7 -167q33 42 98 42q52 0 87 -32t35 -91v-5q0 -58 -35 -90t-87 -32q-62 0 -92.5 33t-30.5 92v5h20q0 -111 100 -111h5q42 0 70.5 25.5t28.5 75.5v10q0 50 -28.5 75.5
t-70.5 25.5h-5q-33 0 -61 -16t-39 -45zM124 0h-24l576 780h24z" />
    <glyph glyph-name="uni215B" unicode="&#x215b;" horiz-adv-x="800" 
d="M650 -5q-53 0 -88 27t-35 75v7q0 74 73 94q-70 20 -70 89v7q0 48 32 74.5t88 26.5t88 -26.5t32 -74.5v-7q0 -69 -71 -89q73 -20 73 -94v-7q0 -48 -35 -75t-87 -27zM641 189q-40 0 -66.5 -22.5t-26.5 -63.5v-7q0 -40 28.5 -61t70.5 -21h5q42 0 70.5 21t28.5 61v7
q0 41 -26 63.5t-67 22.5h-17zM652 376h-5q-44 0 -70 -23t-26 -62v-3q0 -39 26 -59.5t67 -20.5h12q41 0 67 20.5t26 59.5v3q0 40 -26 62.5t-71 22.5zM124 0h-24l576 780h24zM272 390h-235v20h108v342l-102 -70l-11 17l123 83h10v-372h107v-20z" />
    <glyph glyph-name="uni215C" unicode="&#x215c;" horiz-adv-x="800" 
d="M650 -5q-53 0 -88 27t-35 75v7q0 74 73 94q-70 20 -70 89v7q0 48 32 74.5t88 26.5t88 -26.5t32 -74.5v-7q0 -69 -71 -89q73 -20 73 -94v-7q0 -48 -35 -75t-87 -27zM641 189q-40 0 -66.5 -22.5t-26.5 -63.5v-7q0 -40 28.5 -61t70.5 -21h5q42 0 70.5 21t28.5 61v7
q0 41 -26 63.5t-67 22.5h-17zM652 376h-5q-44 0 -70 -23t-26 -62v-3q0 -39 26 -59.5t67 -20.5h12q41 0 67 20.5t26 59.5v3q0 40 -26 62.5t-71 22.5zM147 404h5q42 0 70.5 21.5t28.5 61.5v8q0 41 -26 62.5t-67 21.5h-58v19h56q41 0 67 19.5t26 58.5v4q0 39 -26.5 62.5
t-70.5 23.5h-5q-50 0 -73.5 -27.5t-23.5 -88.5h-20v12q0 123 120 123q55 0 87.5 -27.5t32.5 -75.5v-7q0 -69 -71 -87q73 -18 73 -92v-8q0 -48 -35 -75.5t-87 -27.5q-62 0 -92.5 33t-30.5 92v5h20q0 -111 100 -111zM124 0h-24l576 780h24z" />
    <glyph glyph-name="uni215D" unicode="&#x215d;" horiz-adv-x="800" 
d="M650 -5q-53 0 -88 27t-35 75v7q0 74 73 94q-70 20 -70 89v7q0 48 32 74.5t88 26.5t88 -26.5t32 -74.5v-7q0 -69 -71 -89q73 -20 73 -94v-7q0 -48 -35 -75t-87 -27zM641 189q-40 0 -66.5 -22.5t-26.5 -63.5v-7q0 -40 28.5 -61t70.5 -21h5q42 0 70.5 21t28.5 61v7
q0 41 -26 63.5t-67 22.5h-17zM652 376h-5q-44 0 -70 -23t-26 -62v-3q0 -39 26 -59.5t67 -20.5h12q41 0 67 20.5t26 59.5v3q0 40 -26 62.5t-71 22.5zM47 555l-17 4l10 221h227v-20h-208l-7 -167q33 42 98 42q52 0 87 -32t35 -91v-5q0 -58 -35 -90t-87 -32q-62 0 -92.5 33
t-30.5 92v5h20q0 -111 100 -111h5q42 0 70.5 25.5t28.5 75.5v10q0 50 -28.5 75.5t-70.5 25.5h-5q-33 0 -61 -16t-39 -45zM124 0h-24l576 780h24z" />
    <glyph glyph-name="uni215E" unicode="&#x215e;" horiz-adv-x="800" 
d="M650 -5q-53 0 -88 27t-35 75v7q0 74 73 94q-70 20 -70 89v7q0 48 32 74.5t88 26.5t88 -26.5t32 -74.5v-7q0 -69 -71 -89q73 -20 73 -94v-7q0 -48 -35 -75t-87 -27zM641 189q-40 0 -66.5 -22.5t-26.5 -63.5v-7q0 -40 28.5 -61t70.5 -21h5q42 0 70.5 21t28.5 61v7
q0 41 -26 63.5t-67 22.5h-17zM652 376h-5q-44 0 -70 -23t-26 -62v-3q0 -39 26 -59.5t67 -20.5h12q41 0 67 20.5t26 59.5v3q0 40 -26 62.5t-71 22.5zM124 0h-24l576 780h24zM32 640v140h240v-13l-153 -377h-22l151 370h-196v-120h-20z" />
    <glyph glyph-name="uni215F" unicode="&#x215f;" horiz-adv-x="500" 
d="M124 0h-24l576 780h24zM272 390h-235v20h108v342l-102 -70l-11 17l123 83h10v-372h107v-20z" />
    <glyph glyph-name="arrowleft" unicode="&#x2190;" horiz-adv-x="920" 
d="M454 780h29l-380 -380h747v-20h-747l380 -380h-29l-390 390z" />
    <glyph glyph-name="arrowup" unicode="&#x2191;" horiz-adv-x="920" 
d="M850 396v-29l-380 380v-747h-20v747l-380 -380v29l390 390z" />
    <glyph glyph-name="arrowright" unicode="&#x2192;" horiz-adv-x="920" 
d="M466 0h-29l380 380h-747v20h747l-380 380h29l390 -390z" />
    <glyph glyph-name="arrowdown" unicode="&#x2193;" horiz-adv-x="920" 
d="M70 384v29l380 -380v747h20v-747l380 380v-29l-390 -390z" />
    <glyph glyph-name="uni2196" unicode="&#x2196;" horiz-adv-x="920" 
d="M90 0h-20v780h780v-20h-746l752 -752l-14 -14l-752 752v-746z" />
    <glyph glyph-name="uni2197" unicode="&#x2197;" horiz-adv-x="920" 
d="M70 760v20h780v-780h-20v746l-752 -752l-14 14l752 752h-746z" />
    <glyph glyph-name="uni2198" unicode="&#x2198;" horiz-adv-x="920" 
d="M70 0v20h746l-752 752l14 14l752 -752v746h20v-780h-780z" />
    <glyph glyph-name="uni2199" unicode="&#x2199;" horiz-adv-x="920" 
d="M850 20v-20h-780v780h20v-746l752 752l14 -14l-752 -752h746z" />
    <glyph glyph-name="minus" unicode="&#x2212;" horiz-adv-x="600" 
d="M50 380v20h500v-20h-500z" />
    <glyph glyph-name="approxequal" unicode="&#x2248;" horiz-adv-x="600" 
d="M429 454q59 0 111 60l15 -15q-56 -65 -125 -65q-48 0 -91 20.5t-84 41t-84 20.5q-58 0 -111 -60l-15 15q56 65 125 65q48 0 91 -20.5t84 -41t84 -20.5zM171 316q-58 0 -111 -60l-15 15q56 65 125 65q48 0 91 -20.5t84 -41t84 -20.5q59 0 111 60l15 -15q-56 -65 -125 -65
q-48 0 -91 20.5t-84 41t-84 20.5z" />
    <glyph glyph-name="notequal" unicode="&#x2260;" horiz-adv-x="600" 
d="M433 640h23l-81 -140h175v-20h-187l-104 -180h291v-20h-302l-81 -140h-23l81 140h-175v20h186l104 180h-290v20h302z" />
    <glyph glyph-name="equivalence" unicode="&#x2261;" horiz-adv-x="600" 
d="M50 180v20h500v-20h-500zM50 380v20h500v-20h-500zM50 580v20h500v-20h-500z" />
    <glyph glyph-name="lessequal" unicode="&#x2264;" horiz-adv-x="600" 
d="M75 447l475 -177v-22l-500 189v20l500 189v-22zM550 156v-22l-500 189v22z" />
    <glyph glyph-name="greaterequal" unicode="&#x2265;" horiz-adv-x="600" 
d="M50 270l475 177l-475 177v22l500 -189v-20l-500 -189v22zM50 134v22l500 189v-22z" />
    <glyph glyph-name="squaremultiply" unicode="&#x22a0;" horiz-adv-x="920" 
d="M850 0h-780v780h780v-780zM830 760h-740v-740h740v740zM205 630l15 15l240 -240l240 240l15 -15l-240 -240l240 -240l-15 -15l-240 240l-240 -240l-15 15l240 240z" />
    <glyph glyph-name="house" unicode="&#x2302;" horiz-adv-x="850" 
d="M780 0h-710v450l355 340l355 -340v-450z" />
    <glyph glyph-name="blacksquare" unicode="&#x25a0;" horiz-adv-x="920" 
d="M850 0h-780v780h780v-780z" />
    <glyph glyph-name="blacksquare" unicode="&#xe740;" horiz-adv-x="920" 
d="M850 0h-780v780h780v-780z" />
    <glyph glyph-name="whitesquare" unicode="&#x25a1;" horiz-adv-x="920" 
d="M850 0h-780v780h780v-780zM830 760h-740v-740h740v740z" />
    <glyph glyph-name="blacksmallsquare" unicode="&#x25aa;" horiz-adv-x="680" 
d="M600 0h-530v530h530v-530z" />
    <glyph glyph-name="whitesmallsquare" unicode="&#x25ab;" horiz-adv-x="680" 
d="M600 0h-530v530h530v-530zM580 510h-490v-490h490v490z" />
    <glyph glyph-name="triagup" unicode="&#x25b2;" horiz-adv-x="930" 
d="M475 786l386 -786h-22l-374 763l-374 -763h-22l386 786h20z" />
    <glyph glyph-name="triagrt" unicode="&#x25ba;" horiz-adv-x="930" 
d="M866 400v-20l-786 -386v22l763 374l-763 374v22z" />
    <glyph glyph-name="triagdn" unicode="&#x25bc;" horiz-adv-x="930" 
d="M455 -6l-386 786h22l374 -763l374 763h22l-386 -786h-20z" />
    <glyph glyph-name="triaglf" unicode="&#x25c4;" horiz-adv-x="930" 
d="M64 400l786 386v-22l-763 -374l763 -374v-22l-786 386v20z" />
    <glyph glyph-name="whitecircle" unicode="&#x25cb;" horiz-adv-x="920" 
d="M64 390q0 164 116 280t280 116t280 -116t116 -280t-116 -280t-280 -116t-280 116t-116 280zM84 390q0 -156 110 -266t266 -110t266 110t110 266t-110 266t-266 110t-266 -110t-110 -266z" />
    <glyph glyph-name="whitecircle" unicode="&#x25ef;" horiz-adv-x="920" 
d="M64 390q0 164 116 280t280 116t280 -116t116 -280t-116 -280t-280 -116t-280 116t-116 280zM84 390q0 -156 110 -266t266 -110t266 110t110 266t-110 266t-266 110t-266 -110t-110 -266z" />
    <glyph glyph-name="blackcircle" unicode="&#x25cf;" horiz-adv-x="920" 
d="M64 390q0 164 116 280t280 116t280 -116t116 -280t-116 -280t-280 -116t-280 116t-116 280z" />
    <glyph glyph-name="uni25E2" unicode="&#x25e2;" horiz-adv-x="930" 
d="M857 7l-14 -14l-831 285l15 15l808 -278l-278 808l15 15z" />
    <glyph glyph-name="uni25E3" unicode="&#x25e3;" horiz-adv-x="930" 
d="M87 -7l-14 14l285 831l15 -15l-278 -808l808 278l15 -15z" />
    <glyph glyph-name="uni25E4" unicode="&#x25e4;" horiz-adv-x="930" 
d="M73 773l14 14l831 -285l-15 -15l-808 278l278 -808l-15 -15z" />
    <glyph glyph-name="uni25E5" unicode="&#x25e5;" horiz-adv-x="930" 
d="M857 773l-285 -831l-15 15l278 808l-808 -278l-15 15l831 285z" />
    <glyph glyph-name="uni2605" unicode="&#x2605;" horiz-adv-x="880" 
d="M440 180l-260 -190l99 307l-260 189h322l99 306l99 -306h322l-260 -189l99 -307z" />
    <glyph glyph-name="ballotboxwithx" unicode="&#x2612;" horiz-adv-x="680" 
d="M600 0h-530v530h530v-530zM580 510h-490v-490h490v490zM180 405l15 15l140 -140l140 140l15 -15l-140 -140l140 -140l-15 -15l-140 140l-140 -140l-15 15l140 140z" />
    <glyph glyph-name="uni263C" unicode="&#x263c;" horiz-adv-x="960" 
d="M521 191l-42 -202l-42 202q0 -39 -29 -66q-9 -8 -30 -22.5t-29.5 -26t-8.5 -29.5q0 -9 3 -18t6 -13l3 -4q-22 6 -34 23.5t-12 38.5q0 30 21 51q41 41 41 95l-172 -113l113 172q-26 -26 -66 -26q-9 0 -31.5 4t-30.5 4q-24 0 -38.5 -12t-17.5 -24l-3 -12q-8 14 -8 28
q0 29 20.5 49t50.5 20t60.5 15t35.5 23l-202 42l202 42q-39 0 -66 29q-8 9 -22.5 30t-26 29.5t-29.5 8.5q-9 0 -18 -3t-13 -6l-4 -3q6 22 23.5 34t38.5 12q30 0 51 -21q41 -41 95 -41l-113 172l172 -113q-26 26 -26 66q0 9 4 31.5t4 30.5q0 24 -12 39t-24 17l-12 3
q14 8 28 8q29 0 49 -20.5t20 -50.5t15 -60.5t23 -35.5l42 202l42 -202q0 39 29 66q9 8 30 22.5t29.5 26t8.5 29.5q0 9 -3 18t-6 13l-3 4q22 -6 34 -23.5t12 -38.5q0 -30 -21 -51q-41 -41 -41 -95l172 113l-113 -172q26 26 66 26q9 0 31.5 -4t30.5 -4q24 0 39 12t17 24l3 12
q8 -14 8 -28q0 -29 -20.5 -49t-50.5 -20t-60.5 -15t-35.5 -23l202 -42l-202 -42q39 0 66 -29q8 -9 22.5 -30t26 -29.5t29.5 -8.5q9 0 18 3t13 6l4 3q-6 -22 -23.5 -34t-38.5 -12q-30 0 -51 21q-41 41 -95 41l113 -172l-172 113q26 -26 26 -66q0 -9 -4 -31.5t-4 -30.5
q0 -24 12 -39t24 -18l12 -2q-14 -8 -28 -8q-29 0 -49 20.5t-20 50.5t-15 60.5t-23 35.5z" />
    <glyph glyph-name="uni263E" unicode="&#x263e;" horiz-adv-x="960" 
d="M624 728q-134 0 -229 -99t-95 -239t95 -239t229 -99q50 0 96 15q-107 -77 -240 -77q-166 0 -283 117t-117 283t117 283t283 117q131 0 240 -77q-52 15 -96 15z" />
    <glyph glyph-name="spade" unicode="&#x2660;" horiz-adv-x="900" 
d="M451 790q32 -48 97 -116t136 -114q78 -51 121 -103t43 -123q0 -73 -51 -123.5t-125 -50.5q-69 0 -120.5 46t-79.5 115l-3 -1q8 -102 26.5 -174t55.5 -146h-202q37 74 55.5 146t26.5 174l-3 1q-28 -69 -79.5 -115t-120.5 -46q-74 0 -125 50.5t-51 123.5q0 71 43 123
t121 103q71 46 136 114t97 116h2z" />
    <glyph glyph-name="club" unicode="&#x2663;" horiz-adv-x="900" 
d="M349 0q37 74 55.5 146t26.5 174l-3 1q-28 -69 -79.5 -115t-120.5 -46q-74 0 -125 50.5t-51 123.5q0 79 48.5 129.5t125.5 50.5q40 0 84 -23l2 2q-38 57 -38 117q0 75 50.5 127.5t125.5 52.5t125.5 -52.5t50.5 -127.5q0 -60 -38 -117l2 -2q44 23 84 23q77 0 125.5 -50.5
t48.5 -129.5q0 -73 -51 -123.5t-125 -50.5q-69 0 -120.5 46t-79.5 115l-3 -1q8 -102 26.5 -174t55.5 -146h-202z" />
    <glyph glyph-name="heart" unicode="&#x2665;" horiz-adv-x="900" 
d="M451 -10h-2q-28 43 -94 126.5t-139 166.5q-164 185 -164 301q0 90 52 148t139 58q85 0 132.5 -42.5t72.5 -114.5h4q25 72 72.5 114.5t132.5 42.5q87 0 139 -58t52 -148q0 -116 -164 -301q-73 -83 -139 -166.5t-94 -126.5z" />
    <glyph glyph-name="diamond" unicode="&#x2666;" horiz-adv-x="900" 
d="M817 390q-106 -83 -202.5 -188.5t-163.5 -211.5h-2q-67 106 -163.5 211.5t-202.5 188.5q106 83 202.5 188.5t163.5 211.5h2q67 -106 163.5 -211.5t202.5 -188.5z" />
    <glyph glyph-name="uni267B" unicode="&#x267b;" horiz-adv-x="960" 
d="M863 266l1 -2l-96 -167q-15 -22 -21.5 -30t-24 -17t-42.5 -9h-57v-49l-113 136l113 135v-49h145q26 0 50 13t34 26zM186 122h-2l-96 168q-11 21 -15 32t-3 30.5t14 40.5l28 49l-42 24l174 31l59 -166l-41 24q-70 -120 -72 -125q-13 -23 -14 -50t4 -42zM404 779v1h193
q24 -1 36 -2.5t28 -12.5t28 -32l28 -49l43 24l-61 -166l-173 31l41 24l-72 125q-13 23 -36 37.5t-39 16.5zM200 598l67 119q10 17 34 31q46 24 97 10t68 -45l-116 -201zM446 41h-135q-22 0 -44 13q-43 25 -57.5 79.5t4.5 80.5h232v-173zM806 527l69 -117q10 -18 10 -44
q1 -48 -38 -87t-74 -39l-116 201z" />
    <glyph glyph-name="uni267C" unicode="&#x267c;" horiz-adv-x="960" 
d="M292 645l-52 -92l116 -67l90 156q-13 24 -52.5 34.5t-75.5 -7.5q-18 -11 -26 -24zM394 694v-1q48 -5 71 -44l56 -97l-32 -19l134 -24l47 129l-33 -19l-22 38q-14 24 -29.5 30.5t-41.5 6.5h-150zM322 121h105v134h-180q-15 -20 -3.5 -62.5t44.5 -61.5q17 -10 34 -10z
M228 184h1q-20 44 3 84l56 97l32 -19l-46 129l-135 -24l33 -19l-22 -38q-10 -16 -11 -31.5t2 -23.5t12 -25zM763 407l-53 91l-116 -67l90 -156q28 0 58 30t29 68q0 20 -8 34zM755 294l-1 1q-3 -4 -9 -11t-25.5 -18t-39.5 -11h-112v38l-88 -105l88 -105v38h44q28 0 41.5 10.5
t26.5 32.5zM64 390q0 164 116 280t280 116t280 -116t116 -280t-116 -280t-280 -116t-280 116t-116 280z" />
    <glyph glyph-name="uni267D" unicode="&#x267d;" horiz-adv-x="960" 
d="M240 553l52 92q8 13 26 24q36 18 75.5 7.5t52.5 -34.5l-90 -156zM394 693v1h150q26 0 41.5 -6.5t29.5 -30.5l22 -38l33 19l-47 -129l-134 24l32 19l-56 97q-10 17 -28 28t-31 13zM427 121h-105q-17 0 -34 10q-33 19 -44.5 61.5t3.5 62.5h180v-134zM229 184h-1l-75 130
q-9 17 -12 25t-2 23.5t11 31.5l22 38l-33 19l135 24l46 -129l-32 19l-56 -97q-10 -18 -11 -39t3 -33zM710 498l53 -91q8 -14 8 -34q1 -38 -29 -68t-58 -30l-90 156zM754 295l1 -1l-75 -130q-9 -15 -15 -22.5t-20 -14t-33 -6.5h-44v-38l-88 105l88 105v-38h112q20 0 38.5 10
t27.5 20zM64 390q0 164 116 280t280 116t280 -116t116 -280t-116 -280t-280 -116t-280 116t-116 280zM84 390q0 -156 110 -266t266 -110t266 110t110 266t-110 266t-266 110t-266 -110t-110 -266z" />
    <glyph glyph-name="mediumwhitecircle" unicode="&#x26aa;" horiz-adv-x="670" 
d="M64 265q0 113 79 192t192 79t192 -79t79 -192t-79 -192t-192 -79t-192 79t-79 192zM84 265q0 -104 73.5 -177.5t177.5 -73.5t177.5 73.5t73.5 177.5t-73.5 177.5t-177.5 73.5t-177.5 -73.5t-73.5 -177.5z" />
    <glyph glyph-name="mediumblackcircle" unicode="&#x26ab;" horiz-adv-x="670" 
d="M64 265q0 113 79 192t192 79t192 -79t79 -192t-79 -192t-192 -79t-192 79t-79 192z" />
    <glyph glyph-name="anglebracketleft" unicode="&#x3008;" 
d="M248 840l-162 -480l162 -480h-21l-162 480l162 480h21z" />
    <glyph glyph-name="anglebracketright" unicode="&#x3009;" 
d="M52 -120l162 480l-162 480h21l162 -480l-162 -480h-21z" />
    <glyph glyph-name="fi" unicode="&#xe38c;" horiz-adv-x="520" 
d="M135 665v-135h165v-20h-165v-510h-20v510h-85v20h85v141q0 135 131 135q39 0 64 -10v-20q-20 10 -60 10q-57 0 -86 -26t-29 -95zM420 0v530h20v-530h-20zM450 720v-40h-40v40h40z" />
    <glyph glyph-name="fi" unicode="&#xfb01;" horiz-adv-x="520" 
d="M135 665v-135h165v-20h-165v-510h-20v510h-85v20h85v141q0 135 131 135q39 0 64 -10v-20q-20 10 -60 10q-57 0 -86 -26t-29 -95zM420 0v530h20v-530h-20zM450 720v-40h-40v40h40z" />
    <glyph glyph-name="fl" unicode="&#xe38d;" horiz-adv-x="520" 
d="M135 665v-135h165v-20h-165v-510h-20v510h-85v20h85v141q0 135 131 135q39 0 64 -10v-20q-20 10 -60 10q-57 0 -86 -26t-29 -95zM420 0v800h20v-800h-20z" />
    <glyph glyph-name="fl" unicode="&#xfb02;" horiz-adv-x="520" 
d="M135 665v-135h165v-20h-165v-510h-20v510h-85v20h85v141q0 135 131 135q39 0 64 -10v-20q-20 10 -60 10q-57 0 -86 -26t-29 -95zM420 0v800h20v-800h-20z" />
    <glyph glyph-name="invertedbreve" unicode="&#xe411;" horiz-adv-x="500" 
d="M250 786q72 0 111 -47.5t39 -118.5h-18q0 64 -33.5 106t-98.5 42t-98.5 -42t-33.5 -106h-18q0 71 39 118.5t111 47.5z" />
    <glyph glyph-name="doublegrave" unicode="&#xe412;" horiz-adv-x="500" 
d="M99 780h22l90 -160h-22zM199 780h22l90 -160h-22z" />
    <glyph glyph-name="caronSlovak" unicode="&#xe413;" horiz-adv-x="500" 
d="M340 800h21l-11 -180h-10v180z" />
    <glyph glyph-name="commaaccent" unicode="&#xe414;" horiz-adv-x="602" 
d="M270 -70v-32q0 -56 -18 -80t-57 -24v18q29 0 41.5 15.5t13.5 62.5h-20v40h40z" />
    <glyph glyph-name="commaaccent" unicode="&#xf6c3;" horiz-adv-x="602" 
d="M270 -70v-32q0 -56 -18 -80t-57 -24v18q29 0 41.5 15.5t13.5 62.5h-20v40h40z" />
    <glyph glyph-name="dotbelow" unicode="&#xe415;" horiz-adv-x="602" 
d="M230 -150v40h40v-40h-40z" />
    <glyph glyph-name="altcedilla" unicode="&#xe416;" horiz-adv-x="602" 
d="M171 -188l6 16q28 -16 73 -16q35 0 54 10t19 43t-19 43t-54 10q-30 0 -58 -10v17q33 11 58 11q91 0 91 -71t-91 -71q-43 0 -79 18z" />
    <glyph glyph-name="grave.cap" unicode="&#xe421;" horiz-adv-x="500" 
d="M177 950h22l62 -110h-22z" />
    <glyph glyph-name="acute.cap" unicode="&#xe422;" horiz-adv-x="500" 
d="M301 950h22l-62 -110h-22z" />
    <glyph glyph-name="circumflex.cap" unicode="&#xe423;" horiz-adv-x="500" 
d="M164 840h-24l100 110h20l100 -110h-24l-86 95z" />
    <glyph glyph-name="tilde.cap" unicode="&#xe424;" horiz-adv-x="500" 
d="M367 927h18q0 -70 -60 -70q-28 0 -76 29t-71 29q-21 0 -33 -10.5t-12 -41.5h-18q0 70 60 70q28 0 76 -29t71 -29q21 0 33 10.5t12 41.5z" />
    <glyph glyph-name="macron.cap" unicode="&#xe425;" horiz-adv-x="500" 
d="M150 885v20h200v-20h-200z" />
    <glyph glyph-name="breve.cap" unicode="&#xe426;" horiz-adv-x="500" 
d="M250 852q53 0 82.5 26.5t29.5 71.5h18q0 -53 -35 -84.5t-95 -31.5t-95 31.5t-35 84.5h18q0 -45 29.5 -71.5t82.5 -26.5z" />
    <glyph glyph-name="invertedbreve.cap" unicode="&#xe427;" horiz-adv-x="500" 
d="M250 938q-53 0 -82.5 -26.5t-29.5 -71.5h-18q0 53 35 84.5t95 31.5t95 -31.5t35 -84.5h-18q0 45 -29.5 71.5t-82.5 26.5z" />
    <glyph glyph-name="dotaccent.cap" unicode="&#xe428;" horiz-adv-x="500" 
d="M270 915v-40h-40v40h40z" />
    <glyph glyph-name="dieresis.cap" unicode="&#xe429;" horiz-adv-x="500" 
d="M200 915v-40h-40v40h40zM340 915v-40h-40v40h40z" />
    <glyph glyph-name="ring.cap" unicode="&#xe42a;" horiz-adv-x="500" 
d="M164 870q0 35 25.5 60.5t60.5 25.5t60.5 -25.5t25.5 -60.5t-25.5 -60.5t-60.5 -25.5t-60.5 25.5t-25.5 60.5zM182 870q0 -28 20 -48t48 -20t48 20t20 48t-20 48t-48 20t-48 -20t-20 -48z" />
    <glyph glyph-name="hungarumlaut.cap" unicode="&#xe42b;" horiz-adv-x="500" 
d="M351 950h22l-62 -110h-22zM251 950h22l-62 -110h-22z" />
    <glyph glyph-name="doublegrave.cap" unicode="&#xe42c;" horiz-adv-x="500" 
d="M127 950h22l62 -110h-22zM227 950h22l62 -110h-22z" />
    <glyph glyph-name="caron.cap" unicode="&#xe42d;" horiz-adv-x="500" 
d="M336 950h24l-100 -110h-20l-100 110h24l86 -95z" />
    <glyph glyph-name="commaaccent.cap" unicode="&#xe42e;" horiz-adv-x="500" 
d="M230 840v32q0 43 16.5 63.5t53.5 20.5v-18q-50 0 -50 -58h20v-40h-40z" />
    <glyph glyph-name="exclamdown.cap" unicode="&#xe441;" horiz-adv-x="180" 
d="M100 0h-20l3 605h14zM70 740v40h40v-40h-40z" />
    <glyph glyph-name="questiondown.cap" unicode="&#xe444;" horiz-adv-x="440" 
d="M200 740v40h40v-40h-40zM213 605h14q0 -55 -17.5 -103t-42.5 -82.5t-50 -66t-42.5 -69.5t-17.5 -79q0 -80 38 -135.5t122 -55.5q170 0 170 266h20v-7q0 -279 -190 -279q-63 0 -105 32t-58.5 76t-16.5 96q0 46 17.5 87t43 73t51 66t44.5 80.5t20 100.5z" />
    <glyph glyph-name="guilsinglleft.cap" unicode="&#xe451;" 
d="M250 556v-25l-182 -141l182 -141v-25l-200 156v20z" />
    <glyph glyph-name="guilsinglright.cap" unicode="&#xe452;" 
d="M50 531v25l200 -156v-20l-200 -156v25l182 141z" />
    <glyph glyph-name="guillemotleft.cap" unicode="&#xe453;" horiz-adv-x="500" 
d="M250 556v-25l-182 -141l182 -141v-25l-200 156v20zM450 556v-25l-182 -141l182 -141v-25l-200 156v20z" />
    <glyph glyph-name="guillemotright.cap" unicode="&#xe454;" horiz-adv-x="500" 
d="M250 531v25l200 -156v-20l-200 -156v25l182 141zM50 531v25l200 -156v-20l-200 -156v25l182 141z" />
    <glyph glyph-name="slash.cap" unicode="&#xe461;" 
d="M64 0h-20l192 780h20z" />
    <glyph glyph-name="backslash.cap" unicode="&#xe462;" 
d="M44 780h20l192 -780h-20z" />
    <glyph glyph-name="bar.cap" unicode="&#xe463;" horiz-adv-x="180" 
d="M80 0v780h20v-780h-20z" />
    <glyph glyph-name="doublebar.cap" unicode="&#xe464;" horiz-adv-x="280" 
d="M80 0v780h20v-780h-20zM180 0v780h20v-780h-20z" />
    <glyph glyph-name="brokenbar.cap" unicode="&#xe465;" horiz-adv-x="180" 
d="M80 430v350h20v-350h-20zM80 0v350h20v-350h-20z" />
    <glyph glyph-name="bullet.cap" unicode="&#xe466;" horiz-adv-x="380" 
d="M310 510v-240h-240v240h240z" />
    <glyph glyph-name="onethirdemdash" unicode="&#xe471;" horiz-adv-x="333" 
d="M50 330v20h233v-20h-233z" />
    <glyph glyph-name="threequarteremdash" unicode="&#xe472;" horiz-adv-x="750" 
d="M50 330v20h650v-20h-650z" />
    <glyph glyph-name="periodcentered.cap" unicode="&#xe481;" horiz-adv-x="180" 
d="M110 410v-40h-40v40h40z" />
    <glyph glyph-name="hyphen.cap" unicode="&#xe482;" horiz-adv-x="320" 
d="M50 380v20h220v-20h-220z" />
    <glyph glyph-name="onethirdemdash.cap" unicode="&#xe483;" horiz-adv-x="333" 
d="M50 380v20h233v-20h-233z" />
    <glyph glyph-name="endash.cap" unicode="&#xe484;" horiz-adv-x="500" 
d="M50 380v20h400v-20h-400z" />
    <glyph glyph-name="threequarteremdash.cap" unicode="&#xe485;" horiz-adv-x="750" 
d="M50 380v20h650v-20h-650z" />
    <glyph glyph-name="emdash.cap" unicode="&#xe486;" horiz-adv-x="1000" 
d="M50 380v20h900v-20h-900z" />
    <glyph glyph-name="figuredash.cap" unicode="&#xe487;" horiz-adv-x="600" 
d="M50 380v20h500v-20h-500z" />
    <glyph glyph-name="uni2015.cap" unicode="&#xe488;" horiz-adv-x="1200" 
d="M50 380v20h1100v-20h-1100z" />
    <glyph glyph-name="parenleft.cap" unicode="&#xe491;" 
d="M75 380v20q0 196 125 380h22q-127 -191 -127 -380v-20q0 -189 127 -380h-22q-125 184 -125 380z" />
    <glyph glyph-name="parenright.cap" unicode="&#xe492;" 
d="M225 400v-20q0 -196 -125 -380h-22q127 191 127 380v20q0 189 -127 380h22q125 -184 125 -380z" />
    <glyph glyph-name="bracketleft.cap" unicode="&#xe493;" 
d="M80 780h170v-20h-150v-740h150v-20h-170v780z" />
    <glyph glyph-name="bracketright.cap" unicode="&#xe494;" 
d="M220 0h-170v20h150v740h-150v20h170v-780z" />
    <glyph glyph-name="braceleft.cap" unicode="&#xe495;" 
d="M250 780v-20q-52 0 -78.5 -23.5t-26.5 -86.5v-157q0 -83 -58 -103q58 -20 58 -103v-157q0 -63 26.5 -86.5t78.5 -23.5v-20h-4q-121 0 -121 125v161q0 54 -23 74t-67 20v20q44 0 67 20t23 74v161q0 125 121 125h4z" />
    <glyph glyph-name="braceright.cap" unicode="&#xe496;" 
d="M50 760v20h4q121 0 121 -125v-161q0 -54 23 -74t67 -20v-20q-44 0 -67 -20t-23 -74v-161q0 -125 -121 -125h-4v20q52 0 78.5 23.5t26.5 86.5v157q0 83 58 103q-58 20 -58 103v157q0 63 -26.5 86.5t-78.5 23.5z" />
    <glyph glyph-name="anglebracketleft.cap" unicode="&#xe497;" 
d="M220 780l-134 -390l134 -390h-21l-134 390l134 390h21z" />
    <glyph glyph-name="anglebracketright.cap" unicode="&#xe498;" 
d="M80 0l134 390l-134 390h21l134 -390l-134 -390h-21z" />
    <glyph glyph-name="lowline" unicode="&#xe511;" horiz-adv-x="320" 
d="M50 0v20h220v-20h-220z" />
    <glyph glyph-name="underscoremonospace" unicode="&#xe512;" horiz-adv-x="600" 
d="M50 -110v20h500v-20h-500z" />
    <glyph glyph-name="underscoremonospace" unicode="&#xff3f;" horiz-adv-x="600" 
d="M50 -110v20h500v-20h-500z" />
    <glyph glyph-name="at.cap" unicode="&#xe513;" horiz-adv-x="930" 
d="M487 -86h6q96 0 174 22t155 77l12 -16q-138 -103 -344 -103q-201 0 -328 130.5t-127 345.5v40q0 216 125 346t325 130q173 0 291.5 -107t118.5 -294v-30q0 -87 -19 -146.5t-56 -91t-82.5 -44.5t-107.5 -13h-5l-7 79q-23 -33 -66.5 -59t-99.5 -26q-97 0 -149.5 63.5
t-52.5 167.5v20q0 104 52.5 167.5t149.5 63.5q56 0 99.5 -26t66.5 -59l7 79h15l-5 -120v-230l4 -100q55 0 94 11t73.5 39.5t51.5 84.5t17 140v30q0 93 -32 167t-86 120t-123 70t-146 24h-6q-189 0 -308 -123t-119 -333v-40q0 -210 121.5 -333t310.5 -123zM615 523
q-61 93 -162 93q-87 0 -135 -57.5t-48 -153.5v-20q0 -96 48 -153.5t135 -57.5q101 0 162 93v256z" />
    <glyph glyph-name="zero.inf" unicode="&#xe571;" 
d="M266 -88q0 -117 -116 -117t-116 117v165q0 118 116 118t116 -118v-165zM245 72q0 104 -94 104h-3q-51 0 -72 -26.5t-21 -77.5v-155q0 -103 93 -103h3q94 0 94 103v155z" />
    <glyph glyph-name="one.inf" unicode="&#xe572;" 
d="M272 -200h-235v20h108v342l-102 -70l-11 17l123 83h10v-372h107v-20z" />
    <glyph glyph-name="two.inf" unicode="&#xe573;" 
d="M102 -180h163v-20h-235v12l175 184q44 47 44 89v5q0 39 -27 62.5t-71 23.5h-3q-50 0 -74 -27.5t-24 -88.5h-20v12q0 123 120 123q55 0 87.5 -27.5t32.5 -75.5v-5q0 -29 -9.5 -50t-36.5 -50l-160 -168z" />
    <glyph glyph-name="three.inf" unicode="&#xe574;" 
d="M147 -186h5q42 0 70.5 21.5t28.5 61.5v8q0 41 -26 62.5t-67 21.5h-58v19h56q41 0 67 19.5t26 58.5v4q0 39 -26.5 62.5t-70.5 23.5h-5q-50 0 -73.5 -27.5t-23.5 -88.5h-20v12q0 123 120 123q55 0 87.5 -27.5t32.5 -75.5v-7q0 -69 -71 -86q73 -20 73 -93v-8
q0 -48 -35 -75.5t-87 -27.5q-62 0 -92.5 33t-30.5 92v5h20q0 -111 100 -111z" />
    <glyph glyph-name="four.inf" unicode="&#xe575;" 
d="M210 -200h-20v110h-173v12l173 268h20v-260h72v-20h-72v-110zM190 154l-144 -225l49 1h95v224z" />
    <glyph glyph-name="five.inf" unicode="&#xe576;" 
d="M47 -35l-17 4l10 221h227v-20h-208l-7 -167q33 42 98 42q52 0 87 -32t35 -91v-5q0 -58 -35 -90t-87 -32q-62 0 -92.5 33t-30.5 92v5h20q0 -111 100 -111h5q42 0 70.5 25.5t28.5 75.5v10q0 50 -28.5 75.5t-70.5 25.5h-5q-33 0 -61 -16t-39 -45z" />
    <glyph glyph-name="six.inf" unicode="&#xe577;" 
d="M257 195v-20q-42 0 -84 -18.5t-71 -56.5q-34 -43 -46 -102q37 47 99 47q54 0 87 -31t33 -92v-5q0 -61 -33.5 -91.5t-89.5 -30.5q-53 0 -87.5 35.5t-34.5 99.5v5q0 105 55 178q30 40 78 61t94 21zM153 25q-72 0 -102 -62q-1 -10 -1 -28v-5q0 -53 29 -84t72 -31h3
q47 0 73.5 26.5t26.5 74.5v8q0 48 -26.5 74.5t-71.5 26.5h-3z" />
    <glyph glyph-name="seven.inf" unicode="&#xe578;" 
d="M32 50v140h240v-13l-153 -377h-22l151 370h-196v-120h-20z" />
    <glyph glyph-name="eight.inf" unicode="&#xe579;" 
d="M150 -205q-53 0 -88 27t-35 75v7q0 75 73 95q-70 18 -70 88v7q0 48 32 74.5t88 26.5t88 -26.5t32 -74.5v-7q0 -70 -71 -88q73 -20 73 -95v-7q0 -48 -35 -75t-87 -27zM141 -11q-40 0 -66.5 -22.5t-26.5 -63.5v-7q0 -40 28.5 -61t70.5 -21h5q42 0 70.5 21t28.5 61v7
q0 41 -26 63.5t-67 22.5h-17zM152 176h-5q-44 0 -70 -23t-26 -62v-3q0 -39 26 -59.5t67 -20.5h12q41 0 67 20.5t26 59.5v3q0 40 -26 62.5t-71 22.5z" />
    <glyph glyph-name="nine.inf" unicode="&#xe57a;" 
d="M42 -205v20q42 0 84.5 18.5t71.5 56.5q33 44 45 102q-37 -47 -98 -47q-54 0 -87 31t-33 91v5q0 61 33.5 92t88.5 31q53 0 88 -35.5t35 -99.5v-5q0 -104 -55 -178q-30 -41 -77.5 -61.5t-95.5 -20.5zM143 -35h3q34 0 61.5 17.5t41.5 46.5q0 5 0.5 13.5t0.5 12.5v5
q0 53 -29 84t-72 31h-3q-47 0 -73.5 -26.5t-26.5 -74.5v-8q0 -48 26 -74.5t71 -26.5z" />
    <glyph glyph-name="plus.inf" unicode="&#xe57b;" 
d="M140 120h20v-115h115v-20h-115v-115h-20v115h-115v20h115v115z" />
    <glyph glyph-name="minus.inf" unicode="&#xe57c;" 
d="M25 -15v20h250v-20h-250z" />
    <glyph glyph-name="equal.inf" unicode="&#xe57d;" 
d="M25 35v20h250v-20h-250zM25 -65v20h250v-20h-250z" />
    <glyph glyph-name="parenleft.inf" unicode="&#xe57e;" horiz-adv-x="150" 
d="M32 -10v10q0 98 62 190h22q-64 -91 -64 -190v-10q0 -99 64 -190h-22q-62 90 -62 190z" />
    <glyph glyph-name="parenright.inf" unicode="&#xe57f;" horiz-adv-x="150" 
d="M117 0v-10q0 -101 -61 -190h-22q63 92 63 190v10q0 98 -63 190h22q61 -91 61 -190z" />
    <glyph glyph-name="Anocross" unicode="&#xe731;" horiz-adv-x="590" 
d="M285 790h20l250 -790h-21l-239 760l-239 -760h-21z" />
    <glyph glyph-name="idotaccent" unicode="&#xe785;" horiz-adv-x="180" 
d="M80 0v530h20v-530h-20zM110 720v-40h-40v40h40z" />
    <glyph glyph-name="interrobangdown" unicode="&#xe935;" horiz-adv-x="440" 
d="M213 355h14l3 -541q157 7 157 246h20v-7q0 -259 -187 -259q-92 0 -137.5 51t-45.5 120q0 48 17.5 87t43 67.5t51 58.5t44.5 75t20 102zM57 -30q0 -62 37 -107.5t116 -48.5l2 449q-12 -43 -39.5 -82.5t-52 -64t-44 -63t-19.5 -83.5zM200 490v40h40v-40h-40z" />
    <glyph glyph-name="interrobangdown.cap" unicode="&#xe99b;" horiz-adv-x="440" 
d="M213 605h14l3 -591q157 10 157 266h20v-7q0 -279 -190 -279q-63 0 -105 32t-58.5 76t-16.5 96q0 46 17.5 87t43 73t51 66t44.5 80.5t20 100.5zM57 205q0 -50 13 -90t49 -70t91 -31l2 502q-12 -43 -39.5 -86.5t-52 -72t-44 -69.5t-19.5 -83zM200 740v40h40v-40h-40z" />
    <glyph glyph-name="registered.cap" unicode="&#xe99c;" horiz-adv-x="900" 
d="M54 390q0 164 116 280t280 116t280 -116t116 -280t-116 -280t-280 -116t-280 116t-116 280zM74 390q0 -156 110 -266t266 -110t266 110t110 266t-110 266t-266 110t-266 -110t-110 -266zM327 355v-200h-20v470h156q56 0 95.5 -29.5t39.5 -98.5v-14q0 -95 -81 -121
l81 -207h-22l-79 202q-12 -2 -34 -2h-136zM327 375h138q45 0 79 24.5t34 85.5v10q0 61 -34 85.5t-79 24.5h-138v-230z" />
    <glyph glyph-name="period.T" unicode="&#xf182;" 
d="M170 40v-40h-40v40h40z" />
    <glyph glyph-name="comma.T" unicode="&#xf183;" 
d="M170 40v-32q0 -56 -23 -84.5t-62 -28.5v20q64 0 65 85h-20v40h40z" />
    <glyph glyph-name="colon.T" unicode="&#xf184;" 
d="M170 40v-40h-40v40h40zM170 410v-40h-40v40h40z" />
    <glyph glyph-name="semicolon.T" unicode="&#xf185;" 
d="M170 410v-40h-40v40h40zM170 40v-32q0 -56 -23 -84.5t-62 -28.5v20q64 0 65 85h-20v40h40z" />
    <glyph glyph-name="onesixteenth" unicode="&#xf215;" horiz-adv-x="1100" 
d="M1057 395v-20q-42 0 -84 -18.5t-71 -56.5q-34 -43 -46 -102q37 47 99 47q54 0 87 -31t33 -92v-5q0 -61 -33.5 -91.5t-89.5 -30.5q-53 0 -87.5 35.5t-34.5 99.5v5q0 105 55 178q30 40 78 61t94 21zM953 225q-71 0 -102 -63q-1 -9 -1 -27v-5q0 -53 29 -84t72 -31h3
q47 0 73.5 26.5t26.5 74.5v8q0 48 -26.5 74.5t-71.5 26.5h-3zM124 0h-24l576 780h24zM772 0h-235v20h108v342l-102 -70l-11 17l123 83h10v-372h107v-20zM272 390h-235v20h108v342l-102 -70l-11 17l123 83h10v-372h107v-20z" />
    <glyph glyph-name="threesixteenths" unicode="&#xf216;" horiz-adv-x="1100" 
d="M1057 395v-20q-42 0 -84 -18.5t-71 -56.5q-34 -43 -46 -102q37 47 99 47q54 0 87 -31t33 -92v-5q0 -61 -33.5 -91.5t-89.5 -30.5q-53 0 -87.5 35.5t-34.5 99.5v5q0 105 55 178q30 40 78 61t94 21zM953 225q-71 0 -102 -63q-1 -9 -1 -27v-5q0 -53 29 -84t72 -31h3
q47 0 73.5 26.5t26.5 74.5v8q0 48 -26.5 74.5t-71.5 26.5h-3zM147 404h5q42 0 70.5 21.5t28.5 61.5v8q0 41 -26 62.5t-67 21.5h-58v19h56q41 0 67 19.5t26 58.5v4q0 39 -26.5 62.5t-70.5 23.5h-5q-50 0 -73.5 -27.5t-23.5 -88.5h-20v12q0 123 120 123q55 0 87.5 -27.5
t32.5 -75.5v-7q0 -69 -71 -87q73 -18 73 -92v-8q0 -48 -35 -75.5t-87 -27.5q-62 0 -92.5 33t-30.5 92v5h20q0 -111 100 -111zM124 0h-24l576 780h24zM772 0h-235v20h108v342l-102 -70l-11 17l123 83h10v-372h107v-20z" />
    <glyph glyph-name="fivesixteenths" unicode="&#xf217;" horiz-adv-x="1100" 
d="M1057 395v-20q-42 0 -84 -18.5t-71 -56.5q-34 -43 -46 -102q37 47 99 47q54 0 87 -31t33 -92v-5q0 -61 -33.5 -91.5t-89.5 -30.5q-53 0 -87.5 35.5t-34.5 99.5v5q0 105 55 178q30 40 78 61t94 21zM953 225q-71 0 -102 -63q-1 -9 -1 -27v-5q0 -53 29 -84t72 -31h3
q47 0 73.5 26.5t26.5 74.5v8q0 48 -26.5 74.5t-71.5 26.5h-3zM47 555l-17 4l10 221h227v-20h-208l-7 -167q33 42 98 42q52 0 87 -32t35 -91v-5q0 -58 -35 -90t-87 -32q-62 0 -92.5 33t-30.5 92v5h20q0 -111 100 -111h5q42 0 70.5 25.5t28.5 75.5v10q0 50 -28.5 75.5
t-70.5 25.5h-5q-33 0 -61 -16t-39 -45zM124 0h-24l576 780h24zM772 0h-235v20h108v342l-102 -70l-11 17l123 83h10v-372h107v-20z" />
    <glyph glyph-name="sevensixteenths" unicode="&#xf218;" horiz-adv-x="1100" 
d="M1057 395v-20q-42 0 -84 -18.5t-71 -56.5q-34 -43 -46 -102q37 47 99 47q54 0 87 -31t33 -92v-5q0 -61 -33.5 -91.5t-89.5 -30.5q-53 0 -87.5 35.5t-34.5 99.5v5q0 105 55 178q30 40 78 61t94 21zM953 225q-71 0 -102 -63q-1 -9 -1 -27v-5q0 -53 29 -84t72 -31h3
q47 0 73.5 26.5t26.5 74.5v8q0 48 -26.5 74.5t-71.5 26.5h-3zM124 0h-24l576 780h24zM32 640v140h240v-13l-153 -377h-22l151 370h-196v-120h-20zM772 0h-235v20h108v342l-102 -70l-11 17l123 83h10v-372h107v-20z" />
    <glyph glyph-name="ninesixteenths" unicode="&#xf219;" horiz-adv-x="1100" 
d="M42 385v20q42 0 84.5 18.5t71.5 56.5q33 43 45 102q-36 -47 -98 -47q-54 0 -87 31t-33 91v5q0 61 33.5 92t88.5 31q53 0 88 -35.5t35 -99.5v-5q0 -104 -55 -178q-30 -41 -77.5 -61.5t-95.5 -20.5zM1057 395v-20q-42 0 -84 -18.5t-71 -56.5q-34 -43 -46 -102q37 47 99 47
q54 0 87 -31t33 -92v-5q0 -61 -33.5 -91.5t-89.5 -30.5q-53 0 -87.5 35.5t-34.5 99.5v5q0 105 55 178q30 40 78 61t94 21zM953 225q-71 0 -102 -63q-1 -9 -1 -27v-5q0 -53 29 -84t72 -31h3q47 0 73.5 26.5t26.5 74.5v8q0 48 -26.5 74.5t-71.5 26.5h-3zM143 555h3
q35 0 62 17.5t41 46.5q0 5 0.5 13.5t0.5 12.5v5q0 53 -29 84t-72 31h-3q-47 0 -73.5 -26.5t-26.5 -74.5v-8q0 -48 26 -74.5t71 -26.5zM124 0h-24l576 780h24zM772 0h-235v20h108v342l-102 -70l-11 17l123 83h10v-372h107v-20z" />
    <glyph glyph-name="elevensixteenths" unicode="&#xf220;" horiz-adv-x="1400" 
d="M1357 395v-20q-42 0 -84 -18.5t-71 -56.5q-34 -43 -46 -102q37 47 99 47q54 0 87 -31t33 -92v-5q0 -61 -33.5 -91.5t-89.5 -30.5q-53 0 -87.5 35.5t-34.5 99.5v5q0 105 55 178q30 40 78 61t94 21zM1253 225q-71 0 -102 -63q-1 -9 -1 -27v-5q0 -53 29 -84t72 -31h3
q47 0 73.5 26.5t26.5 74.5v8q0 48 -26.5 74.5t-71.5 26.5h-3zM424 0h-24l576 780h24zM272 390h-235v20h108v342l-102 -70l-11 17l123 83h10v-372h107v-20zM572 390h-235v20h108v342l-102 -70l-11 17l123 83h10v-372h107v-20zM1072 0h-235v20h108v342l-102 -70l-11 17l123 83
h10v-372h107v-20z" />
    <glyph glyph-name="thirteensixteenths" unicode="&#xf221;" horiz-adv-x="1400" 
d="M1357 395v-20q-42 0 -84 -18.5t-71 -56.5q-34 -43 -46 -102q37 47 99 47q54 0 87 -31t33 -92v-5q0 -61 -33.5 -91.5t-89.5 -30.5q-53 0 -87.5 35.5t-34.5 99.5v5q0 105 55 178q30 40 78 61t94 21zM1253 225q-71 0 -102 -63q-1 -9 -1 -27v-5q0 -53 29 -84t72 -31h3
q47 0 73.5 26.5t26.5 74.5v8q0 48 -26.5 74.5t-71.5 26.5h-3zM447 404h5q42 0 70.5 21.5t28.5 61.5v8q0 41 -26 62.5t-67 21.5h-58v19h56q41 0 67 19.5t26 58.5v4q0 39 -26.5 62.5t-70.5 23.5h-5q-50 0 -73.5 -27.5t-23.5 -88.5h-20v12q0 123 120 123q55 0 87.5 -27.5
t32.5 -75.5v-7q0 -69 -71 -87q73 -18 73 -92v-8q0 -48 -35 -75.5t-87 -27.5q-62 0 -92.5 33t-30.5 92v5h20q0 -111 100 -111zM424 0h-24l576 780h24zM272 390h-235v20h108v342l-102 -70l-11 17l123 83h10v-372h107v-20zM1072 0h-235v20h108v342l-102 -70l-11 17l123 83h10
v-372h107v-20z" />
    <glyph glyph-name="fifteensixteenths" unicode="&#xf222;" horiz-adv-x="1400" 
d="M1357 395v-20q-42 0 -84 -18.5t-71 -56.5q-34 -43 -46 -102q37 47 99 47q54 0 87 -31t33 -92v-5q0 -61 -33.5 -91.5t-89.5 -30.5q-53 0 -87.5 35.5t-34.5 99.5v5q0 105 55 178q30 40 78 61t94 21zM1253 225q-71 0 -102 -63q-1 -9 -1 -27v-5q0 -53 29 -84t72 -31h3
q47 0 73.5 26.5t26.5 74.5v8q0 48 -26.5 74.5t-71.5 26.5h-3zM347 555l-17 4l10 221h227v-20h-208l-7 -167q33 42 98 42q52 0 87 -32t35 -91v-5q0 -58 -35 -90t-87 -32q-62 0 -92.5 33t-30.5 92v5h20q0 -111 100 -111h5q42 0 70.5 25.5t28.5 75.5v10q0 50 -28.5 75.5
t-70.5 25.5h-5q-33 0 -61 -16t-39 -45zM424 0h-24l576 780h24zM272 390h-235v20h108v342l-102 -70l-11 17l123 83h10v-372h107v-20zM1072 0h-235v20h108v342l-102 -70l-11 17l123 83h10v-372h107v-20z" />
    </font>
</defs>
</svg>
