<?xml version="1.0" standalone="no"?>
<!DOCTYPE svg PUBLIC "-//W3C//DTD SVG 1.1//EN" "http://www.w3.org/Graphics/SVG/1.1/DTD/svg11.dtd" >
<svg>
<metadata>
Created by FontForge 20110222 at Sat Jun 28 02:00:41 2014
 By Orthosie Webhosting
Copyright   c   1993 - Roger White -  All Rights Reserved - see .txt file for terms for distribution and use.
</metadata>
<defs>
<font id="SwanseaBoldItalic" horiz-adv-x="557" >
  <font-face 
    font-family="Swansea"
    font-weight="700"
    font-style="italic"
    font-stretch="normal"
    units-per-em="1000"
    panose-1="2 11 8 0 0 0 0 0 0 0"
    ascent="800"
    descent="-200"
    x-height="533"
    cap-height="719"
    bbox="-43 -227 1115 939"
    underline-thickness="50"
    underline-position="-50"
    slope="12"
    unicode-range="U+0020-2122"
  />
<missing-glyph horiz-adv-x="502" 
d="M-1 0h500v500h-500v-500zM9 10v480h480v-480h-480z" />
    <glyph glyph-name=".notdef" horiz-adv-x="502" 
d="M-1 0h500v500h-500v-500zM9 10v480h480v-480h-480z" />
    <glyph glyph-name="space" unicode=" " horiz-adv-x="277" 
 />
    <glyph glyph-name="space" unicode="&#xa0;" horiz-adv-x="277" 
 />
    <glyph glyph-name="exclam" unicode="!" horiz-adv-x="332" 
d="M271 141h-146l-31 -141h146zM359 535l39 184h-154l-39 -184l-33 -336h74z" />
    <glyph glyph-name="quotedbl" unicode="&#x22;" horiz-adv-x="475" 
d="M373 447h100l56 272h-97zM193 447h98l59 272h-98z" />
    <glyph glyph-name="numbersign" unicode="#" 
d="M570 289h-95l43 121h95l32 90h-96l68 199h-94l-70 -199h-96l71 199h-96l-70 -199h-96l-31 -90h97l-43 -121h-97l-31 -90h97l-70 -199h94l70 199h98l-71 -199h94l70 199h96zM422 410l-43 -121h-96l43 121h96z" />
    <glyph glyph-name="dollar" unicode="$" 
d="M619 502l4 47q0 63 -27 97t-62 48q-38 13 -81 17l14 64h-47l-14 -64q-68 0 -120 -28q-51 -28 -88 -77q-33 -47 -46 -102l-6 -47q0 -46 26 -78q24 -32 61 -48q35 -17 87 -32l-45 -209q-41 8 -55 26q-17 23 -17 54l4 45h-131l-1 -5q-3 -20 -4 -33q-4 -26 -5 -40
q0 -37 12 -64q11 -25 35 -46q25 -21 58 -31q35 -12 81 -12l-20 -99h45l20 99q34 0 70 11q37 11 67 29q62 35 99 94t37 134q0 48 -19 77t-58 47q-36 20 -102 42l39 187q30 0 46 -13t16 -55l-2 -35h129zM348 432q-69 15 -69 70q22 103 106 103zM361 283q71 -21 71 -78
q0 -28 -15 -54q-18 -27 -42 -43q-15 -9 -27 -13q-17 -5 -28 -5z" />
    <glyph glyph-name="percent" unicode="%" horiz-adv-x="889" 
d="M533 170l-6 -39q0 -38 21 -73q19 -34 54 -52q33 -18 76 -18q42 0 82 18q41 18 74 50q34 34 49 70q19 38 19 81q0 45 -19 77q-19 33 -52 52q-34 18 -75 18q-52 0 -98 -25t-80 -67q-33 -40 -45 -92zM637 170q8 36 36 58q26 22 59 22q29 0 46 -17t17 -47q0 -37 -28 -65
q-29 -29 -68 -29q-27 0 -45 19q-19 18 -19 43zM141 529l-6 -39q0 -39 21 -72q19 -32 53 -52q34 -18 76 -18q55 0 107 30t84 80t32 105q0 42 -18 76q-19 33 -52 53q-32 19 -77 19q-49 0 -96 -24t-80 -66t-44 -92zM244 529q8 33 36 55q29 23 60 23q28 0 45 -17t17 -45
q0 -38 -29 -67t-66 -29q-27 0 -47 18q-20 17 -20 43zM830 711h-74l-553 -729h74z" />
    <glyph glyph-name="ampersand" unicode="&#x26;" horiz-adv-x="723" 
d="M605 158q52 52 80 98q27 44 47 117h-123q-18 -64 -62 -117l-74 125q67 37 113 91q45 53 45 118q0 40 -20 72q-23 31 -55 44q-33 13 -70 13q-55 0 -103 -21q-51 -23 -81 -59q-31 -37 -42 -84l-2 -17l-2 -18q0 -30 10 -59q11 -30 27 -57q-65 -25 -107 -51q-41 -27 -63 -66
q-23 -43 -29 -101l-2 -28q0 -45 20 -87t61 -65q41 -24 102 -24q74 0 125 21q51 22 96 58l37 -61h170zM508 555q-11 -50 -86 -90q-19 23 -26 41q-9 18 -9 37q11 34 26 52t46 18q23 0 36 -10t13 -35v-13zM443 150q-65 -50 -121 -50q-46 0 -67 24t-21 54l2 17q6 28 19 47
q14 18 33 33q8 6 15 11l18 12q6 3 14 8q7 5 13 8z" />
    <glyph glyph-name="quotesingle" unicode="'" horiz-adv-x="277" 
d="M195 592h78q-7 -21 -13 -33q-10 -18 -16 -25q-20 -23 -66 -38l-10 -51q143 29 174 172l21 102h-140z" />
    <glyph glyph-name="parenleft" unicode="(" horiz-adv-x="332" 
d="M271 -207q-27 73 -42 141q-9 43 -12 75q-4 27 -4 71q0 174 67 339q66 161 191 315h-104q-45 -46 -90 -102t-79 -110q-38 -61 -64 -124q-31 -73 -44 -136q-9 -41 -12 -68q-4 -25 -4 -67q0 -82 24 -165q22 -81 70 -169h103z" />
    <glyph glyph-name="parenright" unicode=")" horiz-adv-x="332" 
d="M176 734l28 -89q13 -53 19 -91q7 -46 7 -107q0 -113 -32 -232q-31 -114 -88 -221q-57 -105 -135 -201h103q35 37 60 66q38 46 55 69q52 71 92 145q40 78 61 159q23 86 23 168q0 163 -90 334h-103z" />
    <glyph glyph-name="asterisk" unicode="*" horiz-adv-x="389" 
d="M475 635l-110 -35l26 119h-84l-28 -119l-93 35l-40 -74l98 -32l-88 -97l53 -43l88 90l49 -90l72 43l-49 97l113 32z" />
    <glyph glyph-name="plus" unicode="+" horiz-adv-x="584" 
d="M303 311h-196l-25 -114h197l-43 -197h114l41 197h197l23 114h-197l43 197h-111z" />
    <glyph glyph-name="comma" unicode="," horiz-adv-x="277" 
d="M246 146h-150l-32 -146h84q-15 -57 -40 -79t-67 -36l-12 -53q75 16 123 60q49 40 67 128z" />
    <glyph glyph-name="hyphen" unicode="-" horiz-adv-x="332" 
d="M379 346h-279l-26 -131h280z" />
    <glyph glyph-name="period" unicode="." horiz-adv-x="277" 
d="M246 148h-150l-32 -146h151z" />
    <glyph glyph-name="slash" unicode="/" horiz-adv-x="277" 
d="M469 738h-117l-389 -756h117z" />
    <glyph glyph-name="zero" unicode="0" 
d="M104 346q-10 -53 -14 -87q-6 -40 -6 -73q0 -101 48 -154q46 -52 139 -52q126 0 207 91q80 89 118 275q17 99 17 158q0 70 -19 115q-19 46 -61 69q-41 23 -105 23q-125 0 -205 -89t-119 -276zM248 346q15 69 30 117t33 78t41 44q22 13 52 13q39 0 55 -22t16 -70
q0 -54 -20 -154q-20 -96 -41 -153q-21 -55 -49 -80t-68 -25q-36 0 -53 21q-10 13 -14 29q-5 18 -5 40q0 32 7 71q8 52 16 91z" />
    <glyph glyph-name="one" unicode="1" 
d="M174 490h170l-106 -490h141l150 711h-115q-14 -53 -44 -79q-32 -27 -74 -36q-50 -8 -101 -8z" />
    <glyph glyph-name="two" unicode="2" 
d="M270 459l1 7q5 19 7 25q3 11 13 35q9 24 36 47q27 21 71 21q41 0 60 -22t19 -56q0 -43 -22 -77q-24 -37 -53 -59q-5 -4 -25 -19q-8 -7 -10 -8q-8 -6 -31 -20l-5 -3l-79 -47q-81 -52 -128 -100q-45 -47 -64 -89q-19 -39 -33 -94h485l25 125h-307q6 11 22 24l37 28l54 34
l73 45q61 35 104 75q44 41 72 94q27 53 27 116q0 56 -25 93q-27 40 -71 58q-45 19 -105 19q-47 0 -101 -16t-108 -73q-54 -59 -76 -163h137z" />
    <glyph glyph-name="three" unicode="3" 
d="M279 313q61 0 103 -14q39 -13 39 -63l-3 -25q-13 -57 -49 -87t-82 -30q-39 0 -60 21q-22 21 -22 61l6 43h-137l-10 -71q0 -68 36 -106q37 -39 83 -49q49 -11 88 -11q57 0 111 21q53 21 94 59t66 88q24 51 24 108q0 55 -26 84q-25 28 -50 33q36 20 64 50q27 27 43 67
q16 35 16 78q0 50 -28 81t-72 46q-47 14 -87 14q-78 0 -136 -28t-96 -81t-53 -120h130q28 118 122 118q39 0 56 -20q16 -20 16 -51l-1 -12l-1 -9q-12 -58 -42 -77q-30 -21 -77 -21l-43 2z" />
    <glyph glyph-name="four" unicode="4" 
d="M584 268h-78l94 443h-161l-353 -432l-25 -121h281l-33 -158h138l33 158h81zM188 268l244 304l-14 -61l-26 -117l-27 -126h-177z" />
    <glyph glyph-name="five" unicode="5" 
d="M66 191l-1 -18l-2 -21q0 -63 31 -100q31 -40 77 -56q44 -16 95 -16q40 0 79 13q41 13 75 34q73 44 113 117q41 74 41 155q0 49 -24 88q-27 40 -65 58q-41 20 -89 20q-20 0 -40 -3q-15 -2 -36 -8q-38 -12 -54 -28l56 154h289l26 119h-391l-133 -390l125 -6q13 22 43 37
q30 14 59 14q40 0 62 -25t22 -65q0 -41 -17 -80q-18 -37 -51 -61q-32 -25 -75 -31q-74 0 -74 99h-141z" />
    <glyph glyph-name="six" unicode="6" 
d="M98 311q-9 -60 -9 -62q-3 -28 -3 -60q0 -27 5 -55q3 -19 13 -48q16 -43 56 -72q22 -16 49 -23q27 -9 59 -9q87 0 158 44q70 44 108 113q23 39 33 72q11 35 11 66q0 57 -16 93q-16 37 -44 56q-26 18 -57 26q-28 7 -63 7q-38 0 -77 -14q-36 -13 -65 -45l-2 2q11 45 30 90
q21 47 53 77q33 31 79 31q29 0 47 -17q17 -18 17 -52h139l1 28q0 74 -44 113q-45 39 -148 39q-69 0 -124 -31q-56 -32 -97 -88q-42 -57 -69 -129q-26 -72 -40 -152zM242 283q17 31 48 47t62 16q24 0 41 -10q19 -11 29 -28q10 -19 10 -46q0 -41 -16 -77q-17 -38 -49 -63
q-34 -26 -80 -26q-32 3 -51 28q-23 26 -23 64q3 30 10 50q6 24 19 45z" />
    <glyph glyph-name="seven" unicode="7" 
d="M127 0h143q36 121 85 215q52 97 100 161q44 58 104 121l95 95l24 107h-502l-28 -125h354q-36 -29 -85 -80q-52 -55 -109 -134q-59 -80 -108 -173q-49 -92 -73 -187z" />
    <glyph glyph-name="eight" unicode="8" 
d="M570 211q6 27 6 51q0 44 -20 73q-19 28 -56 48q52 22 84 71q31 47 31 107q0 43 -21 77t-62 54q-41 19 -104 19t-117 -22q-56 -22 -96 -67q-39 -43 -51 -104l-3 -19l-3 -20q0 -69 63 -102q-136 -55 -153 -229q0 -67 51 -117q51 -49 156 -49q87 0 150 36q62 36 99 90
q35 51 46 103zM369 422q-36 0 -55 22q-21 21 -21 48q8 28 18 47q12 22 23 33q28 28 78 28q28 0 47 -18q18 -19 18 -49q0 -28 -14 -54t-39 -41q-25 -16 -55 -16zM426 205q-10 -43 -43 -77q-34 -34 -84 -34q-37 0 -60 23q-22 22 -22 57l2 17l2 16q10 52 46 81q34 28 77 28
q44 0 64 -23t20 -61l-1 -14z" />
    <glyph glyph-name="nine" unicode="9" 
d="M80 166l-1 -24q0 -49 23 -86q22 -36 62 -55q38 -19 96 -19q67 0 135 35q67 35 119 117q54 83 82 212q19 78 19 154q0 56 -17 105q-17 48 -59 77q-44 29 -115 29q-53 0 -100 -15q-50 -18 -86 -47q-41 -32 -69 -80q-29 -49 -42 -114l-6 -53q0 -70 47 -119q46 -49 127 -49
q45 0 81 14q32 13 69 43q-22 -103 -66 -150t-94 -47q-64 0 -64 72h-141zM271 477q11 47 32 73q22 25 47 36q23 10 48 10q84 0 84 -88q0 -38 -15 -76q-17 -39 -46 -62q-30 -24 -71 -24q-86 0 -86 80l4 28z" />
    <glyph glyph-name="colon" unicode=":" horiz-adv-x="332" 
d="M123 146l-29 -146h148l31 146h-150zM170 367h150l32 147h-151z" />
    <glyph glyph-name="semicolon" unicode=";" horiz-adv-x="332" 
d="M92 0h84q-14 -57 -42 -79q-29 -24 -66 -36l-11 -53q152 25 183 168l33 146h-150zM170 367h150l32 147h-151z" />
    <glyph glyph-name="less" unicode="&#x3c;" horiz-adv-x="584" 
d="M82 209l463 -217l21 110l-330 152l397 154l23 108l-554 -217z" />
    <glyph glyph-name="equal" unicode="=" horiz-adv-x="584" 
d="M59 88h504l23 111h-506zM105 309h504l24 111h-506z" />
    <glyph glyph-name="greater" unicode="&#x3e;" horiz-adv-x="584" 
d="M59 100l-24 -108l555 217l19 90l-463 217l-23 -110l334 -150z" />
    <glyph glyph-name="question" unicode="?" horiz-adv-x="611" 
d="M268 141l-30 -141h147l29 141h-146zM164 494h143q11 50 45 83q35 32 82 32q35 0 60 -18q24 -19 24 -54q0 -63 -67 -111l-63 -44q-9 -6 -23 -18q-7 -6 -20 -19q-18 -17 -34 -52q-15 -31 -26 -84h135q6 53 35 82q26 26 86 64q28 18 52 39q23 20 37 38q32 41 40 111l1 23
q0 53 -28 90q-28 35 -76 54q-29 10 -52 14q-30 5 -56 5q-82 0 -145 -32q-62 -31 -99 -84q-37 -52 -51 -119z" />
    <glyph glyph-name="at" unicode="@" horiz-adv-x="975" 
d="M717 494q-29 65 -108 65q-55 0 -102 -24q-48 -25 -82 -66q-36 -43 -57 -90q-22 -46 -30 -104q0 -35 17 -68q16 -33 47 -51q28 -19 65 -19q56 0 117 54q0 -54 47 -54q61 0 119 32t101 84q42 51 68 116q24 65 24 125q0 74 -37 129t-102 85q-64 30 -142 30q-94 0 -178 -37
q-87 -38 -150 -101q-65 -65 -104 -147q-21 -43 -34 -89q-12 -42 -12 -85q0 -84 42 -152q40 -69 115 -107t165 -38q63 0 123 18q59 18 115 54q55 35 102 89h-90q-103 -82 -227 -82q-72 0 -127 28q-57 28 -86 79q-31 50 -31 117q1 5 1 14l3 23q1 16 3 32l1 3q17 84 67 152
q48 67 124 109q73 40 159 40q66 0 114 -22q50 -23 75 -64t25 -101q0 -17 -5 -67q-17 -77 -58 -126q-42 -49 -83 -49q-11 0 -14 11l4 16l7 17l9 18l111 256h-88zM662 377q-7 -36 -29 -65q-23 -34 -54 -53q-33 -21 -67 -21q-28 0 -45 18q-18 18 -18 45q8 38 27 75q18 35 52 61
q32 24 72 24q29 0 47 -17q17 -18 17 -48l-1 -9z" />
    <glyph glyph-name="A" unicode="A" horiz-adv-x="723" 
d="M20 0h158l80 148h267l14 -148h164l-101 719h-172zM326 273l154 288l30 -288h-184z" />
    <glyph glyph-name="B" unicode="B" horiz-adv-x="723" 
d="M76 0h332q108 0 175 39q69 38 100 95q17 31 27 58q9 27 9 52v24q0 45 -19 73q-19 27 -61 50q43 13 71 43q18 19 27 34q7 12 16 33q13 33 13 67q0 42 -19 76t-60 55q-43 20 -101 20h-357zM346 596h179q90 0 90 -71q-5 -36 -36 -61q-32 -26 -91 -26h-175zM287 316h195
q43 0 66 -20q22 -19 22 -54q0 -28 -16 -54q-16 -28 -48 -45q-31 -18 -70 -18h-190z" />
    <glyph glyph-name="C" unicode="C" horiz-adv-x="723" 
d="M121 369q-4 -24 -10 -50q-6 -37 -6 -73q0 -74 27 -133q28 -60 84 -94q29 -18 64 -27q34 -10 77 -10l11 -1h10q71 0 134 26q62 26 103 64q47 43 75 85q29 42 48 90h-152q-7 -28 -27 -54q-10 -13 -21 -24q-11 -10 -25 -19q-24 -18 -55 -28q-31 -12 -62 -12q-33 0 -66 17
q-30 16 -49 53q-19 35 -19 89q0 27 5 55q5 29 13 58q8 34 21 62q11 26 26 51q29 50 76 82q46 31 109 31q33 0 64 -14q29 -15 45 -43t16 -66h150l2 32q0 48 -16 86q-18 42 -47 71q-31 31 -80 48q-51 17 -109 17q-47 0 -79 -7q-37 -8 -72 -22q-71 -29 -122 -78
q-50 -48 -88 -117q-37 -66 -55 -145z" />
    <glyph glyph-name="D" unicode="D" horiz-adv-x="723" 
d="M76 0h322q101 0 184 65t132 163q48 95 59 198l3 56q0 121 -58 179t-150 58h-339zM248 125l102 469h164q48 0 77 -31q30 -31 30 -102q0 -45 -15 -108q-14 -61 -44 -116q-31 -54 -72 -82q-43 -30 -94 -30h-148z" />
    <glyph glyph-name="E" unicode="E" horiz-adv-x="668" 
d="M76 0h545l27 127h-398l41 187h350l27 127h-352l34 151h380l28 127h-529z" />
    <glyph glyph-name="F" unicode="F" horiz-adv-x="611" 
d="M76 0h151l62 303h316l28 127h-317l36 162h361l27 127h-511z" />
    <glyph glyph-name="G" unicode="G" horiz-adv-x="777" 
d="M113 318q-4 -23 -4 -37v-26q0 -91 35 -153t94 -92q60 -30 127 -30q48 0 98 14t86 37q41 25 68 59l-4 -90h100l82 387h-301l-23 -119h166q-12 -33 -40 -70t-75 -63q-49 -26 -106 -26q-75 0 -114 42q-40 40 -40 119q0 45 10 84q8 36 26 82q32 79 93 128t152 49q44 0 81 -31
q36 -31 46 -86h146q0 51 -15 94q-15 45 -45 76q-33 33 -82 52q-54 20 -119 20q-90 0 -169 -35q-76 -34 -135 -94q-58 -59 -92 -135q-19 -43 -29 -78q-13 -42 -17 -78z" />
    <glyph glyph-name="H" unicode="H" horiz-adv-x="723" 
d="M70 0h151l68 322h281l-68 -322h148l155 719h-151l-58 -272h-280l59 272h-150z" />
    <glyph glyph-name="I" unicode="I" horiz-adv-x="277" 
d="M64 0h151l152 719h-150z" />
    <glyph glyph-name="J" unicode="J" 
d="M80 271l-2 -7q-11 -48 -14 -67q-5 -35 -5 -60q0 -37 12 -66q12 -31 33 -50q44 -39 144 -39q83 0 140 26t91 78q33 51 50 133l108 500h-151l-111 -530q-19 -85 -105 -85q-33 0 -49 16q-18 15 -18 48q0 23 8 61q1 4 2 9q6 25 8 33h-141z" />
    <glyph glyph-name="K" unicode="K" horiz-adv-x="723" 
d="M88 0h148l53 244l86 70l154 -314h194l-221 424l357 295h-195l-336 -293l63 293h-151z" />
    <glyph glyph-name="L" unicode="L" horiz-adv-x="611" 
d="M76 0h508l27 131h-357l125 588h-150z" />
    <glyph glyph-name="M" unicode="M" horiz-adv-x="832" 
d="M68 0h139l133 607l2 -607h148l266 613l-131 -613h141l152 719h-217l-250 -569l-10 569h-218z" />
    <glyph glyph-name="N" unicode="N" horiz-adv-x="723" 
d="M68 0h141l109 516l186 -516h150l153 719h-139l-107 -506l-182 506h-156z" />
    <glyph glyph-name="O" unicode="O" horiz-adv-x="777" 
d="M115 340q-1 -18 -6 -49q-4 -28 -4 -47q0 -70 26 -128q25 -57 84 -93q35 -20 73 -30q39 -11 87 -11q99 0 182 41t142 110t90 153q31 83 31 175q0 129 -67 202t-228 73q-42 0 -88 -11q-43 -12 -81 -30q-71 -35 -121 -92q-50 -55 -79 -125q-29 -71 -41 -138zM283 410
q20 66 56 112q33 43 80 66q48 23 102 23q75 0 112 -46t37 -126q0 -58 -16 -113q-8 -30 -21 -56q-16 -32 -28 -50q-31 -48 -79 -79q-49 -32 -104 -32q-164 0 -164 162q0 32 7 64q6 35 18 75z" />
    <glyph glyph-name="P" unicode="P" horiz-adv-x="668" 
d="M76 0h151l54 260h174q78 0 142 40q65 39 102 106t37 141q0 78 -43 125q-44 47 -140 47h-323zM307 383l45 213h132q52 0 76 -18q24 -19 24 -58q0 -37 -16 -68q-7 -14 -20 -28q-10 -10 -27 -22q-28 -19 -66 -19h-148z" />
    <glyph glyph-name="Q" unicode="Q" horiz-adv-x="777" 
d="M113 334l-8 -84q0 -95 41 -154q40 -58 104 -84t137 -26q60 0 111 13q51 12 80 30l70 -82l96 82l-62 75q45 50 77 112q32 63 47 127q14 67 14 134q0 114 -64 187q-65 74 -211 74q-102 0 -194 -48q-49 -26 -84 -58q-36 -33 -71 -82q-63 -90 -83 -216zM264 334q11 80 47 141
q35 62 92 100q56 36 124 36q38 0 65 -13q28 -14 44 -36q34 -43 34 -115q0 -44 -12 -91q-11 -45 -29 -87q-15 -36 -35 -64l-59 72l-96 -82l59 -68q-33 -14 -82 -18q-40 0 -76 18q-36 16 -59 54q-23 37 -23 92l2 25z" />
    <glyph glyph-name="R" unicode="R" horiz-adv-x="723" 
d="M74 0h149l60 281h170q49 0 67 -15q17 -17 17 -51l-3 -36l-10 -52l-10 -55l-3 -47l1 -25h166l4 20q-19 6 -22 31l2 19q0 16 4 33q2 7 3 14q3 14 5 21l13 67q2 8 3 21l1 5v21q0 72 -64 94q29 7 58 28q27 21 45 44q20 26 32 55q14 33 17 60l2 26q0 42 -20 80q-19 35 -59 58
q-40 22 -93 22h-380zM309 402l39 192h195q38 0 61 -20q21 -19 21 -53q0 -35 -19 -63q-18 -27 -51 -41q-31 -15 -67 -15h-179z" />
    <glyph glyph-name="S" unicode="S" horiz-adv-x="668" 
d="M84 223l-6 -53q0 -31 9 -58q7 -27 24 -50q34 -43 92 -62q60 -20 133 -20q89 0 154 25q37 15 61 30q27 18 48 37q42 42 63 91q20 49 20 93q0 46 -16 74q-12 24 -41 41q-26 17 -55 25l-86 24l-71 18q-69 16 -92 30q-22 13 -22 38q0 56 49 83q51 26 107 26q47 0 81 -24
t34 -85h145l2 43q0 66 -34 109q-34 42 -89 61q-54 19 -119 19q-81 0 -143 -24q-62 -26 -100 -65q-40 -41 -59 -90q-20 -51 -20 -96l3 -35q9 -46 50 -72t97 -41l119 -30q51 -12 81 -28q26 -15 26 -50q-3 -35 -29 -58q-14 -13 -29 -20q-18 -10 -33 -14q-34 -10 -73 -10
q-75 0 -105 27q-31 27 -31 91h-145z" />
    <glyph glyph-name="T" unicode="T" horiz-adv-x="611" 
d="M230 0h151l127 592h217l27 127h-586l-25 -127h216z" />
    <glyph glyph-name="U" unicode="U" horiz-adv-x="723" 
d="M123 244q-5 -19 -6 -36q0 -4 -2 -14q-1 -14 -2 -24q0 -76 41 -117q42 -42 94 -55q15 -4 36 -9l6 -1q35 -6 77 -6q65 0 126 20q29 11 54 24q16 9 46 31q41 33 68 77q28 45 38 93l106 492h-155l-103 -492q-8 -33 -26 -56q-19 -25 -53 -45q-16 -9 -37 -14q-20 -5 -40 -5
q-54 0 -85 25q-35 24 -35 73l2 17l2 16l104 481h-154z" />
    <glyph glyph-name="V" unicode="V" horiz-adv-x="668" 
d="M262 0h142l397 719h-156l-274 -549l-39 549h-160z" />
    <glyph glyph-name="W" unicode="W" horiz-adv-x="943" 
d="M221 0h142l221 545v-545h145l353 719h-152l-227 -512l2 512h-160l-215 -524v524h-160z" />
    <glyph glyph-name="X" unicode="X" horiz-adv-x="668" 
d="M14 0h175l198 246l84 -246h183l-156 373l293 346h-172l-181 -233l-79 233h-179l144 -352z" />
    <glyph glyph-name="Y" unicode="Y" horiz-adv-x="668" 
d="M264 0h148l59 270l336 449h-170l-209 -313l-82 313h-178l152 -449z" />
    <glyph glyph-name="Z" unicode="Z" horiz-adv-x="611" 
d="M25 0h561l27 127h-379l479 475l25 117h-550l-28 -127h361l-468 -465z" />
    <glyph glyph-name="bracketleft" unicode="[" horiz-adv-x="332" 
d="M21 -195h247l21 95h-125l154 727h123l20 96h-244z" />
    <glyph glyph-name="backslash" unicode="\" horiz-adv-x="277" 
d="M189 -20h118l-67 758h-117z" />
    <glyph glyph-name="bracketright" unicode="]" horiz-adv-x="332" 
d="M-18 -195h247l195 918h-246l-22 -96h125l-154 -727h-123z" />
    <glyph glyph-name="asciicircum" unicode="^" horiz-adv-x="584" 
d="M131 324h109l178 264l62 -264h112l-102 375h-99z" />
    <glyph glyph-name="underscore" unicode="_" 
d="M-27 -123h556l12 49h-557z" />
    <glyph glyph-name="grave" unicode="`" horiz-adv-x="332" 
d="M252 605h102l-65 147h-152z" />
    <glyph glyph-name="a" unicode="a" 
d="M63 154l-8 -52q0 -58 42 -87q41 -29 96 -29q56 0 97 20q39 19 85 57l-2 -36l2 -13l2 -14h150l4 21q-21 11 -21 36l1 8l2 8l1 8l2 11l64 306l2 28q0 59 -51 90q-52 31 -148 31q-40 0 -70 -6q-29 -6 -58 -18q-51 -23 -82 -62q-33 -42 -50 -100h135q19 73 101 73
q79 0 79 -43q0 -34 -26 -49q-23 -15 -67 -20l-68 -6q-61 -7 -108 -30q-45 -23 -71 -58q-16 -24 -22 -36q-8 -16 -13 -38zM223 191q21 24 39 29l73 14q58 10 81 26l-11 -43q-6 -29 -15 -49q-9 -19 -29 -39q-29 -24 -53 -34q-27 -11 -56 -11q-25 8 -39 18q-13 10 -16 35
q3 31 26 54z" />
    <glyph glyph-name="b" unicode="b" horiz-adv-x="611" 
d="M61 0h136l16 68q23 -43 57 -63q34 -19 87 -19q49 0 89 18q41 17 73 47q64 58 92 138q12 36 25 81q9 38 9 70q0 69 -25 116q-26 50 -65 71q-40 22 -88 22q-47 0 -91 -22t-79 -68l57 260h-139zM256 283q10 46 34 80q23 31 54 47t64 16q88 -9 88 -106q0 -48 -19 -98
q-20 -52 -53 -85q-35 -35 -82 -35q-96 0 -96 105q4 45 10 76z" />
    <glyph glyph-name="c" unicode="c" 
d="M82 123q10 -67 61 -102q50 -35 138 -35q80 0 142 38t97 86q36 52 43 85h-141q-4 -14 -15 -31q-14 -22 -23 -31q-28 -31 -75 -31q-86 0 -86 93q0 27 6 52q4 20 14 55q16 52 52 91q34 37 90 37q33 0 53 -19q17 -20 17 -67h143l2 32q0 51 -23 91q-24 39 -68 60
q-45 20 -101 20h-12q-79 0 -137 -34q-60 -35 -99 -89q-42 -58 -61 -123q-20 -69 -20 -130z" />
    <glyph glyph-name="d" unicode="d" horiz-adv-x="611" 
d="M86 127q7 -46 31 -77q23 -33 60 -49q38 -15 85 -15q51 0 93 21q43 22 73 61l-14 -68h137l154 719h-141l-56 -258q-33 86 -129 86q-68 0 -124 -32q-57 -31 -95 -85q-38 -51 -58 -115q-22 -66 -22 -126l3 -31zM230 250q17 92 62 134q44 42 97 42q90 0 90 -104
q0 -54 -18 -104q-19 -49 -56 -80q-38 -31 -91 -36q-17 0 -35 8q-17 8 -28 20q-24 27 -24 77l2 22z" />
    <glyph glyph-name="e" unicode="e" 
d="M82 277l-1 -6q-8 -36 -10 -48q-3 -21 -3 -49q0 -87 54 -137q53 -51 171 -51q62 0 121 29q58 33 93 71q38 39 48 70h-143q-11 -25 -39 -41q-32 -17 -64 -17l-43 7q-59 18 -59 92l4 32h365q18 59 18 117q0 56 -20 104q-21 47 -64 72t-110 25q-77 0 -140 -28
q-65 -29 -112 -91q-46 -61 -66 -151zM232 318l19 38q9 20 25 39q14 15 37 26q24 11 56 11q43 0 64 -26q20 -26 20 -64l-1 -12l-1 -12h-219z" />
    <glyph glyph-name="f" unicode="f" horiz-adv-x="332" 
d="M88 0h139l91 434h92l22 99h-90l8 43q4 21 16 29q11 8 34 8h45l24 114h-55q-95 0 -139 -36q-26 -21 -38 -44q-16 -27 -22 -47l-16 -67h-76l-21 -99h78z" />
    <glyph glyph-name="g" unicode="g" horiz-adv-x="611" 
d="M90 227l-4 -43q0 -79 38 -126q38 -48 105 -58l18 -1l19 -1q104 0 164 80q-10 -57 -19 -87q-10 -32 -31 -60q-20 -28 -56 -35q-9 -1 -17 -3l-11 -1q-6 -1 -26 -1q-35 0 -57 13q-22 12 -22 39h-152l-2 -23q0 -70 60 -103q59 -34 155 -34q141 0 212 65q69 63 89 154l113 531
h-135l-17 -84q-23 98 -137 98q-86 0 -147 -46q-63 -47 -96 -118t-44 -156zM260 141q-24 26 -24 74l-2 2q0 67 24 115q25 49 61 71q37 23 72 23q11 0 21 -3q14 -6 21 -11q20 -13 33 -37q11 -25 11 -59q0 -38 -10 -68q-11 -36 -32 -62q-22 -30 -49 -49q-28 -18 -64 -24
q-16 0 -34 8q-15 7 -28 20z" />
    <glyph glyph-name="h" unicode="h" horiz-adv-x="611" 
d="M64 0h141l63 299q26 129 144 129q35 0 51 -15q16 -14 16 -50l-4 -47l-69 -316h141l80 377l4 37q0 65 -43 99t-111 34q-53 0 -97 -22q-45 -22 -77 -64l54 258h-140z" />
    <glyph glyph-name="i" unicode="i" horiz-adv-x="277" 
d="M68 0h143l111 533h-140zM195 596h141l27 131h-140z" />
    <glyph glyph-name="j" unicode="j" horiz-adv-x="277" 
d="M-18 -102l-25 -111h43q50 0 89 11q37 10 65 43q28 34 41 96l127 596h-140l-123 -580q-7 -33 -20 -44q-14 -11 -33 -11h-24zM195 596h141l27 131h-140z" />
    <glyph glyph-name="k" unicode="k" 
d="M68 0h141l37 170l68 59l81 -229h168l-125 326l232 207h-172l-219 -203l84 389h-142z" />
    <glyph glyph-name="l" unicode="l" horiz-adv-x="277" 
d="M68 0h141l154 719h-140z" />
    <glyph glyph-name="m" unicode="m" horiz-adv-x="889" 
d="M64 0h141l70 338q8 41 39 66q32 26 67 26q32 0 51 -16t19 -48l-2 -18l-74 -348h141l72 332q9 42 43 70t70 28q27 0 43 -16t16 -53l-4 -35l-70 -326h142l80 387l2 31q0 42 -19 70q-18 26 -52 44q-34 15 -77 15q-92 0 -164 -86q-20 47 -50 67q-29 19 -73 19
q-108 0 -180 -94l16 80h-135z" />
    <glyph glyph-name="n" unicode="n" horiz-adv-x="611" 
d="M64 0h141l66 314q14 57 54 87q41 29 87 29q68 0 68 -65l-1 -27l-73 -338h141l80 377l2 35q0 39 -16 69q-16 31 -51 49q-35 17 -83 17q-36 0 -72 -12q-39 -15 -65 -35q-32 -25 -47 -49l18 82h-135z" />
    <glyph glyph-name="o" unicode="o" horiz-adv-x="611" 
d="M102 307q-10 -27 -14 -52q-6 -28 -6 -58q0 -87 53 -149t162 -62q72 0 134 28q64 27 111 76q49 49 74 113q25 63 25 131q0 46 -12 85q-13 39 -38 67q-26 28 -66 44q-42 17 -97 17q-89 0 -156 -35q-66 -34 -105 -87q-42 -56 -65 -118zM236 268q33 160 172 160q44 0 66 -27
q22 -28 22 -77q0 -54 -19 -104t-58 -83q-37 -33 -91 -33q-99 0 -99 99q0 10 2 32q1 11 5 33z" />
    <glyph glyph-name="p" unicode="p" horiz-adv-x="611" 
d="M18 -205h138l61 273q15 -40 51 -61t82 -21q85 0 155 56q68 56 104 141q36 86 36 171l-1 22l-1 20q-19 151 -196 151q-42 -4 -85 -31q-40 -27 -69 -63l16 80h-133zM260 293q21 69 59 101t95 32q25 0 45 -13q20 -15 29 -35q10 -21 10 -58q0 -50 -19 -98q-21 -52 -56 -85
q-38 -35 -83 -35l-18 2q-34 5 -56 31q-24 26 -24 70q0 16 5 38q5 23 13 50z" />
    <glyph glyph-name="q" unicode="q" horiz-adv-x="611" 
d="M90 268q-2 -10 -4 -22q-2 -10 -3 -18q-5 -28 -5 -48q0 -65 27 -110q25 -44 66 -64q40 -20 85 -20q49 0 96 23q44 21 74 59l-57 -275h139l158 740h-135l-17 -86q-7 38 -37 68q-15 15 -37 24q-24 8 -51 8q-68 0 -132 -35q-62 -36 -105 -98q-43 -64 -62 -146zM260 338
q19 45 53 66q34 20 70 20q45 0 70 -31q24 -31 24 -79q0 -47 -20 -98q-19 -50 -58 -81q-38 -31 -96 -31q-32 0 -56 28q-24 29 -24 71q0 31 9 62q9 33 28 73z" />
    <glyph glyph-name="r" unicode="r" horiz-adv-x="389" 
d="M64 0h139l59 266q15 75 53 107q37 31 99 31l22 -1l21 -1l31 143l-28 2q-24 0 -44 -6t-38 -17q-38 -26 -57 -49l-30 -34l20 92h-135z" />
    <glyph glyph-name="s" unicode="s" 
d="M66 170l-2 -17l-3 -24q0 -48 33 -81q31 -34 85 -48t112 -14q69 0 133 30q63 29 99 81q36 53 36 116q0 31 -24 55q-26 23 -70 39q-23 8 -82 21q-62 14 -87 25q-28 10 -28 34t29 39t66 15q36 0 59 -14t23 -42l-2 -14h139l2 31q0 63 -44 105q-43 42 -149 42q-120 0 -186 -45
q-68 -46 -78 -133l-1 -21q0 -85 87 -120q28 -10 83 -22q63 -14 88 -27q26 -14 26 -38q-6 -23 -38 -37q-23 -9 -37 -12q-13 -4 -36 -4q-90 0 -90 80h-143z" />
    <glyph glyph-name="t" unicode="t" horiz-adv-x="332" 
d="M111 143q-5 -22 -7 -43q-1 -5 -2 -11q-1 -14 -2 -21q0 -45 38 -59q36 -13 100 -13l71 2l23 106l-47 -4q-17 0 -26 9q-9 6 -9 26l64 299h86l22 99h-86l29 145h-138l-32 -145h-72l-21 -99h72z" />
    <glyph glyph-name="u" unicode="u" horiz-adv-x="611" 
d="M105 189l-5 -33l-4 -35q0 -135 146 -135q59 0 101 22q43 23 85 68l-16 -76h135l113 533h-142l-69 -320q-9 -48 -50 -78q-40 -31 -85 -31q-27 0 -47 18q-20 17 -20 52l3 29l68 330h-138z" />
    <glyph glyph-name="v" unicode="v" 
d="M205 0h147l304 533h-148l-199 -396l-28 396h-156z" />
    <glyph glyph-name="w" unicode="w" horiz-adv-x="777" 
d="M160 0h145l166 393l2 -393h148l262 533h-145l-166 -387v387h-140l-159 -387l-2 387h-148z" />
    <glyph glyph-name="x" unicode="x" 
d="M16 0h168l127 160l56 -160h174l-123 271l230 262h-164l-121 -156l-58 156h-170l119 -262z" />
    <glyph glyph-name="y" unicode="y" 
d="M201 -21q-16 -47 -39 -63q-22 -18 -60 -18l-18 1l-18 1l-25 -111l47 -1l41 -1q37 0 65 9t53 36q29 30 58 82l347 619h-148l-193 -396l-34 396h-154z" />
    <glyph glyph-name="z" unicode="z" horiz-adv-x="500" 
d="M43 109l-23 -109h460l24 115h-279l334 301l25 117h-432l-25 -111h256z" />
    <glyph glyph-name="braceleft" unicode="{" horiz-adv-x="389" 
d="M172 141l-45 -205l-2 -13l-2 -13q0 -105 148 -105h51l20 90h-33q-28 0 -42 9q-15 7 -15 33l18 78l19 85q6 35 6 68q0 84 -90 94v4q50 7 82 30t45 53q11 25 26 89l15 68l12 59q6 32 21 51q13 19 45 19h51l16 88l-42 1q-77 0 -119 -19q-43 -19 -69 -68q-12 -22 -23 -59
t-17 -76q-12 -79 -26 -119q-15 -39 -38 -53q-23 -13 -69 -21l-21 -92q78 0 78 -61v-15z" />
    <glyph glyph-name="bar" unicode="|" horiz-adv-x="279" 
d="M80 -18h115l159 756h-112z" />
    <glyph glyph-name="braceright" unicode="}" horiz-adv-x="389" 
d="M0 -104l-18 -89l57 -4q53 0 95 18q39 16 66 46q25 29 32 69l23 103l17 79q7 30 11 36q17 37 41 50q25 13 65 13l17 94q-28 0 -54 14t-26 46l2 18l43 201l2 29q0 57 -42 81q-44 23 -104 23h-51l-18 -88h53q37 0 37 -41q0 -46 -11 -101q-10 -52 -36 -141q0 -16 7 -29
q6 -13 18 -27q22 -25 67 -32q-46 -9 -82 -36q-36 -26 -50 -61q-13 -34 -21 -83l-15 -94q-11 -54 -30 -76q-20 -23 -56 -23q-14 0 -39 5z" />
    <glyph glyph-name="asciitilde" unicode="~" horiz-adv-x="584" 
d="M115 256l18 -92q23 40 45 56t54 16q11 0 25 -2q10 -1 22 -6l52 -26l51 -25q13 -5 24 -7q10 -2 20 -2l16 2l17 2q41 11 65 30q24 18 52 52l-15 88q-9 -11 -21 -23q-6 -6 -26 -21q-26 -20 -43 -25l-12 -2q-13 0 -34 8l-52 24l-54 25q-12 4 -22 8q-12 2 -18 2l-21 1
q-44 0 -78 -20q-34 -22 -65 -63z" />
    <glyph glyph-name="quotesinglbase" unicode="&#x201a;" horiz-adv-x="277" 
d="M246 146h-150l-32 -146h84q-15 -57 -40 -79t-67 -36l-12 -53q75 16 123 60q49 40 67 128z" />
    <glyph glyph-name="florin" unicode="&#x192;" 
d="M-31 -197q47 -26 97 -26q47 0 91 23q42 22 83 72q40 56 67 136l134 379h141l23 101h-125q29 75 54 107q26 32 58 32q26 0 53 -12l48 117q-56 14 -101 14q-73 0 -119 -34t-75 -87q-12 -22 -30 -62q-16 -36 -30 -75h-133l-23 -101h117l-133 -356q-29 -72 -51 -97
q-23 -26 -47 -26q-9 0 -45 14z" />
    <glyph glyph-name="quotedblbase" unicode="&#x201e;" horiz-adv-x="500" 
d="M297 0h76q-11 -46 -32 -64q-22 -20 -62 -28l-11 -54q144 34 171 162l24 111h-141zM64 0h77q-8 -31 -20 -48q-14 -20 -30 -29q-13 -9 -44 -17l-12 -52q71 16 114 54q43 37 58 110l23 109h-140z" />
    <glyph glyph-name="ellipsis" unicode="&#x2026;" horiz-adv-x="1000" 
d="M758 0h150l31 146h-150zM426 0h150l29 146h-150zM92 0h150l31 146h-150z" />
    <glyph glyph-name="dagger" unicode="&#x2020;" 
d="M627 500h-176l47 219h-135l-47 -219h-173l-26 -111h176l-117 -559h133l119 559h176z" />
    <glyph glyph-name="daggerdbl" unicode="&#x2021;" 
d="M145 510l-24 -112h172l-49 -240h-174l-25 -111h176l-47 -219h135l45 219h175l26 111h-178l51 240h176l23 112h-174l43 209h-133l-45 -209h-173z" />
    <glyph glyph-name="circumflex" unicode="&#x2c6;" horiz-adv-x="332" 
d="M311 688l46 -83h114l-82 147h-125l-147 -147h115z" />
    <glyph glyph-name="perthousand" unicode="&#x2030;" horiz-adv-x="1000" 
d="M143 619q-30 -48 -34 -101q0 -55 37 -89t92 -40q22 0 49 8q29 9 48 20q48 28 76 71t28 92q0 35 -16 64q-15 28 -46 49q-30 18 -64 18q-31 0 -64 -12q-33 -11 -60 -31q-31 -23 -46 -49zM234 588q23 23 53 23q23 0 36 -13t13 -35q0 -31 -23 -51q-22 -21 -53 -24
q-23 4 -35 16q-11 11 -14 31q3 30 23 53zM742 219q-17 -27 -24 -52q-9 -25 -9 -50q0 -34 17 -63q17 -30 47 -47q31 -17 65 -17q36 0 73 15q38 15 66 43q30 28 46 62t16 72q0 32 -17 64q-18 30 -47 48q-31 17 -63 17q-46 0 -95 -25t-75 -67zM832 186q26 23 53 23q23 0 37 -13
q14 -14 14 -34q0 -30 -22 -49q-24 -20 -55 -25q-24 4 -35 15q-4 4 -9 14q-4 7 -4 18q3 33 21 51zM377 219q-17 -26 -24 -50q-9 -25 -9 -52q0 -52 37 -89q37 -38 90 -38q49 0 98 26q49 27 76 71q29 46 29 95q0 34 -16 64t-47 48q-31 17 -64 17q-49 0 -96 -25q-48 -25 -74 -67
zM467 188q23 23 53 23q20 0 36 -14q14 -16 14 -35q0 -31 -22 -50t-54 -24q-24 5 -34 16q-12 11 -15 33q3 32 22 51zM629 711l-553 -731h74l553 731h-74z" />
    <glyph glyph-name="Scaron" unicode="&#x160;" horiz-adv-x="716" 
d="M84 223l-6 -53q0 -31 9 -58q7 -27 24 -50q34 -43 92 -62q60 -20 133 -20q89 0 154 25q37 15 61 30q27 18 48 37q42 42 63 91q20 49 20 93q0 46 -16 74q-12 24 -41 41q-26 17 -55 25l-86 24l-71 18q-69 16 -92 30q-22 13 -22 38q0 56 49 83q51 26 107 26q47 0 81 -24
t34 -85h145l2 43q0 66 -34 109q-34 42 -89 61q-54 19 -119 19q-81 0 -143 -24q-62 -26 -100 -65q-40 -41 -59 -90q-20 -51 -20 -96l3 -35q9 -46 50 -72t97 -41l119 -30q51 -12 81 -28q26 -15 26 -50q-3 -35 -29 -58q-14 -13 -29 -20q-18 -10 -33 -14q-34 -10 -73 -10
q-75 0 -105 27q-31 27 -31 91h-145zM513 840l-46 81h-113l82 -144h124l145 144h-114z" />
    <glyph glyph-name="guilsinglleft" unicode="&#x2039;" horiz-adv-x="332" 
d="M209 281l119 88l26 115l-200 -144l-25 -119l137 -145l25 117z" />
    <glyph glyph-name="OE" unicode="&#x152;" horiz-adv-x="1000" 
d="M645 719l-10 -41q-39 58 -139 58q-44 0 -95 -14q-49 -13 -96 -45q-43 -26 -76 -68q-62 -82 -95 -170q-36 -97 -36 -209q0 -80 31 -136q30 -57 81 -84q50 -28 118 -28q107 0 174 67l-10 -49h471l27 127h-336l41 187h311l25 127h-308l31 151h334l27 127h-470zM594 525
l-67 -320q-5 -26 -26 -47q-19 -21 -52 -35q-33 -16 -62 -16q-62 0 -101 37q-40 37 -40 114q6 64 21 122q13 56 43 113q29 53 72 87q44 33 106 33q49 0 77 -22q29 -23 29 -66z" />
    <glyph glyph-name="quoteleft" unicode="&#x2018;" horiz-adv-x="277" 
d="M189 564l-23 -109h141l25 127h-78q19 75 96 94l11 53q-73 -15 -115 -57q-44 -42 -57 -108z" />
    <glyph glyph-name="quoteright" unicode="&#x2019;" horiz-adv-x="277" 
d="M195 592h78q-7 -21 -13 -33q-10 -18 -16 -25q-20 -23 -66 -38l-10 -51q143 29 174 172l21 102h-140z" />
    <glyph glyph-name="quotedblleft" unicode="&#x201c;" horiz-adv-x="500" 
d="M416 566l-23 -111h140l26 127h-77q8 41 35 64t61 30l10 53q-65 -12 -112 -56q-46 -43 -60 -107zM186 570l-26 -115h141l27 127h-78q20 78 96 94l9 53q-66 -12 -110 -55q-46 -43 -59 -104z" />
    <glyph glyph-name="quotedblright" unicode="&#x201d;" horiz-adv-x="500" 
d="M402 496l-7 -49q64 7 111 50q46 42 58 108l26 114h-141l-27 -127h76q-7 -29 -24 -55q-18 -26 -72 -41zM172 496l-10 -51q144 29 172 164l23 110h-140l-28 -127h77q-7 -32 -25 -56q-16 -25 -69 -40z" />
    <glyph glyph-name="bullet" unicode="&#x2022;" horiz-adv-x="350" 
d="M119 434q-18 -22 -27 -51q-10 -27 -10 -59q0 -30 12 -54q10 -24 33 -44q19 -17 47 -29q27 -11 56 -11q47 0 94 32q47 33 71 80q25 47 25 97q0 35 -20 66q-18 28 -52 46q-30 16 -69 16q-41 0 -86 -23q-44 -24 -74 -66z" />
    <glyph glyph-name="endash" unicode="&#x2013;" horiz-adv-x="1000" 
d="M70 334l-23 -107h4h998l23 107h-4h-998z" />
    <glyph glyph-name="emdash" unicode="&#x2014;" 
d="M70 334l-21 -105h555l23 105h-557z" />
    <glyph glyph-name="tilde" unicode="&#x2dc;" horiz-adv-x="332" 
d="M113 611h63q17 41 54 41q9 0 16 -1q10 -2 11 -3l42 -12l46 -13q2 -1 6 -2q4 0 9 -2h19q41 0 77 36q33 33 52 83h-67q-14 -30 -46 -39q-16 0 -27 4l-41 14l-39 13q-11 4 -22 4q-40 0 -84 -26q-43 -25 -69 -97z" />
    <glyph glyph-name="trademark" unicode="&#x2122;" horiz-adv-x="1000" 
d="M197 719l-17 -84h113l-70 -328h111l72 328h115l18 84h-342zM617 719l-88 -412h106l60 287l41 -287h80l161 285l-61 -285h105l88 412h-152l-148 -250l-39 250h-153z" />
    <glyph glyph-name="scaron" unicode="&#x161;" horiz-adv-x="590" 
d="M66 170l-2 -17l-3 -24q0 -48 33 -81q31 -34 85 -48t112 -14q69 0 133 30q64 28 100 81q35 52 35 116q-6 63 -94 94q-23 8 -82 21q-62 14 -87 25q-28 10 -28 34t29 39t66 15q36 0 59 -14t23 -42l-2 -14h139l1 31q0 64 -43 105q-43 42 -149 42q-120 0 -186 -45
q-68 -46 -78 -133l-1 -21q0 -85 87 -120q29 -10 82 -22q61 -13 88 -27q27 -13 27 -38q-6 -23 -38 -37q-23 -9 -37 -12q-13 -4 -36 -4q-90 0 -90 80h-143zM423 657l-46 81h-113l82 -144h124l146 144h-114z" />
    <glyph glyph-name="guilsinglright" unicode="&#x203a;" horiz-adv-x="332" 
d="M244 281l-119 -88l-27 -117l201 145l23 119l-136 146l-24 -119z" />
    <glyph glyph-name="oe" unicode="&#x153;" horiz-adv-x="943" 
d="M596 229h365q16 66 16 121q0 126 -92 173q-45 24 -106 24q-106 0 -191 -82q-15 25 -41 45q-24 19 -59 28q-34 9 -72 9q-43 0 -87 -12q-14 -4 -40 -14l-5 -2q-24 -11 -41 -22q-24 -15 -39 -28q-16 -13 -33 -32q-33 -36 -52 -85q-21 -50 -30 -89q-9 -37 -9 -75
q0 -67 32 -111q31 -44 82 -66q50 -21 107 -21t114 20q53 19 81 53q15 -35 62 -56t102 -21q53 0 107 18q52 18 98 56t74 96h-142q-39 -60 -109 -60q-23 0 -46 12q-22 10 -36 34q-14 23 -14 52q0 22 4 35zM619 320q16 55 52 83q35 27 77 27q45 0 67 -28q23 -29 23 -82h-219z
M240 287q20 76 64 108q45 33 104 33q42 0 66 -26q24 -25 24 -78q0 -81 -39 -146q-40 -64 -115 -73l-18 -1q-39 0 -68 26t-29 79q0 22 3 40q1 15 8 38z" />
    <glyph glyph-name="Ydieresis" unicode="&#x178;" horiz-adv-x="746" 
d="M264 0h148l59 270l336 449h-170l-209 -313l-82 313h-178l152 -449zM368 882l-25 -115h127l23 115h-125zM688 882h-127l-23 -115h125z" />
    <glyph glyph-name="exclamdown" unicode="&#xa1;" horiz-adv-x="332" 
d="M201 334l-111 -334l-39 -186h152l39 186l33 334h-74zM207 533l-29 -140h144l32 140h-147z" />
    <glyph glyph-name="cent" unicode="&#xa2;" 
d="M281 104l155 308q19 -34 19 -70h145v25q0 133 -106 164l51 98h-55l-41 -84l-44 2q-75 0 -129 -25q-55 -25 -96 -72q-39 -44 -65 -108q-18 -45 -27 -87q-10 -41 -10 -79q0 -66 27 -110q25 -43 75 -66l-59 -117h53l53 107l18 -1l28 -1q31 0 76 8q40 10 80 31q42 23 77 63
q36 42 58 103h-142q-10 -27 -30 -50q-20 -21 -41 -31q-12 -5 -22 -8q-9 -4 -26 -4zM242 129q-5 8 -11 28q-4 15 -4 42q0 40 9 76q9 35 24 67q20 41 54 63q35 23 79 23z" />
    <glyph glyph-name="sterling" unicode="&#xa3;" 
d="M168 381h-61l-13 -59h95l4 -51q0 -40 -17 -73q-16 -31 -47 -58q-29 -25 -80 -54l35 -96q69 35 117 35l27 -2l24 -6l22 -9l19 -8q39 -14 90 -14q94 0 164 43l-18 110q-68 -35 -107 -35q-4 0 -15 3q-6 1 -22 5l-6 2l-42 10l-32 3q-54 0 -129 -25q42 22 75 55q35 35 54 75
t19 90h119l14 59h-144l-7 35l-10 39l-5 35q0 30 19 61q20 28 48 41q27 13 62 13q81 0 81 -85l-3 -32h131q6 30 6 59q0 81 -50 126q-49 45 -144 45h-11l-12 -1q-28 0 -57 -6q-28 -7 -54 -18q-48 -21 -82 -52q-35 -32 -53 -72q-13 -25 -16 -40q-6 -19 -6 -41l-2 -13
q0 -18 6 -44q5 -21 14 -50z" />
    <glyph glyph-name="currency" unicode="&#xa4;" 
d="M195 473q-30 -39 -46 -81q-16 -39 -16 -83q0 -18 4 -34q2 -7 3 -13q3 -15 5 -22l-118 -97l51 -67l119 98q26 -17 52 -24q27 -9 60 -9q34 0 64 10q31 9 59 25l78 -100l80 67l-78 97q30 38 46 80t16 84q0 34 -11 69l117 97l-51 67l-119 -98q-43 31 -112 31t-123 -33
l-78 100l-78 -67zM279 418q44 51 96 51q24 0 44 -11q12 -6 18 -12q5 -6 13 -19q11 -20 11 -44q0 -54 -39 -95q-22 -22 -45 -32q-24 -12 -51 -12l-39 10q-39 21 -39 76q0 25 8 47q7 19 23 41z" />
    <glyph glyph-name="yen" unicode="&#xa5;" 
d="M232 406h-130l-14 -60h164l23 -75h-203l-13 -60h205l-47 -211h129l45 211h203l13 60h-205l55 75h166l12 60h-135l215 293h-145l-199 -295l-82 295h-150z" />
    <glyph glyph-name="brokenbar" unicode="&#xa6;" horiz-adv-x="346" 
d="M252 740l-197 -945h78l197 945h-78z" />
    <glyph glyph-name="section" unicode="&#xa7;" 
d="M221 434q-50 -28 -76 -51q-27 -24 -41 -65q-6 -16 -10 -33q-4 -12 -4 -33q0 -29 13 -51q12 -22 34 -37q21 -16 33 -23l8 -4q16 -10 26 -16l61 -35l57 -31q33 -18 33 -53q0 -32 -27 -56q-28 -24 -60 -24q-30 0 -51 15q-22 15 -22 48l2 19h-134l-2 -29q0 -82 50 -120
q50 -39 139 -39q28 0 50 6q17 3 46 16q44 18 79 52q32 32 50 71q17 40 17 78q0 61 -37 98q24 7 55 32q29 23 52 61q22 37 22 77q0 35 -18 62q-17 25 -44 45q-12 9 -27 18q-20 12 -36 20l-47 27l-37 21q-24 11 -36 21q-12 9 -17 24q0 33 27 55q26 21 61 21q59 0 59 -76h127
l1 18l1 19q0 44 -15 75q-16 31 -50 51q-18 10 -40 16q-25 5 -46 5q-72 0 -131 -30q-60 -32 -93 -80q-35 -50 -35 -99q0 -48 33 -86zM275 385l135 -76q41 -23 41 -57q0 -23 -17 -43q-19 -20 -43 -29l-147 91q-20 14 -23 40q0 15 7 28l9 15q14 21 38 31z" />
    <glyph glyph-name="dieresis" unicode="&#xa8;" horiz-adv-x="332" 
d="M162 730l-25 -115h127l23 115h-125zM482 730h-127l-23 -115h125z" />
    <glyph glyph-name="copyright" unicode="&#xa9;" horiz-adv-x="736" 
d="M826 361q10 47 10 88q0 90 -40 155t-111 100q-69 34 -160 34q-78 0 -149 -25q-73 -25 -138 -75q-66 -51 -109 -120q-45 -71 -63 -157q-10 -56 -10 -64q-1 -5 -1 -27q0 -89 41 -154q42 -66 112 -100q39 -19 75 -26q40 -8 82 -8q73 0 149 26q74 26 137 75q61 47 109 119
q47 71 66 159zM717 361q-5 -28 -15 -53q-14 -34 -22 -50q-26 -48 -63 -86q-17 -17 -39 -34q-16 -13 -42 -28q-44 -26 -91 -36l-68 -8q-63 0 -109 28q-49 29 -74 78q-26 51 -26 117l8 72q12 66 44 119q30 51 76 90q48 41 102 60q54 20 110 20q47 0 87 -15q39 -15 67 -43
q29 -29 45 -68t16 -92q0 -35 -6 -71zM537 303q-11 -36 -39 -52q-29 -17 -64 -17t-58 27q-24 26 -24 67q9 65 41 116q32 48 93 48q38 0 58 -16q20 -17 20 -48h86q0 77 -39 114q-39 38 -105 38q-59 0 -103 -22q-48 -23 -78 -59q-34 -39 -53 -85q-20 -51 -26 -105q0 -37 12 -66
q10 -27 35 -52q47 -45 123 -45q46 0 85 19q41 18 75 54q33 35 51 84h-90z" />
    <glyph glyph-name="ordfeminine" unicode="&#xaa;" horiz-adv-x="369" 
d="M109 357l-17 -80h301l17 80h-301zM168 627h88q3 21 22 31t44 10t38 -7t13 -18q0 -17 -11 -25q-12 -9 -26 -10l-70 -6q-41 -4 -75 -22q-30 -16 -49 -46q-19 -28 -19 -59l6 -28q14 -47 82 -47q36 0 66 13q34 13 59 34l-4 -27q1 -4 6 -10h96l4 12l-12 10q-3 6 -4 13l3 15
l2 14l3 18l35 160v16q0 70 -121 70q-40 0 -75 -9q-37 -11 -61 -34q-27 -25 -40 -68zM357 566l-5 -37q-5 -29 -35 -48q-32 -20 -59 -20q-37 0 -37 29q0 31 20 42q21 11 60 17q38 6 56 17z" />
    <glyph glyph-name="guillemotleft" unicode="&#xab;" 
d="M428 281l119 88l23 115l-197 -142l-25 -121l136 -145l26 115zM215 281l117 86l27 117l-201 -144l-23 -121l136 -143l24 117z" />
    <glyph glyph-name="logicalnot" unicode="&#xac;" horiz-adv-x="584" 
d="M129 420l-24 -111h393l-43 -200h111l67 311h-504z" />
    <glyph glyph-name="registered" unicode="&#xae;" horiz-adv-x="736" 
d="M84 428q-13 -42 -21 -82t-8 -75q0 -117 75 -200q38 -43 96 -67q56 -24 128 -24l12 -1h11q89 0 169 37q82 38 146 102q65 65 102 147q36 81 36 169q0 54 -14 108q-14 51 -50 97q-36 45 -95 72q-58 27 -144 27q-81 0 -152 -25t-129 -68q-59 -44 -99 -100q-42 -57 -63 -117z
M195 424q20 52 51 91q28 38 69 71q39 32 87 48q48 17 95 17l23 -1q58 0 111 -35q48 -32 70 -81q22 -48 22 -106q0 -64 -25 -126q-26 -65 -71 -116q-48 -54 -107 -85q-61 -32 -124 -32l-25 1q-71 7 -118 39q-45 31 -65 75q-22 46 -22 99q0 33 8 68q7 31 21 73zM338 564
l-86 -408h86l39 172h41l57 -172h103l-68 178q56 0 90 42q35 41 35 97q0 42 -31 66q-28 25 -96 25h-170zM391 396l21 100h63q66 0 66 -39q0 -25 -18 -43t-43 -18h-89z" />
    <glyph glyph-name="degree" unicode="&#xb0;" horiz-adv-x="328" 
d="M159 797q-8 -19 -8 -38q0 -30 20 -52q19 -22 62 -22q30 0 50 10q21 9 42 26q19 16 28 39q10 20 10 47q0 12 -5 29q-4 14 -15 25t-25 15q-18 5 -36 5q-32 0 -57 -12q-26 -12 -42 -30q-17 -19 -24 -42zM209 784q13 55 66 55q18 0 25 -10q8 -11 8 -26q0 -21 -7 -36
q-7 -18 -22 -29q-14 -12 -34 -12q-38 0 -38 35z" />
    <glyph glyph-name="plusminus" unicode="&#xb1;" horiz-adv-x="584" 
d="M316 381h-195l-23 -111h195l-27 -127h113l25 127h198l23 111h-195l27 127h-113zM39 0h506l23 113h-504z" />
    <glyph glyph-name="twosuperior" unicode="&#xb2;" horiz-adv-x="562" 
d="M143 0h152l151 719h-149zM134 774h110l178 106l62 -106h112l-102 151h-99z" />
    <glyph glyph-name="threesuperior" unicode="&#xb3;" horiz-adv-x="792" 
d="M123 244q-5 -19 -6 -36q0 -4 -2 -14q-1 -14 -2 -24q0 -76 41 -117q42 -42 94 -55q15 -4 36 -9l6 -1q35 -6 77 -6q65 0 126 20q29 11 54 24q16 9 46 31q41 33 68 77q28 45 38 93l106 492h-155l-103 -492q-8 -33 -26 -56q-19 -25 -53 -45q-16 -9 -37 -14q-20 -5 -40 -5
q-54 0 -85 25q-35 24 -35 73l2 17l2 16l104 481h-154zM291 770h109l178 106l62 -106h112l-102 151h-99z" />
    <glyph glyph-name="acute" unicode="&#xb4;" horiz-adv-x="1036" 
d="M221 0h142l221 545v-545h145l353 719h-152l-227 -512l2 512h-160l-215 -524v524h-160zM645 858l46 -83h114l-82 147h-125l-147 -147h115z" />
    <glyph glyph-name="mu" unicode="&#xb5;" horiz-adv-x="744" 
d="M264 0h148l59 270l336 449h-170l-209 -313l-82 313h-178l152 -449zM517 860l46 -83h114l-82 147h-125l-147 -147h115z" />
    <glyph glyph-name="paragraph" unicode="&#xb6;" horiz-adv-x="436" 
d="M168 0h143l111 533h-140zM89 588h109l178 106l62 -106h112l-102 151h-99z" />
    <glyph glyph-name="periodcentered" unicode="&#xb7;" horiz-adv-x="660" 
d="M105 189l-5 -33l-4 -35q0 -135 146 -135q59 0 101 22q43 23 85 68l-16 -76h135l113 533h-142l-69 -320q-9 -48 -50 -78q-40 -31 -85 -31q-27 0 -47 18q-20 17 -20 52l3 29l68 330h-138zM201 588h109l178 106l62 -106h112l-102 151h-99z" />
    <glyph glyph-name="periodcentered" unicode="&#x2219;" horiz-adv-x="660" 
d="M105 189l-5 -33l-4 -35q0 -135 146 -135q59 0 101 22q43 23 85 68l-16 -76h135l113 533h-142l-69 -320q-9 -48 -50 -78q-40 -31 -85 -31q-27 0 -47 18q-20 17 -20 52l3 29l68 330h-138zM201 588h109l178 106l62 -106h112l-102 151h-99z" />
    <glyph glyph-name="cedilla" unicode="&#xb8;" horiz-adv-x="852" 
d="M160 0h145l166 393l2 -393h148l262 533h-145l-166 -387v387h-140l-159 -387l-2 387h-148zM519 676l46 -83h114l-82 147h-125l-147 -147h115z" />
    <glyph glyph-name="onesuperior" unicode="&#xb9;" horiz-adv-x="622" 
d="M201 -21q-16 -47 -39 -63q-22 -18 -60 -18l-18 1l-18 1l-25 -111l47 -1l41 -1q37 0 65 9t53 36q29 30 58 82l347 619h-148l-193 -396l-34 396h-154zM409 676l46 -83h114l-82 147h-125l-147 -147h115z" />
    <glyph glyph-name="ordmasculine" unicode="&#xba;" horiz-adv-x="365" 
d="M109 357l-17 -80h301l15 80h-299zM141 607q-11 -23 -14 -38q-6 -19 -6 -38q0 -37 20 -66q19 -29 54 -46q36 -17 76 -17q32 0 56 7q23 7 50 21q50 29 79 76q28 46 28 103q0 40 -20 71q-21 30 -55 43q-34 15 -73 15q-37 0 -77 -14q-33 -13 -66 -43q-33 -31 -52 -74z
M229 584q14 44 38 62q26 20 51 20q30 0 49 -18q18 -18 18 -48q0 -50 -28 -88q-28 -39 -76 -39l-11 2q-20 5 -34 23q-15 18 -15 45q2 14 3 20q0 3 4 15q0 3 1 6z" />
    <glyph glyph-name="guillemotright" unicode="&#xbb;" 
d="M461 281l-119 -90l-24 -113l198 143l25 119l-137 146l-25 -117zM246 281l-117 -88l-25 -117l199 145l25 119l-137 142l-25 -113z" />
    <glyph glyph-name="onequarter" unicode="&#xbc;" horiz-adv-x="834" 
d="M807 426h-108l-226 -262l-16 -74h184l-20 -90h96l19 90h49l16 70h-51zM543 158l156 184l-15 -67l-26 -117h-115zM131 -18h80l582 729h-78zM148 574h110l-63 -291h102l92 428h-86q-13 -32 -29 -48q-17 -17 -43 -21q-30 -5 -71 -5z" />
    <glyph glyph-name="onehalf" unicode="&#xbd;" horiz-adv-x="834" 
d="M631 275q8 30 25 52q17 21 57 21q51 0 51 -41q0 -24 -14 -44q-17 -21 -37 -36q-16 -12 -22 -16q-2 -2 -23 -13l-47 -26q-52 -31 -81 -60q-28 -28 -39 -52q-13 -31 -22 -60h316l16 82h-184q10 13 29 24l78 44q123 74 123 172q0 49 -35 78q-35 28 -95 28q-53 0 -109 -30
q-55 -31 -75 -123h88zM148 574h110l-63 -291h102l92 428h-86q-13 -32 -29 -48q-17 -17 -43 -21q-30 -5 -71 -5zM131 -18h80l582 729h-78z" />
    <glyph glyph-name="threequarters" unicode="&#xbe;" horiz-adv-x="834" 
d="M236 469q36 0 63 -8q25 -7 25 -37q0 -34 -22 -55t-58 -21q-51 0 -55 43l4 23h-89l-3 -19l-3 -20q0 -59 45 -82q42 -22 89 -22q44 0 90 21q46 22 74 58q28 35 28 82q0 35 -18 54t-35 24q37 14 56 43q20 29 20 66q0 48 -34 70t-83 22q-77 0 -124 -38q-47 -37 -60 -99h84
q15 61 77 61q43 0 43 -35t-24 -52q-14 -10 -29 -14q-17 -5 -33 -5l-14 2zM176 -20h80l582 731h-78zM840 426h-108l-226 -262l-16 -74h184l-20 -90h96l20 90h48l16 70h-51zM576 160l153 180l-41 -180h-112z" />
    <glyph glyph-name="questiondown" unicode="&#xbf;" horiz-adv-x="611" 
d="M305 324q-5 -41 -22 -66t-47 -45l-68 -45q-50 -35 -80 -78q-19 -25 -26 -51q-9 -28 -9 -66l-2 -8q0 -53 30 -89q27 -36 79 -53q51 -17 113 -17h11l11 1q29 0 60 9q29 7 58 23q59 33 95 83q38 52 51 117h-141q-31 -115 -131 -115q-35 0 -58 21q-24 19 -24 55q0 64 80 117
l47 31q31 21 47 40q21 21 36 54q16 33 23 82h-133zM340 533l-29 -140h146l29 140h-146z" />
    <glyph glyph-name="Agrave" unicode="&#xc0;" horiz-adv-x="723" 
d="M20 0h158l80 148h267l14 -148h164l-101 719h-172zM326 273l154 288l30 -288h-184zM484 769h102l-65 147h-152z" />
    <glyph glyph-name="Aacute" unicode="&#xc1;" horiz-adv-x="723" 
d="M20 0h158l80 148h267l14 -148h164l-101 719h-172zM326 273l154 288l30 -288h-184zM578 916l-125 -147h100l180 147h-155z" />
    <glyph glyph-name="Acircumflex" unicode="&#xc2;" horiz-adv-x="723" 
d="M20 0h158l80 148h267l14 -148h164l-101 719h-172zM326 273l154 288l30 -288h-184zM528 852l46 -83h114l-82 147h-125l-147 -147h115z" />
    <glyph glyph-name="Atilde" unicode="&#xc3;" horiz-adv-x="723" 
d="M20 0h158l80 148h267l14 -148h164l-101 719h-172zM326 273l154 288l30 -288h-184zM330 775h63q17 41 54 41q9 0 16 -1q10 -2 11 -3l42 -12l46 -13q2 -1 6 -2q4 0 9 -2h19q41 0 77 36q33 33 52 83h-67q-14 -30 -46 -39q-16 0 -27 4l-41 14l-39 13q-11 4 -22 4
q-40 0 -84 -26q-43 -25 -69 -97z" />
    <glyph glyph-name="Adieresis" unicode="&#xc4;" horiz-adv-x="723" 
d="M20 0h158l80 148h267l14 -148h164l-101 719h-172zM326 273l154 288l30 -288h-184zM379 894l-25 -115h127l23 115h-125zM699 894h-127l-23 -115h125z" />
    <glyph glyph-name="Aring" unicode="&#xc5;" horiz-adv-x="723" 
d="M20 0h158l80 148h267l14 -148h164l-101 719h-172zM326 273l154 288l30 -288h-184zM436 877q-17 -28 -20 -59q0 -17 8 -33q8 -17 19 -26q24 -23 61 -27q23 0 48 11q22 10 43 28q42 36 42 84q0 25 -12 44q-14 20 -34 30q-21 10 -44 10q-32 0 -60 -16q-29 -17 -51 -46z
M485 857q20 32 52 32q17 0 30 -11q11 -13 11 -30q0 -28 -19 -44t-47 -21q-18 7 -27 16q-9 8 -12 27q3 18 12 31z" />
    <glyph glyph-name="AE" unicode="&#xc6;" horiz-adv-x="1000" 
d="M420 719l-416 -719h158l86 154h215l-33 -154h525l27 127h-378l41 186h334l25 128h-334l33 151h371l28 127h-682zM311 271l179 321h65l-67 -321h-177z" />
    <glyph glyph-name="Ccedilla" unicode="&#xc7;" horiz-adv-x="723" 
d="M311 -14l-61 -70l16 -20q20 7 39 10q15 0 26 -8q9 -9 9 -19q0 -22 -19 -35q-20 -14 -42 -14q-26 0 -70 16l-31 -47q58 -26 107 -26q34 0 70 14q35 13 57 39q22 23 22 57q0 28 -19 47t-52 19l-35 -6l35 37q103 0 182 44q77 43 123 103q23 29 41 61q17 29 27 58h-152
q-18 -57 -61 -91q-44 -35 -97 -42l-28 -2q-58 0 -97 39q-39 38 -39 116q0 25 5 55q5 27 12 60q9 37 19 61q13 30 25 52q30 51 76 82t109 31q37 0 67 -11q29 -10 45 -39q17 -29 17 -73h150l1 18l1 18q0 47 -16 85t-48 69q-34 31 -83 47q-52 17 -115 17q-39 0 -71 -7
q-27 -6 -72 -22q-69 -26 -124 -81q-58 -56 -98 -144q-27 -58 -41 -123q-16 -65 -16 -115q0 -125 62 -186q60 -60 144 -74z" />
    <glyph glyph-name="Egrave" unicode="&#xc8;" horiz-adv-x="668" 
d="M76 0h545l27 127h-398l41 187h350l27 127h-352l34 151h380l28 127h-529zM469 769h102l-65 147h-152z" />
    <glyph glyph-name="Eacute" unicode="&#xc9;" horiz-adv-x="668" 
d="M76 0h545l27 127h-398l41 187h350l27 127h-352l34 151h380l28 127h-529zM529 906l-125 -147h100l180 147h-155z" />
    <glyph glyph-name="Ecircumflex" unicode="&#xca;" horiz-adv-x="668" 
d="M76 0h545l27 127h-398l41 187h350l27 127h-352l34 151h380l28 127h-529zM512 842l46 -83h114l-82 147h-125l-147 -147h115z" />
    <glyph glyph-name="Edieresis" unicode="&#xcb;" horiz-adv-x="668" 
d="M76 0h545l27 127h-398l41 187h350l27 127h-352l34 151h380l28 127h-529zM363 884l-25 -115h127l23 115h-125zM683 884h-127l-23 -115h125z" />
    <glyph glyph-name="Igrave" unicode="&#xcc;" horiz-adv-x="277" 
d="M64 0h151l152 719h-150zM272 759h102l-65 147h-152z" />
    <glyph glyph-name="Iacute" unicode="&#xcd;" horiz-adv-x="277" 
d="M64 0h151l152 719h-150zM363 922l-125 -147h100l180 147h-155z" />
    <glyph glyph-name="Icircumflex" unicode="&#xce;" horiz-adv-x="277" 
d="M64 0h151l152 719h-150zM313 858l46 -83h114l-82 147h-125l-147 -147h115z" />
    <glyph glyph-name="Idieresis" unicode="&#xcf;" horiz-adv-x="277" 
d="M64 0h151l152 719h-150zM164 900l-25 -115h127l23 115h-125zM484 900h-127l-23 -115h125z" />
    <glyph glyph-name="Eth" unicode="&#xd0;" horiz-adv-x="723" 
d="M143 316l-67 -316h311q89 0 162 43q72 41 124 113q50 71 77 158t27 170q0 106 -52 170q-53 65 -178 65h-318l-59 -278h-82l-25 -125h80zM350 596h144q33 0 60 -9q26 -9 46 -38q19 -29 19 -88q0 -75 -24 -152q-12 -40 -30 -72q-18 -31 -44 -59q-51 -53 -126 -53h-147
l41 191h168l25 125h-166z" />
    <glyph glyph-name="Ntilde" unicode="&#xd1;" horiz-adv-x="723" 
d="M68 0h141l109 516l186 -516h150l153 719h-139l-107 -506l-182 506h-156zM347 781h63q17 41 54 41q9 0 16 -1q10 -2 11 -3l42 -12l46 -13q2 -1 6 -2q4 0 9 -2h19q41 0 77 36q33 33 52 83h-67q-14 -30 -46 -39q-16 0 -27 4l-41 14l-39 13q-11 4 -22 4q-40 0 -84 -26
q-43 -25 -69 -97z" />
    <glyph glyph-name="Ograve" unicode="&#xd2;" horiz-adv-x="777" 
d="M115 340q-1 -18 -6 -49q-4 -28 -4 -47q0 -70 26 -128q25 -57 84 -93q35 -20 73 -30q39 -11 87 -11q99 0 182 41t142 110t90 153q31 83 31 175q0 129 -67 202t-228 73q-42 0 -88 -11q-43 -12 -81 -30q-71 -35 -121 -92q-50 -55 -79 -125q-29 -71 -41 -138zM283 410
q20 66 56 112q33 43 80 66q48 23 102 23q75 0 112 -46t37 -126q0 -58 -16 -113q-8 -30 -21 -56q-16 -32 -28 -50q-31 -48 -79 -79q-49 -32 -104 -32q-164 0 -164 162q0 32 7 64q6 35 18 75zM522 775h102l-65 147h-152z" />
    <glyph glyph-name="Oacute" unicode="&#xd3;" horiz-adv-x="777" 
d="M115 340q-1 -18 -6 -49q-4 -28 -4 -47q0 -70 26 -128q25 -57 84 -93q35 -20 73 -30q39 -11 87 -11q99 0 182 41t142 110t90 153q31 83 31 175q0 129 -67 202t-228 73q-42 0 -88 -11q-43 -12 -81 -30q-71 -35 -121 -92q-50 -55 -79 -125q-29 -71 -41 -138zM283 410
q20 66 56 112q33 43 80 66q48 23 102 23q75 0 112 -46t37 -126q0 -58 -16 -113q-8 -30 -21 -56q-16 -32 -28 -50q-31 -48 -79 -79q-49 -32 -104 -32q-164 0 -164 162q0 32 7 64q6 35 18 75zM562 922l-125 -147h100l180 147h-155z" />
    <glyph glyph-name="Ocircumflex" unicode="&#xd4;" horiz-adv-x="777" 
d="M115 340q-1 -18 -6 -49q-4 -28 -4 -47q0 -70 26 -128q25 -57 84 -93q35 -20 73 -30q39 -11 87 -11q99 0 182 41t142 110t90 153q31 83 31 175q0 129 -67 202t-228 73q-42 0 -88 -11q-43 -12 -81 -30q-71 -35 -121 -92q-50 -55 -79 -125q-29 -71 -41 -138zM283 410
q20 66 56 112q33 43 80 66q48 23 102 23q75 0 112 -46t37 -126q0 -58 -16 -113q-8 -30 -21 -56q-16 -32 -28 -50q-31 -48 -79 -79q-49 -32 -104 -32q-164 0 -164 162q0 32 7 64q6 35 18 75zM581 858l46 -83h114l-82 147h-125l-147 -147h115z" />
    <glyph glyph-name="Otilde" unicode="&#xd5;" horiz-adv-x="777" 
d="M115 340q-1 -18 -6 -49q-4 -28 -4 -47q0 -70 26 -128q25 -57 84 -93q35 -20 73 -30q39 -11 87 -11q99 0 182 41t142 110t90 153q31 83 31 175q0 129 -67 202t-228 73q-42 0 -88 -11q-43 -12 -81 -30q-71 -35 -121 -92q-50 -55 -79 -125q-29 -71 -41 -138zM283 410
q20 66 56 112q33 43 80 66q48 23 102 23q75 0 112 -46t37 -126q0 -58 -16 -113q-8 -30 -21 -56q-16 -32 -28 -50q-31 -48 -79 -79q-49 -32 -104 -32q-164 0 -164 162q0 32 7 64q6 35 18 75zM398 781h63q17 41 54 41q9 0 16 -1q10 -2 11 -3l42 -12l46 -13q2 -1 6 -2q4 0 9 -2
h19q41 0 77 36q33 33 52 83h-67q-14 -30 -46 -39q-16 0 -27 4l-41 14l-39 13q-11 4 -22 4q-40 0 -84 -26q-43 -25 -69 -97z" />
    <glyph glyph-name="Odieresis" unicode="&#xd6;" horiz-adv-x="777" 
d="M115 340q-1 -18 -6 -49q-4 -28 -4 -47q0 -70 26 -128q25 -57 84 -93q35 -20 73 -30q39 -11 87 -11q99 0 182 41t142 110t90 153q31 83 31 175q0 129 -67 202t-228 73q-42 0 -88 -11q-43 -12 -81 -30q-71 -35 -121 -92q-50 -55 -79 -125q-29 -71 -41 -138zM283 410
q20 66 56 112q33 43 80 66q48 23 102 23q75 0 112 -46t37 -126q0 -58 -16 -113q-8 -30 -21 -56q-16 -32 -28 -50q-31 -48 -79 -79q-49 -32 -104 -32q-164 0 -164 162q0 32 7 64q6 35 18 75zM447 900l-25 -115h127l23 115h-125zM767 900h-127l-23 -115h125z" />
    <glyph glyph-name="multiply" unicode="&#xd7;" horiz-adv-x="590" 
d="M341 386l-152 124l-92 -73l153 -124l-158 -126l89 -72l156 126l153 -124l90 74l-153 124l158 126l-86 70z" />
    <glyph glyph-name="Oslash" unicode="&#xd8;" horiz-adv-x="777" 
d="M760 656q-23 23 -40 34q-27 16 -52 25q-57 21 -127 21q-40 0 -82 -9q-43 -9 -87 -27q-22 -10 -42 -21q-10 -6 -30 -19q-9 -7 -11 -8q-45 -34 -77 -78q-34 -46 -57 -102q-22 -55 -36 -116q-14 -64 -14 -110q0 -47 9 -82q10 -36 25 -59l-104 -93l33 -39l102 90
q81 -81 213 -81q84 0 168 35q83 35 140 96q39 43 69 107q30 61 45 127q15 65 15 128q0 89 -29 142l104 90l-34 39zM268 219l-6 62q0 79 31 153q30 75 89 125t138 50t123 -56zM289 168l373 334q8 -24 8 -59q0 -79 -30 -156q-32 -78 -92 -128q-61 -52 -138 -52q-79 0 -121 61z
" />
    <glyph glyph-name="Ugrave" unicode="&#xd9;" horiz-adv-x="723" 
d="M123 244q-5 -19 -6 -36q0 -4 -2 -14q-1 -14 -2 -24q0 -76 41 -117q42 -42 94 -55q15 -4 36 -9l6 -1q35 -6 77 -6q65 0 126 20q29 11 54 24q16 9 46 31q41 33 68 77q28 45 38 93l106 492h-155l-103 -492q-8 -33 -26 -56q-19 -25 -53 -45q-16 -9 -37 -14q-20 -5 -40 -5
q-54 0 -85 25q-35 24 -35 73l2 17l2 16l104 481h-154zM504 775h102l-65 147h-152z" />
    <glyph glyph-name="Uacute" unicode="&#xda;" horiz-adv-x="723" 
d="M123 244q-5 -19 -6 -36q0 -4 -2 -14q-1 -14 -2 -24q0 -76 41 -117q42 -42 94 -55q15 -4 36 -9l6 -1q35 -6 77 -6q65 0 126 20q29 11 54 24q16 9 46 31q41 33 68 77q28 45 38 93l106 492h-155l-103 -492q-8 -33 -26 -56q-19 -25 -53 -45q-16 -9 -37 -14q-20 -5 -40 -5
q-54 0 -85 25q-35 24 -35 73l2 17l2 16l104 481h-154zM547 922l-125 -147h100l180 147h-155z" />
    <glyph glyph-name="Ucircumflex" unicode="&#xdb;" horiz-adv-x="723" 
d="M123 244q-5 -19 -6 -36q0 -4 -2 -14q-1 -14 -2 -24q0 -76 41 -117q42 -42 94 -55q15 -4 36 -9l6 -1q35 -6 77 -6q65 0 126 20q29 11 54 24q16 9 46 31q41 33 68 77q28 45 38 93l106 492h-155l-103 -492q-8 -33 -26 -56q-19 -25 -53 -45q-16 -9 -37 -14q-20 -5 -40 -5
q-54 0 -85 25q-35 24 -35 73l2 17l2 16l104 481h-154zM545 858l46 -83h114l-82 147h-125l-147 -147h115z" />
    <glyph glyph-name="Udieresis" unicode="&#xdc;" horiz-adv-x="723" 
d="M123 244q-5 -19 -6 -36q0 -4 -2 -14q-1 -14 -2 -24q0 -76 41 -117q42 -42 94 -55q15 -4 36 -9l6 -1q35 -6 77 -6q65 0 126 20q29 11 54 24q16 9 46 31q41 33 68 77q28 45 38 93l106 492h-155l-103 -492q-8 -33 -26 -56q-19 -25 -53 -45q-16 -9 -37 -14q-20 -5 -40 -5
q-54 0 -85 25q-35 24 -35 73l2 17l2 16l104 481h-154zM396 900l-25 -115h127l23 115h-125zM716 900h-127l-23 -115h125z" />
    <glyph glyph-name="Yacute" unicode="&#xdd;" horiz-adv-x="668" 
d="M264 0h148l59 270l336 449h-170l-209 -313l-82 313h-178l152 -449zM595 922l-125 -147h100l180 147h-155z" />
    <glyph glyph-name="Thorn" unicode="&#xde;" horiz-adv-x="668" 
d="M76 0h151l33 160h172q55 0 109 23q51 23 92 65q39 39 61 94q21 53 21 109q0 81 -46 125q-46 45 -132 45h-180l22 98h-150zM285 283l45 213h119q57 0 86 -17q28 -16 28 -53q0 -62 -37 -102q-38 -41 -100 -41h-141z" />
    <glyph glyph-name="germandbls" unicode="&#xdf;" horiz-adv-x="611" 
d="M381 445l-22 -97q37 0 62 -6q23 -6 39 -17q28 -21 28 -63v-24q-7 -55 -32 -84q-24 -30 -59 -41q-36 -12 -75 -12l-10 1h-11l-24 -110q33 -6 65 -6q75 0 143 41t108 108t40 146q0 100 -82 131q36 16 61 44q23 28 35 60q11 33 11 62q0 37 -14 71q-16 32 -39 46
q-58 37 -152 37q-45 0 -89 -12q-21 -4 -42 -14q-13 -6 -39 -20q-37 -23 -62 -57q-26 -37 -35 -82l-118 -547h143l109 527q21 90 116 90q36 0 59 -17q21 -16 21 -47q0 -25 -26 -69q-25 -39 -109 -39z" />
    <glyph glyph-name="agrave" unicode="&#xe0;" 
d="M63 154l-8 -52q0 -58 42 -87q41 -29 96 -29q56 0 97 20q39 19 85 57l-2 -36l2 -13l2 -14h150l4 21q-21 11 -21 36l1 8l2 8l1 8l2 11l64 306l2 28q0 59 -51 90q-52 31 -148 31q-40 0 -70 -6q-29 -6 -58 -18q-51 -23 -82 -62q-33 -42 -50 -100h135q19 73 101 73
q79 0 79 -43q0 -34 -26 -49q-23 -15 -67 -20l-68 -6q-61 -7 -108 -30q-45 -23 -71 -58q-16 -24 -22 -36q-8 -16 -13 -38zM223 191q21 24 39 29l73 14q58 10 81 26l-11 -43q-6 -29 -15 -49q-9 -19 -29 -39q-29 -24 -53 -34q-27 -11 -56 -11q-25 8 -39 18q-13 10 -16 35
q3 31 26 54zM404 591h102l-65 147h-152z" />
    <glyph glyph-name="aacute" unicode="&#xe1;" 
d="M63 154l-8 -52q0 -58 42 -87q41 -29 96 -29q56 0 97 20q39 19 85 57l-2 -36l2 -13l2 -14h150l4 21q-21 11 -21 36l1 8l2 8l1 8l2 11l64 306l2 28q0 59 -51 90q-52 31 -148 31q-40 0 -70 -6q-29 -6 -58 -18q-51 -23 -82 -62q-33 -42 -50 -100h135q19 73 101 73
q79 0 79 -43q0 -34 -26 -49q-23 -15 -67 -20l-68 -6q-61 -7 -108 -30q-45 -23 -71 -58q-16 -24 -22 -36q-8 -16 -13 -38zM223 191q21 24 39 29l73 14q58 10 81 26l-11 -43q-6 -29 -15 -49q-9 -19 -29 -39q-29 -24 -53 -34q-27 -11 -56 -11q-25 8 -39 18q-13 10 -16 35
q3 31 26 54zM429 738l-125 -147h100l180 147h-155z" />
    <glyph glyph-name="acircumflex" unicode="&#xe2;" 
d="M63 154l-8 -52q0 -58 42 -87q41 -29 96 -29q56 0 97 20q39 19 85 57l-2 -36l2 -13l2 -14h150l4 21q-21 11 -21 36l1 8l2 8l1 8l2 11l64 306l2 28q0 59 -51 90q-52 31 -148 31q-40 0 -70 -6q-29 -6 -58 -18q-51 -23 -82 -62q-33 -42 -50 -100h135q19 73 101 73
q79 0 79 -43q0 -34 -26 -49q-23 -15 -67 -20l-68 -6q-61 -7 -108 -30q-45 -23 -71 -58q-16 -24 -22 -36q-8 -16 -13 -38zM223 191q21 24 39 29l73 14q58 10 81 26l-11 -43q-6 -29 -15 -49q-9 -19 -29 -39q-29 -24 -53 -34q-27 -11 -56 -11q-25 8 -39 18q-13 10 -16 35
q3 31 26 54zM413 674l46 -83h114l-82 147h-125l-147 -147h115z" />
    <glyph glyph-name="atilde" unicode="&#xe3;" 
d="M63 154l-8 -52q0 -58 42 -87q41 -29 96 -29q56 0 97 20q39 19 85 57l-2 -36l2 -13l2 -14h150l4 21q-21 11 -21 36l1 8l2 8l1 8l2 11l64 306l2 28q0 59 -51 90q-52 31 -148 31q-40 0 -70 -6q-29 -6 -58 -18q-51 -23 -82 -62q-33 -42 -50 -100h135q19 73 101 73
q79 0 79 -43q0 -34 -26 -49q-23 -15 -67 -20l-68 -6q-61 -7 -108 -30q-45 -23 -71 -58q-16 -24 -22 -36q-8 -16 -13 -38zM223 191q21 24 39 29l73 14q58 10 81 26l-11 -43q-6 -29 -15 -49q-9 -19 -29 -39q-29 -24 -53 -34q-27 -11 -56 -11q-25 8 -39 18q-13 10 -16 35
q3 31 26 54zM215 597h63q17 41 54 41q9 0 16 -1q10 -2 11 -3l42 -12l46 -13q2 -1 6 -2q4 0 9 -2h19q41 0 77 36q33 33 52 83h-67q-14 -30 -46 -39q-16 0 -27 4l-41 14l-39 13q-11 4 -22 4q-40 0 -84 -26q-43 -25 -69 -97z" />
    <glyph glyph-name="adieresis" unicode="&#xe4;" 
d="M63 154l-8 -52q0 -58 42 -87q41 -29 96 -29q56 0 97 20q39 19 85 57l-2 -36l2 -13l2 -14h150l4 21q-21 11 -21 36l1 8l2 8l1 8l2 11l64 306l2 28q0 59 -51 90q-52 31 -148 31q-40 0 -70 -6q-29 -6 -58 -18q-51 -23 -82 -62q-33 -42 -50 -100h135q19 73 101 73
q79 0 79 -43q0 -34 -26 -49q-23 -15 -67 -20l-68 -6q-61 -7 -108 -30q-45 -23 -71 -58q-16 -24 -22 -36q-8 -16 -13 -38zM223 191q21 24 39 29l73 14q58 10 81 26l-11 -43q-6 -29 -15 -49q-9 -19 -29 -39q-29 -24 -53 -34q-27 -11 -56 -11q-25 8 -39 18q-13 10 -16 35
q3 31 26 54zM264 716l-25 -115h127l23 115h-125zM584 716h-127l-23 -115h125z" />
    <glyph glyph-name="aring" unicode="&#xe5;" 
d="M63 154l-8 -52q0 -58 42 -87q41 -29 96 -29q56 0 97 20q39 19 85 57l-2 -36l2 -13l2 -14h150l4 21q-21 11 -21 36l1 8l2 8l1 8l2 11l64 306l2 28q0 59 -51 90q-52 31 -148 31q-40 0 -70 -6q-29 -6 -58 -18q-51 -23 -82 -62q-33 -42 -50 -100h135q19 73 101 73
q79 0 79 -43q0 -34 -26 -49q-23 -15 -67 -20l-68 -6q-61 -7 -108 -30q-45 -23 -71 -58q-16 -24 -22 -36q-8 -16 -13 -38zM223 191q21 24 39 29l73 14q58 10 81 26l-11 -43q-6 -29 -15 -49q-9 -19 -29 -39q-29 -24 -53 -34q-27 -11 -56 -11q-25 8 -39 18q-13 10 -16 35
q3 31 26 54zM321 699q-17 -28 -20 -59q0 -17 8 -33q8 -17 19 -26q24 -23 61 -27q23 0 48 11q22 10 43 28q42 36 42 84q0 25 -12 44q-14 20 -34 30q-21 10 -44 10q-32 0 -60 -16q-29 -17 -51 -46zM370 679q20 32 52 32q17 0 30 -11q11 -13 11 -30q0 -28 -19 -44t-47 -21
q-18 7 -27 16q-9 8 -12 27q3 18 12 31z" />
    <glyph glyph-name="ae" unicode="&#xe6;" horiz-adv-x="889" 
d="M906 229q16 55 16 121q0 84 -37 130t-98 59q-28 6 -64 6q-99 0 -164 -59q-23 29 -67 45q-45 16 -101 16q-58 0 -115 -21q-56 -21 -97 -63q-40 -42 -54 -104h137q6 38 33 56q29 17 66 17q32 0 63 -11q29 -11 29 -38q0 -17 -17 -34q-16 -16 -45 -21l-153 -25
q-43 -8 -74 -20q-35 -14 -64 -49q-31 -35 -41 -95l-3 -31q0 -62 44 -92t109 -30t131 26q65 26 94 62q14 -41 61 -64q47 -24 107 -24q54 0 112 20q54 19 103 58q46 39 68 92h-143q-12 -26 -43 -42q-31 -18 -64 -18q-38 0 -67 26t-29 73l4 34h363zM418 260q-4 -45 -25 -85
q-19 -38 -56 -61q-18 -11 -40 -19q-20 -7 -43 -7q-55 0 -55 49q0 48 33 67q34 17 92 25q88 11 94 31zM566 320q39 110 129 110q44 0 66 -22t22 -64l-1 -12l-1 -12h-215z" />
    <glyph glyph-name="ccedilla" unicode="&#xe7;" 
d="M82 119q12 -53 50 -88q36 -33 98 -41l-64 -72l18 -22l35 8q37 0 37 -27q0 -19 -17 -33q-16 -12 -40 -12q-36 0 -72 16l-31 -51q49 -24 105 -24q38 0 70 13q34 14 56 40q23 26 23 63q0 26 -18 43q-20 17 -53 17l-15 -2l-16 -2l37 41q78 0 142 38q61 37 95 85q36 48 41 84
h-141q-2 -15 -17 -36q-16 -22 -42 -39q-25 -16 -56 -16q-40 0 -61 24t-21 71q0 30 4 47q3 18 9 43q18 63 54 103q34 40 83 40q43 0 62 -19q18 -19 18 -69h141l1 7q1 10 3 18v18q0 51 -25 88q-25 35 -73 55q-45 19 -106 19q-33 0 -70 -8q-35 -9 -64 -25q-61 -34 -101 -89
q-40 -54 -61 -123q-21 -67 -21 -133z" />
    <glyph glyph-name="egrave" unicode="&#xe8;" 
d="M82 277l-1 -6q-8 -36 -10 -48q-3 -21 -3 -49q0 -87 54 -137q53 -51 171 -51q62 0 121 29q58 33 93 71q38 39 48 70h-143q-11 -25 -39 -41q-32 -17 -64 -17l-43 7q-59 18 -59 92l4 32h365q18 59 18 117q0 56 -20 104q-21 47 -64 72t-110 25q-77 0 -140 -28
q-65 -29 -112 -91q-46 -61 -66 -151zM232 318l19 38q9 20 25 39q14 15 37 26q24 11 56 11q43 0 64 -26q20 -26 20 -64l-1 -12l-1 -12h-219zM387 591h102l-65 147h-152z" />
    <glyph glyph-name="eacute" unicode="&#xe9;" 
d="M82 277l-1 -6q-8 -36 -10 -48q-3 -21 -3 -49q0 -87 54 -137q53 -51 171 -51q62 0 121 29q58 33 93 71q38 39 48 70h-143q-11 -25 -39 -41q-32 -17 -64 -17l-43 7q-59 18 -59 92l4 32h365q18 59 18 117q0 56 -20 104q-21 47 -64 72t-110 25q-77 0 -140 -28
q-65 -29 -112 -91q-46 -61 -66 -151zM232 318l19 38q9 20 25 39q14 15 37 26q24 11 56 11q43 0 64 -26q20 -26 20 -64l-1 -12l-1 -12h-219zM429 738l-125 -147h100l180 147h-155z" />
    <glyph glyph-name="ecircumflex" unicode="&#xea;" 
d="M82 277l-1 -6q-8 -36 -10 -48q-3 -21 -3 -49q0 -87 54 -137q53 -51 171 -51q62 0 121 29q58 33 93 71q38 39 48 70h-143q-11 -25 -39 -41q-32 -17 -64 -17l-43 7q-59 18 -59 92l4 32h365q18 59 18 117q0 56 -20 104q-21 47 -64 72t-110 25q-77 0 -140 -28
q-65 -29 -112 -91q-46 -61 -66 -151zM232 318l19 38q9 20 25 39q14 15 37 26q24 11 56 11q43 0 64 -26q20 -26 20 -64l-1 -12l-1 -12h-219zM413 674l46 -83h114l-82 147h-125l-147 -147h115z" />
    <glyph glyph-name="edieresis" unicode="&#xeb;" 
d="M82 277l-1 -6q-8 -36 -10 -48q-3 -21 -3 -49q0 -87 54 -137q53 -51 171 -51q62 0 121 29q58 33 93 71q38 39 48 70h-143q-11 -25 -39 -41q-32 -17 -64 -17l-43 7q-59 18 -59 92l4 32h365q18 59 18 117q0 56 -20 104q-21 47 -64 72t-110 25q-77 0 -140 -28
q-65 -29 -112 -91q-46 -61 -66 -151zM232 318l19 38q9 20 25 39q14 15 37 26q24 11 56 11q43 0 64 -26q20 -26 20 -64l-1 -12l-1 -12h-219zM264 716l-25 -115h127l23 115h-125zM584 716h-127l-23 -115h125z" />
    <glyph glyph-name="igrave" unicode="&#xec;" horiz-adv-x="277" 
d="M182 533l-114 -533h141l113 533h-140zM221 591h102l-65 147h-152z" />
    <glyph glyph-name="iacute" unicode="&#xed;" horiz-adv-x="277" 
d="M182 533l-114 -533h141l113 533h-140zM330 738l-125 -147h100l180 147h-155z" />
    <glyph glyph-name="icircumflex" unicode="&#xee;" horiz-adv-x="277" 
d="M182 533l-114 -533h141l113 533h-140zM280 674l46 -83h114l-82 147h-125l-147 -147h115z" />
    <glyph glyph-name="idieresis" unicode="&#xef;" horiz-adv-x="277" 
d="M182 533l-114 -533h141l113 533h-140zM131 716l-25 -115h127l23 115h-125zM451 716h-127l-23 -115h125z" />
    <glyph glyph-name="eth" unicode="&#xf0;" horiz-adv-x="611" 
d="M670 686l-51 52l-111 -45q-34 31 -70 45l-120 -49q21 -10 65 -44l-117 -47l50 -53l120 47q57 -51 68 -123q-40 54 -123 54q-69 0 -121 -28q-55 -30 -91 -76q-40 -51 -62 -109q-11 -30 -19 -64t-8 -58q0 -67 33 -114q32 -48 83 -67q51 -21 111 -21q76 0 141 35
q64 34 109 91t69 129t24 146q0 77 -25 142t-66 114zM393 406q55 0 77 -31t22 -76q0 -42 -20 -90q-19 -45 -58 -75q-40 -29 -86 -29t-74 29q-27 29 -27 77q6 53 24 96q17 42 53 71q34 28 89 28z" />
    <glyph glyph-name="ntilde" unicode="&#xf1;" horiz-adv-x="611" 
d="M64 0h141l66 314q14 57 54 87q41 29 87 29q68 0 68 -65l-1 -27l-73 -338h141l80 377l2 35q0 39 -16 69q-16 31 -51 49q-35 17 -83 17q-36 0 -72 -12q-39 -15 -65 -35q-32 -25 -47 -49l18 82h-135zM248 597h63q17 41 54 41q9 0 16 -1q10 -2 11 -3l42 -12l46 -13q2 -1 6 -2
q4 0 9 -2h19q41 0 77 36q33 33 52 83h-67q-14 -30 -46 -39q-16 0 -27 4l-41 14l-39 13q-11 4 -22 4q-40 0 -84 -26q-43 -25 -69 -97z" />
    <glyph glyph-name="ograve" unicode="&#xf2;" horiz-adv-x="611" 
d="M102 307q-10 -27 -14 -52q-6 -28 -6 -58q0 -87 53 -149t162 -62q72 0 134 28q64 27 111 76q49 49 74 113q25 63 25 131q0 46 -12 85q-13 39 -38 67q-26 28 -66 44q-42 17 -97 17q-89 0 -156 -35q-66 -34 -105 -87q-42 -56 -65 -118zM236 268q33 160 172 160q44 0 66 -27
q22 -28 22 -77q0 -54 -19 -104t-58 -83q-37 -33 -91 -33q-99 0 -99 99q0 10 2 32q1 11 5 33zM420 591h102l-65 147h-152z" />
    <glyph glyph-name="oacute" unicode="&#xf3;" horiz-adv-x="611" 
d="M102 307q-10 -27 -14 -52q-6 -28 -6 -58q0 -87 53 -149t162 -62q72 0 134 28q64 27 111 76q49 49 74 113q25 63 25 131q0 46 -12 85q-13 39 -38 67q-26 28 -66 44q-42 17 -97 17q-89 0 -156 -35q-66 -34 -105 -87q-42 -56 -65 -118zM236 268q33 160 172 160q44 0 66 -27
q22 -28 22 -77q0 -54 -19 -104t-58 -83q-37 -33 -91 -33q-99 0 -99 99q0 10 2 32q1 11 5 33zM480 738l-125 -147h100l180 147h-155z" />
    <glyph glyph-name="ocircumflex" unicode="&#xf4;" horiz-adv-x="611" 
d="M102 307q-10 -27 -14 -52q-6 -28 -6 -58q0 -87 53 -149t162 -62q72 0 134 28q64 27 111 76q49 49 74 113q25 63 25 131q0 46 -12 85q-13 39 -38 67q-26 28 -66 44q-42 17 -97 17q-89 0 -156 -35q-66 -34 -105 -87q-42 -56 -65 -118zM236 268q33 160 172 160q44 0 66 -27
q22 -28 22 -77q0 -54 -19 -104t-58 -83q-37 -33 -91 -33q-99 0 -99 99q0 10 2 32q1 11 5 33zM446 674l46 -83h114l-82 147h-125l-147 -147h115z" />
    <glyph glyph-name="otilde" unicode="&#xf5;" horiz-adv-x="611" 
d="M102 307q-10 -27 -14 -52q-6 -28 -6 -58q0 -87 53 -149t162 -62q72 0 134 28q64 27 111 76q49 49 74 113q25 63 25 131q0 46 -12 85q-13 39 -38 67q-26 28 -66 44q-42 17 -97 17q-89 0 -156 -35q-66 -34 -105 -87q-42 -56 -65 -118zM236 268q33 160 172 160q44 0 66 -27
q22 -28 22 -77q0 -54 -19 -104t-58 -83q-37 -33 -91 -33q-99 0 -99 99q0 10 2 32q1 11 5 33zM248 597h63q17 41 54 41q9 0 16 -1q10 -2 11 -3l42 -12l46 -13q2 -1 6 -2q4 0 9 -2h19q41 0 77 36q33 33 52 83h-67q-14 -30 -46 -39q-16 0 -27 4l-41 14l-39 13q-11 4 -22 4
q-40 0 -84 -26q-43 -25 -69 -97z" />
    <glyph glyph-name="odieresis" unicode="&#xf6;" horiz-adv-x="611" 
d="M102 307q-10 -27 -14 -52q-6 -28 -6 -58q0 -87 53 -149t162 -62q72 0 134 28q64 27 111 76q49 49 74 113q25 63 25 131q0 46 -12 85q-13 39 -38 67q-26 28 -66 44q-42 17 -97 17q-89 0 -156 -35q-66 -34 -105 -87q-42 -56 -65 -118zM236 268q33 160 172 160q44 0 66 -27
q22 -28 22 -77q0 -54 -19 -104t-58 -83q-37 -33 -91 -33q-99 0 -99 99q0 10 2 32q1 11 5 33zM297 716l-25 -115h127l23 115h-125zM617 716h-127l-23 -115h125z" />
    <glyph glyph-name="divide" unicode="&#xf7;" horiz-adv-x="558" 
d="M589 362h-433l-41 -131h435zM408 146h-150l-32 -146h151zM500 600h-150l-32 -146h151z" />
    <glyph glyph-name="oslash" unicode="&#xf8;" horiz-adv-x="611" 
d="M111 78l-90 -78l32 -29l84 72q65 -57 168 -57q69 0 133 29q60 28 108 79q47 50 72 114q25 63 25 136q0 67 -26 111l84 74l-27 32l-84 -73q-69 57 -170 57q-91 0 -168 -48q-78 -49 -124 -128q-24 -42 -36 -84t-12 -88q0 -33 8 -63q7 -25 23 -56zM230 180l-3 31q0 25 6 52
t15 51q19 51 58 83q37 31 90 31q30 0 52 -9q23 -9 32 -26zM246 139l250 215v-26q0 -54 -19 -104q-20 -53 -55 -84q-19 -18 -42 -27q-22 -9 -50 -9q-24 0 -47 10q-24 9 -37 25z" />
    <glyph glyph-name="ugrave" unicode="&#xf9;" horiz-adv-x="611" 
d="M105 189l-5 -33l-4 -35q0 -135 146 -135q59 0 101 22q43 23 85 68l-16 -76h135l113 533h-142l-69 -320q-9 -48 -50 -78q-40 -31 -85 -31q-27 0 -47 18q-20 17 -20 52l3 29l68 330h-138zM387 591h102l-65 147h-152z" />
    <glyph glyph-name="uacute" unicode="&#xfa;" horiz-adv-x="611" 
d="M105 189l-5 -33l-4 -35q0 -135 146 -135q59 0 101 22q43 23 85 68l-16 -76h135l113 533h-142l-69 -320q-9 -48 -50 -78q-40 -31 -85 -31q-27 0 -47 18q-20 17 -20 52l3 29l68 330h-138zM463 738l-125 -147h100l180 147h-155z" />
    <glyph glyph-name="ucircumflex" unicode="&#xfb;" horiz-adv-x="611" 
d="M105 189l-5 -33l-4 -35q0 -135 146 -135q59 0 101 22q43 23 85 68l-16 -76h135l113 533h-142l-69 -320q-9 -48 -50 -78q-40 -31 -85 -31q-27 0 -47 18q-20 17 -20 52l3 29l68 330h-138zM446 674l46 -83h114l-82 147h-125l-147 -147h115z" />
    <glyph glyph-name="udieresis" unicode="&#xfc;" horiz-adv-x="611" 
d="M105 189l-5 -33l-4 -35q0 -135 146 -135q59 0 101 22q43 23 85 68l-16 -76h135l113 533h-142l-69 -320q-9 -48 -50 -78q-40 -31 -85 -31q-27 0 -47 18q-20 17 -20 52l3 29l68 330h-138zM297 716l-25 -115h127l23 115h-125zM617 716h-127l-23 -115h125z" />
    <glyph glyph-name="yacute" unicode="&#xfd;" 
d="M201 -21q-16 -47 -39 -63q-22 -18 -60 -18l-18 1l-18 1l-25 -111l47 -1l41 -1q37 0 65 9t53 36q29 30 58 82l347 619h-148l-193 -396l-34 396h-154zM463 738l-125 -147h100l180 147h-155z" />
    <glyph glyph-name="thorn" unicode="&#xfe;" horiz-adv-x="611" 
d="M158 -207l61 275q28 -82 133 -82q67 0 122 33q58 34 94 88q38 56 57 121q20 68 20 129q0 92 -48 141q-49 49 -124 49q-104 0 -170 -82l52 254h-140l-197 -926h140zM250 254q36 172 154 172q92 0 92 -106q0 -48 -18 -99q-10 -28 -22 -47q-16 -23 -31 -38q-34 -34 -85 -34
q-49 0 -73 28q-25 28 -25 73l4 25z" />
    <glyph glyph-name="ydieresis" unicode="&#xff;" 
d="M201 -21q-16 -47 -39 -63q-22 -18 -60 -18l-18 1l-18 1l-25 -111l47 -1l41 -1q37 0 65 9t53 36q29 30 58 82l347 619h-148l-193 -396l-34 396h-154zM264 716l-25 -115h127l23 115h-125zM584 716h-127l-23 -115h125z" />
    </font>
</defs>
</svg>
