<?xml version="1.0" standalone="no"?>
<!DOCTYPE svg PUBLIC "-//W3C//DTD SVG 1.1//EN" "http://www.w3.org/Graphics/SVG/1.1/DTD/svg11.dtd" >
<svg>
<metadata>
Created by FontForge 20110222 at Sat Jun 28 02:00:21 2014
 By Orthosie Webhosting
Copyright   c   1993 Roger White -  All Rights Reserved - see .txt file for terms for distribution and use.
</metadata>
<defs>
<font id="SwanseaItalic" horiz-adv-x="557" >
  <font-face 
    font-family="Swansea"
    font-weight="400"
    font-style="italic"
    font-stretch="normal"
    units-per-em="1000"
    panose-1="2 11 5 0 0 0 0 0 0 0"
    ascent="800"
    descent="-200"
    x-height="523"
    cap-height="719"
    bbox="-61 -227 1117 953"
    underline-thickness="50"
    underline-position="-50"
    slope="12"
    unicode-range="U+0020-2122"
  />
<missing-glyph horiz-adv-x="502" 
d="M-1 0h500v500h-500v-500zM9 10v480h480v-480h-480z" />
    <glyph glyph-name=".notdef" horiz-adv-x="502" 
d="M-1 0h500v500h-500v-500zM9 10v480h480v-480h-480z" />
    <glyph glyph-name="space" unicode=" " horiz-adv-x="277" 
 />
    <glyph glyph-name="space" unicode="&#xa0;" horiz-adv-x="277" 
 />
    <glyph glyph-name="exclam" unicode="!" horiz-adv-x="277" 
d="M111 102l-21 -102h96l23 102h-98zM191 479l-43 -309h51l90 310l51 239h-98z" />
    <glyph glyph-name="quotedbl" unicode="&#x22;" horiz-adv-x="355" 
d="M168 463h72l55 256h-70zM309 463h74l56 256h-74z" />
    <glyph glyph-name="numbersign" unicode="#" 
d="M102 0h66l74 211h125l-74 -211h66l75 211h103l22 62h-104l51 143h103l22 63h-102l73 210h-69l-72 -210h-123l72 210h-66l-74 -210h-102l-23 -63h101l-49 -143h-101l-24 -62h104zM314 416h124l-49 -143h-123z" />
    <glyph glyph-name="dollar" unicode="$" 
d="M615 521q4 17 4 43q0 70 -42 109q-44 38 -126 38l14 64h-47l-14 -64q-58 0 -110 -25q-53 -26 -89 -71q-37 -44 -49 -99l-6 -47q0 -45 25 -76q22 -27 58 -44q39 -19 87 -31l-56 -263q-56 8 -81 31q-25 22 -25 70l3 26l3 31h-88l-10 -72q0 -81 50 -120q27 -19 60 -30
q35 -11 74 -11l-21 -95h46l22 95q72 0 135 36q63 37 98 97q36 60 36 131q0 45 -21 73q-24 30 -58 46q-30 14 -102 35l51 241q53 -10 74 -34q19 -22 19 -64v-20h86zM340 410q-98 17 -98 88q13 63 50 103q35 38 97 38zM365 309l51 -18q26 -8 41 -29q16 -22 16 -57
q0 -41 -22 -75q-23 -35 -61 -55t-79 -20z" />
    <glyph glyph-name="percent" unicode="%" horiz-adv-x="889" 
d="M225 645q-36 -30 -57 -74q-22 -44 -22 -85q4 -11 4 -25q11 -53 47 -79q35 -28 84 -28q54 0 104 29q49 28 80 77q31 47 31 103q0 39 -19 67q-20 29 -51 47q-33 18 -71 18q-68 0 -130 -50zM230 551q13 31 46 53q32 21 66 21q37 0 59 -24q23 -26 23 -58t-18 -58
q-16 -25 -45 -42q-27 -16 -60 -19q-18 0 -31 6q-15 7 -27 16q-24 21 -24 56q4 30 11 49zM215 -20h55l548 723h-54zM617 281q-36 -30 -56 -73q-12 -26 -16 -43q-6 -21 -6 -40l4 -25q11 -52 46 -79q36 -27 85 -27q54 0 104 29q48 28 80 75q31 46 31 101q0 37 -18 68
q-19 30 -51 48q-32 17 -70 17q-70 0 -133 -51zM623 188q12 33 44 54q32 20 67 20q36 0 59 -23t23 -57q0 -33 -18 -60q-16 -27 -45 -42q-26 -16 -60 -19q-35 0 -57 22q-10 10 -18 26q-7 13 -7 30q3 26 12 49z" />
    <glyph glyph-name="ampersand" unicode="&#x26;" horiz-adv-x="668" 
d="M78 117q0 -63 49 -97q25 -17 55 -27q29 -9 64 -9q69 0 126 25q59 24 108 73l51 -82h115l-95 154q39 56 59 93q23 41 36 91h-82l-24 -61q0 -1 -12 -22q-12 -23 -16 -28l-98 156q72 38 122 95q50 56 50 126q0 49 -29 81q-16 17 -36 26q-24 8 -50 8q-65 0 -114 -25
q-48 -25 -77 -66q-30 -42 -34 -87l-2 -20q0 -25 11 -52q11 -28 36 -71q-110 -47 -161 -113q-52 -67 -52 -168zM447 643q22 -3 37 -19q14 -17 14 -42q0 -43 -32 -78q-30 -32 -87 -65q-33 47 -47 106q0 43 32 70q28 28 83 28zM266 63q-40 0 -69 25q-31 25 -31 66l4 24
q11 53 50 89q40 37 108 73l119 -199q-30 -33 -75 -55q-47 -23 -106 -23z" />
    <glyph glyph-name="quotesingle" unicode="'" horiz-adv-x="223" 
d="M160 512l-10 -49q36 7 65 30q27 20 47 52q17 32 25 69l24 106h-104l-23 -107h52q-17 -94 -76 -101z" />
    <glyph glyph-name="parenleft" unicode="(" horiz-adv-x="332" 
d="M127 275q-10 -44 -15 -77q-5 -35 -5 -69q0 -72 23 -161q21 -82 67 -175h59q-31 96 -44 167q-15 74 -15 142q0 32 4 61q3 32 6 52q15 88 35 148q23 68 54 129q31 60 70 119q36 54 89 123h-62l-36 -42l-22 -26q-26 -28 -31 -35q-48 -61 -71 -101q-35 -57 -59 -116
q-30 -71 -47 -139z" />
    <glyph glyph-name="parenright" unicode=")" horiz-adv-x="332" 
d="M-10 -207h63q68 70 120 144q50 69 88 146q37 75 56 152q19 75 19 158q0 167 -88 341h-59q53 -157 53 -310q0 -317 -252 -631z" />
    <glyph glyph-name="asterisk" unicode="*" horiz-adv-x="389" 
d="M164 592l102 -35l-86 -92l41 -33l86 93l45 -93l56 33l-49 94l116 33l-8 54l-113 -37l23 110h-61l-23 -110l-98 37z" />
    <glyph glyph-name="plus" unicode="+" horiz-adv-x="584" 
d="M84 217h219l-47 -217h74l45 217h217l13 72h-214l45 217h-73l-47 -217h-216z" />
    <glyph glyph-name="comma" unicode="," horiz-adv-x="277" 
d="M88 0h53q-24 -98 -75 -102l-9 -44q54 8 88 48t46 98l24 105h-106z" />
    <glyph glyph-name="hyphen" unicode="-" horiz-adv-x="332" 
d="M94 232h244l19 90h-246z" />
    <glyph glyph-name="period" unicode="." horiz-adv-x="277" 
d="M88 2h103l24 105h-106z" />
    <glyph glyph-name="slash" unicode="/" horiz-adv-x="277" 
d="M-21 -20h68l406 758h-66z" />
    <glyph glyph-name="zero" unicode="0" 
d="M98 146q4 -51 26 -88q19 -36 59 -57q38 -21 90 -21q43 0 80 12q34 11 68 35q61 46 99 112q35 62 52 127q35 131 35 220q0 95 -45 156t-134 61q-81 0 -146 -47t-106 -124q-41 -75 -61 -164t-20 -164zM213 377q20 85 53 142q31 53 69 79q37 25 87 25q47 0 71 -37
q23 -38 23 -106q0 -31 -5 -69q-5 -37 -15 -79q-26 -112 -75 -191q-51 -80 -138 -80q-97 0 -97 144q0 29 8 79q5 31 19 93z" />
    <glyph glyph-name="one" unicode="1" 
d="M266 0h93l149 703h-69q-28 -65 -63 -91q-33 -27 -75 -32l-78 -10l-16 -70h164z" />
    <glyph glyph-name="two" unicode="2" 
d="M25 0h483l18 82h-383q13 29 40 60q25 28 59 48l6 3q11 6 18 11q16 11 40 21l41 19l91 44q56 27 93 57q38 30 63 72q23 43 23 100l-3 44q-5 41 -32 73q-29 30 -73 47q-42 16 -95 16q-59 0 -119 -26q-57 -25 -100 -82q-42 -55 -54 -138h88q4 24 14 47q7 20 20 41
q23 39 60 62q35 22 83 22q52 0 83 -25q32 -26 32 -75q0 -47 -22 -81q-11 -18 -26 -33q-11 -12 -31 -25q-29 -21 -81 -46q-78 -39 -126 -66q-54 -33 -88 -62q-26 -23 -40 -39q-15 -18 -33 -47q-30 -48 -49 -124z" />
    <glyph glyph-name="three" unicode="3" 
d="M80 215l-8 -63q0 -83 53 -127q53 -45 139 -45q53 0 113 20q55 19 100 56q44 36 69 87q26 52 26 109q0 90 -88 121q43 14 71 45q29 32 41 72q13 35 13 69q0 51 -26 83t-66 47q-44 14 -91 14q-119 0 -186 -65t-88 -165h86q45 152 162 152q59 0 87 -22q29 -23 29 -64l-1 -12
l-1 -11q-25 -118 -170 -118l-35 2l-16 -76l38 1q144 0 144 -96q0 -44 -24 -82q-25 -39 -63 -61q-22 -11 -43 -18t-42 -7q-73 0 -104 28q-33 27 -33 77l6 49h-92z" />
    <glyph glyph-name="four" unicode="4" 
d="M80 258l-19 -86h308l-37 -172h88l37 172h104l15 76h-103l97 455h-74zM160 248l289 318h4l-68 -318h-225z" />
    <glyph glyph-name="five" unicode="5" 
d="M68 176l-4 -35q0 -56 28 -91q27 -36 75 -53t104 -17q55 0 104 21q50 20 92 57q43 38 67 85q24 46 32 103l3 36q0 55 -25 92q-26 37 -64 56q-38 18 -84 23l-21 1q-45 0 -84 -15q-41 -17 -57 -31l71 194h299l17 87h-363l-135 -378l76 -4q27 30 66 48q38 18 77 18
q36 0 65 -13q31 -14 47 -39q17 -28 17 -69q0 -50 -26 -94q-27 -45 -71 -71t-97 -32q-47 0 -82 29t-35 92h-92z" />
    <glyph glyph-name="six" unicode="6" 
d="M98 268l-8 -82q0 -58 20 -106q20 -49 63 -74q44 -26 104 -26q61 0 115 24q56 25 95 67q41 44 63 98t22 112q0 51 -25 88t-69 58q-46 20 -91 20q-32 0 -64 -9q-31 -7 -61 -27q-31 -20 -53 -48h-4q16 60 47 122q28 59 75 100q46 40 109 40q43 0 67 -29q24 -28 24 -80h86
l1 15l1 18q0 48 -19 82q-18 32 -58 53q-36 19 -97 19q-60 0 -118 -29q-56 -30 -99 -83q-45 -56 -76 -136q-34 -86 -50 -187zM189 229q17 60 62 101q44 39 108 39q53 0 87 -28q33 -28 33 -81q0 -50 -22 -93q-19 -44 -61 -75q-40 -31 -87 -31q-36 0 -66 14t-46 40
q-17 26 -17 61l4 27z" />
    <glyph glyph-name="seven" unicode="7" 
d="M137 0h97q50 127 115 238q37 61 69 107q35 50 72 96q25 30 79 88q40 42 85 82l16 78h-486l-20 -87h387l-115 -124q-47 -53 -102 -124q-60 -78 -108 -163q-53 -92 -89 -191z" />
    <glyph glyph-name="eight" unicode="8" 
d="M332 -16q64 12 117 50t84 93t31 119q0 44 -21 78q-21 33 -61 51q66 26 95 79q30 53 30 99q0 43 -19 77q-19 35 -60 54q-39 19 -102 19q-65 0 -125 -29q-60 -31 -94 -81q-35 -54 -41 -116q0 -71 70 -104q-55 -17 -90 -53q-37 -37 -55 -84q-10 -26 -14 -47q-5 -25 -5 -44
q0 -14 4 -29q3 -19 10 -36q19 -46 72 -73t119 -27q27 0 55 4zM268 535q36 90 142 90q46 0 75 -23t29 -67q0 -37 -26 -69q-25 -31 -60 -45q-34 -15 -67 -15q-40 0 -72 23q-31 25 -31 63q1 11 5 26q2 8 5 17zM184 229q18 44 63 73q43 28 107 28q48 0 81 -27q32 -29 32 -90
q-5 -46 -26 -80q-19 -33 -56 -52q-40 -20 -92 -20t-89 26q-36 26 -36 73q3 33 16 69z" />
    <glyph glyph-name="nine" unicode="9" 
d="M314 238q48 0 102 23q49 22 76 61l2 -2q-24 -71 -46 -116q-27 -55 -53 -83q-28 -33 -59 -48q-29 -16 -66 -16q-46 0 -71 25q-27 24 -27 66l2 24h-88l-2 -19l-2 -20q0 -60 41 -104q40 -45 133 -45q154 0 232 132q77 132 108 265q13 65 13 123q0 203 -191 203
q-63 0 -114 -24q-52 -26 -87 -67q-37 -44 -57 -98q-10 -24 -19 -58q-8 -30 -8 -56q0 -50 23 -88t64 -58q42 -20 94 -20zM344 316q-119 0 -119 100q10 89 53 151q42 60 124 60q59 0 88 -29q28 -28 28 -80t-22 -98t-63 -75t-89 -29z" />
    <glyph glyph-name="colon" unicode=":" horiz-adv-x="277" 
d="M88 0h103l24 105h-106zM197 516l-23 -106h103l24 106h-104z" />
    <glyph glyph-name="semicolon" unicode=";" horiz-adv-x="277" 
d="M66 -102l-9 -44q34 4 62 25q28 22 44 51q13 23 19 40q2 6 5 13q2 7 4 13l24 109h-106l-21 -105h53q-8 -38 -26 -67q-20 -31 -49 -35zM174 410h105l22 106h-104z" />
    <glyph glyph-name="less" unicode="&#x3c;" horiz-adv-x="584" 
d="M109 289l-15 -70l445 -207l16 80l-356 162l426 162l16 78z" />
    <glyph glyph-name="equal" unicode="=" horiz-adv-x="584" 
d="M63 115h507l16 73h-508zM121 391l-16 -75h508l16 75h-508z" />
    <glyph glyph-name="greater" unicode="&#x3e;" horiz-adv-x="584" 
d="M65 92l-15 -80l532 207l16 68l-444 209l-18 -80l356 -162z" />
    <glyph glyph-name="question" unicode="?" 
d="M221 0h97l22 102h-96zM262 184h88l10 35q7 29 17 47q2 3 3 4l12 16q4 5 5 6q9 12 14 18q15 15 28 26q26 22 41 33q50 38 78 69t36 55q9 27 12 38q3 15 3 35q0 48 -20 85t-57 56q-38 20 -81 20q-85 0 -147 -34q-66 -35 -99 -86q-36 -52 -45 -113h90q12 61 38 96
q25 33 58 47q32 13 76 13q42 0 67 -25t25 -66q0 -29 -12 -55q-13 -28 -31 -46l-10 -10q-6 -5 -11 -10q-3 -3 -11 -10q-8 -8 -12 -11l-46 -36q-49 -40 -78 -83q-15 -22 -24 -48q-9 -21 -17 -66z" />
    <glyph glyph-name="at" unicode="@" horiz-adv-x="1016" 
d="M230 389q-3 -16 -9 -51q-6 -34 -6 -61q0 -69 26 -126q25 -56 70 -95q43 -37 98 -57q51 -19 112 -19q51 0 97 12q51 13 94 34q90 43 165 130h-68q-52 -49 -121 -80q-70 -33 -137 -33q-119 0 -192 66q-34 31 -52 75t-18 99q0 36 8 73q8 39 23 72q28 70 79 127q50 56 120 87
q70 32 145 32q84 0 145 -33q45 -28 67 -74q22 -45 22 -98q0 -57 -25 -114q-25 -59 -69 -103q-43 -43 -99 -51l-10 2q-6 4 -7 14q0 12 9 31l8 20l145 289h-71l-31 -63q-19 78 -105 78q-31 0 -60 -9q-33 -11 -59 -28q-54 -33 -92 -83q-39 -51 -58 -103q-20 -54 -20 -97
q4 -48 33 -81q16 -18 36 -27q18 -9 42 -9q20 0 41 6q22 7 38 16q39 21 63 42q0 -64 53 -64q55 0 131 51l25 19q17 14 22 19q10 9 25 25q26 29 51 66q24 36 37 85q12 47 12 88q0 56 -19 101t-58 81q-40 34 -90 50q-49 16 -110 16q-74 0 -145 -25q-72 -25 -140 -75
q-65 -48 -107 -110q-45 -64 -64 -137zM475 383q35 54 78 86q40 31 78 31q28 0 48 -20t20 -48q0 -39 -27 -89t-61 -81q-28 -27 -55 -41q-26 -14 -50 -14q-28 0 -48 21q-19 21 -19 53q0 27 10 51q8 24 26 51z" />
    <glyph glyph-name="A" unicode="A" horiz-adv-x="668" 
d="M14 0h99l119 209h289l28 -209h105l-107 719h-109zM281 295l186 316l39 -316h-225z" />
    <glyph glyph-name="B" unicode="B" horiz-adv-x="668" 
d="M74 0h322q51 0 105 20q49 18 92 55q41 36 62 83q23 51 23 102q0 43 -24 77q-24 33 -74 50q61 25 96 80q35 53 35 131q-4 50 -44 86q-39 36 -134 36h-306zM189 82l53 254h201q71 0 103 -25q32 -26 32 -69q0 -45 -24 -81q-23 -37 -62 -57q-40 -22 -84 -22h-219zM260 414
l47 221h181q123 0 123 -76q0 -69 -47 -107t-117 -38h-187z" />
    <glyph glyph-name="C" unicode="C" horiz-adv-x="723" 
d="M115 332q-7 -34 -8 -47q-2 -22 -2 -47q0 -89 38 -148q37 -58 95 -83q58 -26 123 -26l24 1q27 0 59 8t58 18q54 20 100 57q44 35 79 86q32 46 55 113h-93q-39 -103 -110 -150q-72 -48 -148 -48q-93 0 -134 54q-42 53 -42 136l2 29l2 28q9 92 50 171q40 76 107 123
q66 45 144 45q76 0 125 -34t49 -116h93v19q0 106 -64 161t-178 55l-29 -1q-31 0 -60 -7q-30 -7 -63 -20q-60 -23 -115 -70q-56 -50 -96 -125q-22 -41 -36 -85q-16 -43 -25 -97z" />
    <glyph glyph-name="D" unicode="D" horiz-adv-x="723" 
d="M80 0h299q89 0 160 43q71 42 122 113q50 71 77 157q26 87 26 166q0 57 -19 110q-20 53 -77 93q-59 38 -166 38h-268zM195 84l118 551h173q176 0 176 -178q0 -64 -16 -124q-17 -65 -50 -121q-34 -58 -86 -93t-115 -35h-200z" />
    <glyph glyph-name="E" unicode="E" horiz-adv-x="668" 
d="M86 0h529l20 86h-434l51 240h393l19 86h-393l45 221h428l18 86h-524z" />
    <glyph glyph-name="F" unicode="F" horiz-adv-x="611" 
d="M86 0h98l68 326h353l18 86h-352l45 221h401l19 86h-496z" />
    <glyph glyph-name="G" unicode="G" horiz-adv-x="777" 
d="M137 410q-11 -34 -20 -81q-8 -42 -8 -77q0 -36 9 -72q7 -34 23 -66q31 -60 82 -94q52 -40 144 -40q40 0 74 7q35 7 70 21q36 14 68 35q35 24 60 49l2 -92h64l82 385h-314l-20 -84h223q-11 -71 -47 -122q-38 -54 -92 -82q-36 -19 -57 -25q-27 -8 -54 -8l-26 -1
q-54 0 -99 20q-42 19 -65 63q-25 43 -25 108q6 66 26 139q19 68 55 126q20 32 42 54t50 41q56 36 128 36q67 0 110 -17q41 -17 59 -48t24 -85h94v25q0 49 -20 90q-18 38 -56 68q-39 28 -83 41q-45 13 -93 13h-10l-10 -1q-31 0 -65 -8q-24 -6 -75 -25q-73 -29 -140 -99
q-70 -72 -110 -194z" />
    <glyph glyph-name="H" unicode="H" horiz-adv-x="723" 
d="M78 0h96l72 336h375l-70 -336h95l153 719h-96l-64 -297h-375l62 297h-96z" />
    <glyph glyph-name="I" unicode="I" horiz-adv-x="277" 
d="M92 0h97l153 719h-98z" />
    <glyph glyph-name="J" unicode="J" horiz-adv-x="500" 
d="M66 230q-10 -30 -15 -58q-6 -27 -6 -49q0 -143 182 -143q26 0 56 8t52 20q50 26 84 72q35 47 48 102l115 537h-98l-109 -514q-15 -76 -48 -107q-17 -17 -40 -25q-22 -9 -53 -9l-9 -1q-41 0 -63 23q-21 23 -21 57q3 28 17 87h-92z" />
    <glyph glyph-name="K" unicode="K" horiz-adv-x="668" 
d="M76 0h98l53 252l136 107l174 -359h127l-217 428l362 291h-135l-422 -348l74 348h-97z" />
    <glyph glyph-name="L" unicode="L" 
d="M76 0h461l18 86h-364l135 633h-97z" />
    <glyph glyph-name="M" unicode="M" horiz-adv-x="832" 
d="M72 0h96l127 604l74 -604h96l332 604l-129 -604h94l152 719h-137l-336 -608l-76 608h-138z" />
    <glyph glyph-name="N" unicode="N" horiz-adv-x="723" 
d="M76 0h94l125 580l240 -580h111l153 719h-94l-125 -580l-236 580h-115z" />
    <glyph glyph-name="O" unicode="O" horiz-adv-x="777" 
d="M105 283q0 -81 19 -135q19 -56 57 -94q39 -38 91 -56q53 -18 123 -18q93 0 171 40q80 39 138 108q57 66 89 153q19 52 25 87q8 43 8 87q0 72 -19 123q-19 53 -55 88q-38 35 -91 54q-55 18 -126 18q-122 0 -223 -72q-51 -37 -87 -79q-38 -43 -65 -97q-55 -105 -55 -207z
M215 363q15 70 56 137q42 67 109 109q68 43 155 43q27 0 54 -8q26 -9 48 -24q44 -28 66 -75t22 -107q0 -71 -24 -137q-25 -67 -70 -119q-45 -53 -103 -84q-59 -32 -126 -32q-103 0 -150 63q-47 64 -47 150q0 14 2 32q0 5 4 26q3 17 4 26z" />
    <glyph glyph-name="P" unicode="P" horiz-adv-x="668" 
d="M86 0h98l64 303h229q77 0 138 38q58 37 90 97q31 58 31 121q0 68 -41 115q-40 46 -121 46h-336zM318 635h213q104 0 104 -86q0 -45 -21 -83q-22 -37 -60 -58q-39 -21 -85 -21h-203z" />
    <glyph glyph-name="Q" unicode="Q" horiz-adv-x="777" 
d="M117 369q-13 -61 -13 -115q0 -133 78 -202q77 -70 197 -70q101 0 201 47l92 -86l62 59l-82 76q27 25 40 39q20 21 33 39q30 42 54 91q21 47 33 99q12 53 12 105q0 128 -70 207q-71 80 -211 80q-54 0 -108 -14q-54 -15 -97 -42q-89 -53 -144 -136q-56 -85 -77 -177z
M516 90q-30 -11 -61 -18q-28 -6 -60 -6q-87 0 -140 59q-52 58 -52 150q0 32 9 68q7 31 20 70q22 66 66 122q45 56 104 86q61 31 135 31q51 0 94 -24t69 -71q25 -47 25 -116q0 -59 -15 -115q-18 -60 -47 -106q-31 -49 -73 -83l-76 70l-63 -59z" />
    <glyph glyph-name="R" unicode="R" horiz-adv-x="723" 
d="M86 -2h103l61 311h229q63 0 88 -21t25 -59q0 -32 -6 -73l-13 -82q-5 -30 -6 -40q-1 -8 -1 -34h120l2 16q-23 11 -26 39l23 117q8 51 8 90q0 69 -62 92q67 32 104 90q38 59 38 128q0 78 -53 114q-52 34 -136 34h-344zM268 391l52 244h235q115 0 115 -80q0 -44 -20 -83
q-21 -37 -59 -60q-37 -21 -85 -21h-238z" />
    <glyph glyph-name="S" unicode="S" horiz-adv-x="668" 
d="M98 232q-2 -7 -3 -18q0 -2 -1 -11q-2 -17 -4 -35q0 -70 39 -114q36 -40 89 -57q54 -17 106 -17q36 0 69 5q31 5 62 12q49 13 72 25l21 12q9 6 20 15q50 41 75 93t25 110q0 55 -31 89q-31 35 -117 54l-168 41q-19 0 -48 15t-29 55l6 31q14 48 56 81q22 18 52 27q29 9 66 9
q89 0 126 -34q38 -35 38 -85l-1 -14l-1 -13h92l3 21q1 4 1 7q1 7 1 27q0 112 -75 142q-38 16 -82 25q-45 8 -86 8q-80 0 -141 -34q-62 -34 -103 -93q-40 -60 -51 -134q0 -98 121 -129l197 -51q74 -18 74 -82q0 -51 -30 -84q-32 -35 -80 -51q-51 -17 -97 -17l-22 2l-23 1
q-68 6 -99 41q-33 36 -33 86l5 39h-91z" />
    <glyph glyph-name="T" unicode="T" horiz-adv-x="611" 
d="M258 0h97l133 633h244l18 86h-582l-20 -86h245z" />
    <glyph glyph-name="U" unicode="U" horiz-adv-x="723" 
d="M131 240l-1 -6q-2 -15 -3 -25q-2 -13 -4 -34v-3q0 -91 65 -141q64 -49 189 -49q73 0 142 34q70 35 117 98q48 66 65 152l96 453h-96l-99 -465q-6 -26 -11 -38q-10 -24 -17 -36q-19 -34 -47 -59t-63 -39q-22 -9 -38 -12q-15 -4 -37 -4q-166 0 -166 135l5 31l2 22l100 465
h-98z" />
    <glyph glyph-name="V" unicode="V" horiz-adv-x="668" 
d="M283 0h102l416 719h-110l-336 -614l-74 614h-107z" />
    <glyph glyph-name="W" unicode="W" horiz-adv-x="943" 
d="M203 0h104l293 596l37 -596h103l342 719h-107l-258 -584h-4l-35 584h-106l-289 -584l-10 584h-105z" />
    <glyph glyph-name="X" unicode="X" horiz-adv-x="668" 
d="M20 0h117l261 295l129 -295h121l-173 369l316 350h-117l-240 -276l-123 276h-123l166 -350z" />
    <glyph glyph-name="Y" unicode="Y" horiz-adv-x="668" 
d="M285 0h98l60 289l364 430h-114l-281 -346l-133 346h-111l178 -428z" />
    <glyph glyph-name="Z" unicode="Z" horiz-adv-x="611" 
d="M23 0h565l17 86h-441l559 549l17 84h-531l-20 -86h409l-559 -553z" />
    <glyph glyph-name="bracketleft" unicode="[" horiz-adv-x="277" 
d="M21 -195h188l14 70h-108l166 775h108l13 73h-185z" />
    <glyph glyph-name="backslash" unicode="\" horiz-adv-x="277" 
d="M225 -20h66l-86 758h-64z" />
    <glyph glyph-name="bracketright" unicode="]" horiz-adv-x="277" 
d="M108 -125h-107l-16 -70h189l195 918h-187l-16 -73h106z" />
    <glyph glyph-name="asciicircum" unicode="^" horiz-adv-x="469" 
d="M43 264h76l246 343l98 -343h76l-121 425h-72z" />
    <glyph glyph-name="underscore" unicode="_" 
d="M-27 -125h556l12 51h-557z" />
    <glyph glyph-name="grave" unicode="`" horiz-adv-x="332" 
d="M270 594h66l-59 140h-107z" />
    <glyph glyph-name="a" unicode="a" 
d="M414 318q-63 -6 -137 -16q-51 -7 -97 -25q-42 -16 -71 -50q-30 -32 -43 -88l-3 -19l-2 -20q0 -53 40 -84q41 -32 104 -32q30 0 68 11q5 1 9 3q22 7 28 10q7 2 24 12l8 4q37 21 62 46l-4 -21q0 -57 77 -57q33 0 54 10l14 61q-18 0 -33 -4q-24 5 -24 17l4 18l63 299
q1 2 2 6t2 9v16q0 53 -42 84q-43 31 -136 31q-72 0 -123 -24q-50 -25 -79 -63q-30 -39 -40 -87h82q19 61 56 81q35 19 82 19q112 0 112 -67l-1 -8l-1 -7l-6 -18q-3 -18 -16 -31t-33 -16zM156 129q0 45 30 69q29 24 55 28l100 16q73 10 100 24l-21 -92q-12 -56 -66 -85
q-31 -15 -56 -22q-32 -8 -60 -8l-8 -2q-40 0 -57 18q-17 19 -17 54z" />
    <glyph glyph-name="b" unicode="b" 
d="M59 0h82l15 64q32 -80 127 -80q46 0 86 14t74 42q67 55 105 143q36 86 36 174q0 82 -43 131t-133 49q-85 0 -164 -80l55 262h-88zM193 242l20 69q6 16 14 34t18 32q24 36 59 59q38 23 89 23q99 0 99 -117q0 -45 -12 -92q-13 -50 -37 -92q-25 -43 -63 -69t-89 -26
q-105 0 -105 117z" />
    <glyph glyph-name="c" unicode="c" horiz-adv-x="500" 
d="M385 539q-37 0 -70 -9q-37 -12 -66 -29q-62 -34 -106 -102t-63 -169l-6 -58q0 -81 48 -134q48 -54 138 -54t157 52q66 51 101 150h-86q-8 -27 -29 -53q-15 -18 -26 -28t-30 -22q-34 -22 -79 -22q-49 5 -72 33q-26 32 -26 88q7 66 28 132q20 64 62 104q43 41 109 41
q59 0 78 -31q20 -32 20 -80h84l1 18l1 19q0 85 -49 119q-50 35 -119 35z" />
    <glyph glyph-name="d" unicode="d" 
d="M506 445q-19 52 -57 73q-39 21 -94 21q-31 0 -60 -9q-32 -11 -55 -26q-49 -31 -82 -82q-35 -53 -54 -113q-13 -42 -17 -65q-5 -30 -5 -58q0 -42 11 -78q11 -35 32 -64t53 -44q31 -16 72 -16q55 0 97 19q45 19 85 69l-16 -72h84l152 719h-88zM283 61q-111 0 -111 128
q0 35 7 64q5 26 17 63q18 59 60 101t105 42q110 0 110 -121q0 -68 -19 -128q-19 -63 -61 -106q-43 -43 -108 -43z" />
    <glyph glyph-name="e" unicode="e" 
d="M94 246l-10 -76q0 -85 50 -135q50 -51 141 -51q90 0 162 48q71 48 108 132h-88q-18 -41 -62 -72t-92 -31q-127 0 -127 115q1 4 1 9l3 21q1 11 3 24l1 4h382q12 56 12 112q0 89 -40 141t-132 52q-125 0 -206 -82t-106 -211zM197 303q12 49 42 83q28 34 67 54q37 19 73 19
q113 0 113 -115l-2 -41h-293z" />
    <glyph glyph-name="f" unicode="f" horiz-adv-x="277" 
d="M86 0h88l96 451h87l16 72h-88q10 54 19 82q8 24 20 33q13 10 39 10l18 -1l19 -1l16 81l-21 1l-20 1q-133 0 -158 -112l-20 -94h-72l-16 -72h73z" />
    <glyph glyph-name="g" unicode="g" 
d="M389 537q-75 0 -134 -33q-60 -33 -99 -90q-40 -60 -56 -133l-1 -6q-8 -36 -10 -48q-3 -21 -3 -49q0 -90 48 -141t139 -51q43 0 86 21t65 52q-37 -205 -195 -205q-98 0 -98 82h-88q0 -89 46 -123t124 -34q62 0 113 17t87 50t60 82q24 52 37 111l101 484h-84l-15 -76
q-43 90 -123 90zM188 266q40 193 185 193q104 0 104 -123q0 -61 -20 -126q-20 -63 -65 -106q-43 -43 -111 -43q-103 0 -103 127z" />
    <glyph glyph-name="h" unicode="h" 
d="M64 0h88l61 281q17 77 50 115q36 40 65 50q6 2 25 8l7 2q15 3 27 3q55 0 75 -17t20 -51l-5 -49l-75 -342h90l76 363l4 47q0 39 -20 70q-22 30 -55 44q-34 15 -73 15q-89 0 -174 -86l57 266h-88z" />
    <glyph glyph-name="i" unicode="i" horiz-adv-x="223" 
d="M66 0h88l112 523h-88zM197 619h90l22 100h-88z" />
    <glyph glyph-name="j" unicode="j" horiz-adv-x="223" 
d="M-45 -131l-16 -76l18 -1l25 -1q132 0 157 133l8 39l11 49l108 511h-88l-125 -589l-9 -30q-5 -15 -11 -21q-8 -8 -22 -11q-13 -3 -38 -3h-18zM197 619h90l22 100h-88z" />
    <glyph glyph-name="k" unicode="k" horiz-adv-x="500" 
d="M66 0h86l41 197l88 67l108 -264h113l-143 328l241 195h-112l-271 -220l88 416h-84z" />
    <glyph glyph-name="l" unicode="l" horiz-adv-x="223" 
d="M66 0h90l153 719h-88z" />
    <glyph glyph-name="m" unicode="m" horiz-adv-x="832" 
d="M64 0h88l63 285q14 68 45 107q33 39 65 53q36 14 64 14q64 0 64 -66l-1 -16l-1 -14l-78 -363h88l68 318q8 36 31 68q24 35 56 53q34 20 68 20q76 0 76 -74l-1 -12l-2 -17l-3 -18l-72 -338h88l78 363q4 15 4 51q0 48 -21 76t-50 39q-27 10 -60 10q-54 0 -89 -19
q-32 -17 -89 -67q-10 35 -36 61q-25 25 -85 25q-98 0 -178 -90l16 74h-84l-2 -11z" />
    <glyph glyph-name="n" unicode="n" 
d="M568 355q6 30 6 53q0 50 -23 81q-23 30 -57 40q-33 10 -72 10q-58 0 -104 -28q-43 -27 -74 -62l16 74h-84l-2 -11l-110 -512h88l63 285q14 68 45 107q33 39 65 53q36 14 64 14q49 0 68 -19q20 -20 20 -59q0 -27 -6 -59l-67 -322h88z" />
    <glyph glyph-name="o" unicode="o" 
d="M92 262q0 -1 -1 -6q-1 -14 -4 -27q-5 -25 -5 -43q0 -45 13 -80q12 -35 36 -64q48 -56 144 -56q64 0 123 29q58 29 99 79q20 22 38 54q17 30 26 58q12 35 17 63q6 32 6 63q0 56 -20 105q-19 47 -63 75q-43 27 -108 27q-80 0 -142 -40q-63 -40 -104 -103q-42 -65 -55 -134z
M182 262q17 74 64 137q46 64 131 64q115 0 115 -139q0 -29 -6 -61q-5 -29 -17 -60q-24 -61 -70 -100q-46 -40 -108 -40q-117 0 -117 132l4 39z" />
    <glyph glyph-name="p" unicode="p" 
d="M14 -207h88l58 262q13 -31 46 -51q32 -20 77 -20q87 0 158 56q68 55 106 141q37 84 37 173q0 57 -19 98q-19 42 -58 65q-38 22 -93 22q-31 0 -57 -6q-25 -6 -44 -19q-11 -8 -33 -25l-3 -3q-12 -10 -41 -37l16 74h-82l-49 -218zM191 236q12 49 34 105q20 50 60 84
q38 34 96 34q111 0 111 -115q0 -41 -11 -93q-10 -48 -35 -93q-27 -47 -62 -71q-38 -26 -85 -26q-45 0 -80 29t-35 90z" />
    <glyph glyph-name="q" unicode="q" 
d="M605 523h-82l-19 -74q-9 19 -20 35q-11 15 -26 29q-29 26 -91 26q-92 0 -153 -52q-63 -53 -94 -134q-17 -45 -28 -88q-10 -39 -10 -81q0 -86 43 -142q43 -58 137 -58q49 0 89 21q34 16 67 50l-55 -262h88l47 219zM461 236q-19 -93 -74 -134q-56 -41 -108 -41t-79 34
q-13 20 -21 42q-7 21 -7 52q0 52 15 100q15 47 39 90q44 80 141 80q106 0 106 -125q0 -42 -12 -98z" />
    <glyph glyph-name="r" unicode="r" horiz-adv-x="332" 
d="M230 305q8 38 31 70q22 30 58 50q35 18 74 18h33l21 92q-12 4 -23 4q-89 0 -170 -103l17 87h-83l-2 -11l-110 -512h88z" />
    <glyph glyph-name="s" unicode="s" horiz-adv-x="500" 
d="M527 375l1 11l1 18q0 36 -13 62q-12 29 -50 52q-37 21 -105 21q-51 0 -101 -18q-51 -20 -85 -57q-35 -38 -46 -93l-2 -15l-2 -16q0 -73 98 -96l95 -25q48 -10 69 -24q21 -15 21 -39q0 -32 -21 -53q-22 -21 -53 -31q-33 -11 -64 -11q-122 0 -122 82l4 25h-84
q-4 -23 -4 -33q-1 -6 -1 -18q0 -133 191 -133q56 0 116 26q57 25 94 73q36 47 36 106q0 42 -28 67q-26 24 -91 41l-84 21q-24 6 -39 12q-12 4 -25 11q-20 12 -20 30q24 92 123 92q107 0 107 -67l-1 -11l-1 -10h86z" />
    <glyph glyph-name="t" unicode="t" horiz-adv-x="277" 
d="M354 451l15 72h-86l31 147h-87l-32 -147h-70l-16 -72h73l-75 -346l-3 -21l-2 -21q0 -71 87 -71l69 8l13 68h-31q-19 0 -32 7t-13 34l75 342h84z" />
    <glyph glyph-name="u" unicode="u" 
d="M490 0l2 12l108 511h-88l-61 -289q-8 -42 -29 -80q-22 -39 -61 -66t-91 -27q-82 0 -82 76l5 39l75 347h-88l-80 -377l-6 -44q0 -40 21 -69q23 -28 54 -38q33 -11 65 -11q60 0 104 23q20 9 43 29q17 15 41 40l-16 -76h84z" />
    <glyph glyph-name="v" unicode="v" horiz-adv-x="500" 
d="M199 0h94l8 12l303 511h-96l-240 -425l-47 425h-102l2 -11z" />
    <glyph glyph-name="w" unicode="w" horiz-adv-x="723" 
d="M164 0h92l187 406h4l20 -406h92l5 12l256 511h-88l-193 -410l-2 -2l-14 412h-99l-190 -412l-13 412h-96l2 -11z" />
    <glyph glyph-name="x" unicode="x" horiz-adv-x="500" 
d="M12 0h109l170 197l88 -197h111l-127 270l231 253h-108l-160 -183l-82 183h-113l121 -253z" />
    <glyph glyph-name="y" unicode="y" horiz-adv-x="500" 
d="M504 523l-233 -425l-48 425h-102l82 -537l-53 -83q-15 -23 -30 -30q-16 -8 -38 -8q-25 0 -51 8l-15 -80q24 -8 66 -8q37 0 66 17q28 16 64 66q44 62 91 142l97 164l87 149l113 200h-96z" />
    <glyph glyph-name="z" unicode="z" horiz-adv-x="500" 
d="M47 68l-16 -68h438l15 72h-320l393 379l15 72h-406l-16 -72h291z" />
    <glyph glyph-name="braceleft" unicode="{" horiz-adv-x="334" 
d="M92 234q26 0 41 -23q15 -22 15 -63l-1 -21l-2 -23l-36 -170l-5 -36q0 -42 24 -67q23 -26 56 -26h66l14 64h-43q-33 0 -33 47l1 18l2 17l38 168v11l1 22q0 86 -60 114q40 14 67 44q17 20 24 30q5 7 13 25l15 41l35 170q18 82 65 82h43l13 65h-66q-26 0 -53 -15
q-28 -19 -47 -45q-20 -30 -29 -69l-37 -172q-12 -57 -43 -91q-32 -36 -66 -36z" />
    <glyph glyph-name="bar" unicode="|" horiz-adv-x="260" 
d="M90 -20h72l55 247l108 511h-73l-55 -246z" />
    <glyph glyph-name="braceright" unicode="}" horiz-adv-x="334" 
d="M354 295q-26 0 -43 23q-16 22 -16 59l3 19l3 26l37 172q4 17 4 35q0 44 -24 69q-23 25 -56 25h-67l-13 -65h45q31 0 31 -43l-4 -39l-35 -170l-4 -37q0 -41 16 -66q15 -25 44 -39q-40 -16 -65 -47q-24 -30 -36 -55q0 -2 -3 -9q-2 -4 -4 -9q-6 -12 -9 -25l-37 -168
q-15 -82 -62 -82h-45l-14 -64h66q28 0 53 16q28 14 50 46q20 29 28 67l35 170q12 55 44 93q31 37 66 37z" />
    <glyph glyph-name="asciitilde" unicode="~" horiz-adv-x="584" 
d="M557 326q-25 -29 -53 -53q-23 -19 -51 -19q-21 0 -94 37q-65 31 -105 31q-75 0 -143 -86l24 -56q46 72 99 72q30 0 67 -17l70 -34q37 -17 67 -17q71 0 142 86z" />
    <glyph glyph-name="quotesinglbase" unicode="&#x201a;" horiz-adv-x="277" 
d="M88 0h53q-24 -98 -75 -102l-9 -44q54 8 88 48t46 98l24 105h-106z" />
    <glyph glyph-name="florin" unicode="&#x192;" 
d="M654 723q-32 13 -74 13q-60 0 -113 -45q-53 -47 -78 -107l-55 -123h-123l-14 -70h108l-137 -346l-24 -57q-3 -7 -6 -12q-10 -24 -13 -29q-18 -34 -43 -56q-25 -20 -55 -20q-15 0 -48 14l-32 -80q21 -12 59 -12q20 0 42 5q19 5 29 9q35 14 67 44q34 34 64 84q31 52 60 128
l130 328h127l14 70h-113l41 103q44 96 103 96q13 0 53 -15z" />
    <glyph glyph-name="quotedblbase" unicode="&#x201e;" horiz-adv-x="332" 
d="M189 0h53q-4 -44 -26 -73q-21 -28 -46 -31l-12 -44q34 3 62 24q27 20 47 54q20 32 28 70l21 105h-103zM25 0h53q-13 -88 -74 -104l-10 -46q59 15 91 53t44 97l23 105h-103z" />
    <glyph glyph-name="ellipsis" unicode="&#x2026;" horiz-adv-x="1000" 
d="M115 0h104l23 105h-103zM447 0h106l23 105h-105zM781 0h106l21 105h-103z" />
    <glyph glyph-name="dagger" unicode="&#x2020;" 
d="M340 508h-190l-15 -78h189l-127 -590h94l127 590h186l19 78h-189l45 211h-94z" />
    <glyph glyph-name="daggerdbl" unicode="&#x2021;" 
d="M256 117h-188l-17 -74h189l-43 -203h94l43 203h187l18 74h-187l66 322h189l16 77h-189l46 201h-95l-45 -201h-188l-17 -77h189z" />
    <glyph glyph-name="circumflex" unicode="&#x2c6;" horiz-adv-x="332" 
d="M311 686l46 -94h81l-69 142h-94l-129 -142h79z" />
    <glyph glyph-name="perthousand" unicode="&#x2030;" horiz-adv-x="1000" 
d="M387 227q-18 -24 -26 -46q-9 -25 -9 -56q0 -56 33 -95q30 -36 84 -36q48 0 95 26q46 26 74 69t28 95q0 34 -17 63q-18 27 -47 42q-33 14 -65 14q-44 0 -82 -19q-40 -20 -68 -57zM436 195q17 22 41 33q24 12 48 12q33 0 55 -21q22 -20 22 -55q0 -45 -36 -75
q-19 -18 -38 -25q-21 -9 -44 -9q-68 9 -74 76q5 38 26 64zM754 227q-16 -25 -27 -53q-10 -27 -10 -55q0 -32 15 -64q14 -26 41 -44q26 -17 61 -17q49 0 96 26t75 69t28 95q0 55 -38 87t-93 32q-44 0 -82 -19q-40 -19 -66 -57zM803 195q35 45 88 45q34 0 56 -21
q22 -22 22 -55q0 -42 -36 -74q-22 -19 -40 -26q-19 -9 -41 -9q-34 5 -53 23t-22 53q4 42 26 64zM154 609q-17 -24 -27 -52q-10 -26 -10 -55q0 -19 4 -32q5 -20 11 -31q12 -26 32 -40q20 -16 68 -20q16 0 38 5q26 6 37 11q36 13 65 39q28 25 44 58q16 32 16 74q0 34 -17 63
q-15 27 -47 44q-30 15 -65 15q-20 0 -42 -5q-20 -5 -41 -15q-41 -20 -66 -59zM203 580q36 43 88 43q31 0 54 -20q22 -20 22 -54q0 -30 -16 -55t-42 -39q-26 -17 -55 -17t-52 21q-23 22 -26 53q0 17 8 36q8 20 19 32zM695 705h-58l-549 -725h55z" />
    <glyph glyph-name="Scaron" unicode="&#x160;" horiz-adv-x="731" 
d="M98 232q-2 -7 -3 -18q0 -2 -1 -11q-2 -17 -4 -35q0 -70 39 -114q36 -40 89 -57q54 -17 106 -17q36 0 69 5q31 5 62 12q49 13 72 25l21 12q9 6 20 15q50 41 75 93t25 110q0 55 -31 89q-31 35 -117 54l-168 41q-19 0 -48 15t-29 55l6 31q14 48 56 81q22 18 52 27q29 9 66 9
q89 0 126 -34q38 -35 38 -85l-1 -14l-1 -13h92l3 21q1 4 1 7q1 7 1 27q0 112 -75 142q-38 16 -82 25q-45 8 -86 8q-80 0 -141 -34q-62 -34 -103 -93q-40 -60 -51 -134q0 -98 121 -129l197 -51q74 -18 74 -82q0 -51 -30 -84q-32 -35 -80 -51q-51 -17 -97 -17l-22 2l-23 1
q-68 6 -99 41q-33 36 -33 86l5 39h-91zM520 836l-46 93h-82l69 -141h95l129 141h-79z" />
    <glyph glyph-name="guilsinglleft" unicode="&#x2039;" horiz-adv-x="332" 
d="M156 322l-19 -92l131 -123l19 88l-88 82l121 80l20 88z" />
    <glyph glyph-name="OE" unicode="&#x152;" horiz-adv-x="1000" 
d="M676 719l-18 -74q-37 91 -158 91q-98 0 -171 -43q-76 -44 -125 -118q-25 -37 -44 -77q-23 -49 -34 -88q-16 -55 -22 -89q-8 -45 -8 -85q0 -74 27 -134q25 -58 76 -91q49 -31 125 -31q81 0 123 24q43 25 90 70l-16 -74h444l17 86h-351l53 240h332l19 86h-334l47 219h350
l19 88h-441zM566 230q-13 -57 -45 -95q-34 -39 -74 -55q-43 -17 -76 -17q-53 0 -90 14q-36 14 -53 41q-19 27 -27 71l-3 26l-3 27q0 24 4 47q2 11 4 23q3 21 4 26q70 316 275 316q44 0 75 -15q35 -13 51 -42q17 -29 17 -66l-4 -39z" />
    <glyph glyph-name="quoteleft" unicode="&#x2018;" horiz-adv-x="223" 
d="M166 471h104l21 105h-53q12 47 27 72q13 26 48 30l9 47q-105 -21 -134 -149z" />
    <glyph glyph-name="quoteright" unicode="&#x2019;" horiz-adv-x="223" 
d="M160 512l-10 -49q36 7 65 30q27 20 47 52q17 32 25 69l24 106h-104l-23 -107h52q-17 -94 -76 -101z" />
    <glyph glyph-name="quotedblleft" unicode="&#x201c;" horiz-adv-x="332" 
d="M303 469h103l24 107h-55q14 49 29 72q15 25 47 30l10 47q-49 -6 -86 -46t-51 -103zM137 469h105l22 107h-53q19 95 74 102l10 47q-45 -6 -82 -43q-38 -38 -51 -100z" />
    <glyph glyph-name="quotedblright" unicode="&#x201d;" horiz-adv-x="332" 
d="M299 510l-10 -47q60 14 91 51q30 38 44 97l25 108h-105l-24 -108h53q-19 -94 -74 -101zM133 510l-10 -47q57 12 92 53t45 95l23 108h-105l-22 -108h53q-19 -93 -76 -101z" />
    <glyph glyph-name="bullet" unicode="&#x2022;" horiz-adv-x="350" 
d="M408 359l2 34q0 37 -16 65q-15 27 -44 44q-28 16 -65 16q-53 0 -95 -27q-44 -29 -67 -71q-25 -42 -34 -94q0 -26 11 -50q7 -21 26 -40q36 -35 91 -35q43 0 85 21q42 22 70 59q29 38 36 78z" />
    <glyph glyph-name="endash" unicode="&#x2013;" horiz-adv-x="1000" 
d="M1051 240l13 73h-998l-13 -73h998z" />
    <glyph glyph-name="emdash" unicode="&#x2014;" 
d="M66 313l-15 -73h556l16 73h-557z" />
    <glyph glyph-name="tilde" unicode="&#x2dc;" horiz-adv-x="332" 
d="M439 723q-4 -20 -19 -35q-16 -14 -37 -14q-19 3 -37 10l-43 19q-27 12 -55 12t-51 -13q-24 -13 -42 -39q-20 -26 -30 -58h47q10 20 23 33q10 12 34 12q9 0 29 -5l55 -20q18 -7 56 -12q80 0 121 110h-51z" />
    <glyph glyph-name="trademark" unicode="&#x2122;" horiz-adv-x="1000" 
d="M711 719h-113l-88 -414h72l74 336l59 -336h49l203 336l-72 -336h74l88 414h-114l-179 -305zM525 719h-326l-13 -61h127l-75 -353h73l74 353h129z" />
    <glyph glyph-name="scaron" unicode="&#x161;" horiz-adv-x="550" 
d="M527 375l1 11l1 18q0 36 -13 62q-12 29 -50 52q-37 21 -105 21q-51 0 -101 -18q-51 -20 -85 -57q-35 -38 -46 -93l-2 -15l-2 -16q0 -73 98 -96l95 -25q48 -10 69 -24q21 -15 21 -39q0 -32 -21 -53q-22 -21 -53 -31q-33 -11 -64 -11q-122 0 -122 82l4 25h-84
q-4 -23 -4 -33q-1 -6 -1 -18q0 -133 191 -133q56 0 116 26q57 25 94 73q36 47 36 106q0 42 -28 67q-26 24 -91 41l-84 21q-24 6 -39 12q-12 4 -25 11q-20 12 -20 30q24 92 123 92q107 0 107 -67l-1 -11l-1 -10h86zM389 637l-45 94h-82l69 -142h95l129 142h-79z" />
    <glyph glyph-name="guilsinglright" unicode="&#x203a;" horiz-adv-x="332" 
d="M252 277l-123 -82l-20 -88l184 123l21 92l-130 123l-20 -88z" />
    <glyph glyph-name="oe" unicode="&#x153;" horiz-adv-x="943" 
d="M842 164q-6 -19 -29 -45q-10 -11 -25 -23q-13 -10 -30 -18q-37 -17 -72 -17q-61 0 -93 29t-32 86l2 17l2 21l3 18h385q12 59 12 108q0 67 -19 109q-19 43 -59 66q-40 22 -96 22q-24 0 -45 -3q-15 -2 -41 -8q-19 -6 -37 -14q-16 -7 -35 -20q-36 -23 -67 -60q-21 53 -65 79
q-46 26 -108 26q-92 0 -160 -50q-70 -50 -107 -129q-39 -82 -46 -170q0 -87 49 -145q50 -59 146 -59q22 0 52 5q27 5 55 15q59 21 102 82q48 -102 172 -102q91 0 170 48q78 46 104 132h-88zM582 303q11 43 39 77q27 34 65 57q37 22 78 22q115 0 115 -113q0 -23 -4 -43h-293z
M182 262q16 73 63 136t130 63q117 0 117 -139q0 -57 -24 -119q-24 -61 -69 -102q-44 -40 -108 -40q-57 0 -87 34q-30 35 -30 100q0 3 1 7q1 17 3 30q1 15 4 30z" />
    <glyph glyph-name="Ydieresis" unicode="&#x178;" horiz-adv-x="754" 
d="M285 0h98l60 289l364 430h-114l-281 -346l-133 346h-111l178 -428zM391 899l-23 -102h92l21 102h-90zM554 899l-22 -102h90l21 102h-89z" />
    <glyph glyph-name="exclamdown" unicode="&#xa1;" horiz-adv-x="332" 
d="M217 352l-92 -317l-49 -230h98l49 234l43 313h-49zM229 523l-22 -103h96l23 103h-97z" />
    <glyph glyph-name="cent" unicode="&#xa2;" 
d="M262 61l191 386q47 -20 47 -103h82l1 26q0 119 -93 153l47 100h-39l-45 -92q-25 6 -55 6q-69 0 -124 -31q-56 -32 -94 -83q-40 -53 -62 -119q-13 -40 -18 -68q-6 -28 -6 -62q0 -114 95 -176l-58 -113h41l51 103q32 -6 64 -6q56 0 106 22q52 21 93 67q42 47 67 111h-86
q-6 -25 -27 -53q-24 -30 -56 -51q-35 -23 -81 -23zM229 76q-43 37 -43 110q0 31 4 52q5 25 9 41q11 47 38 89q29 45 68 69q38 25 84 25l29 -3z" />
    <glyph glyph-name="sterling" unicode="&#xa3;" 
d="M184 379h-71l-13 -63h107q6 -19 6 -45q0 -106 -164 -214l35 -69l51 24q38 15 74 15h16l5 -1q17 -2 27 -4q12 -3 25 -7q9 -1 30 -9l55 -15q28 -5 45 -5q66 0 135 45l-27 67q-26 -16 -45 -22q-26 -9 -43 -10q-19 0 -59 14l-53 18q-11 4 -22 4h-23q-58 0 -140 -38
q73 44 119 108q47 65 47 144h137l13 63h-166q-12 30 -18 57q-7 24 -7 48q0 46 23 83q23 35 60 54q41 22 85 22q17 0 46 -8q26 -7 47 -32q20 -26 20 -68l-4 -45h88q6 32 6 67q0 160 -199 160q-23 0 -51 -5q-29 -7 -50 -16q-49 -19 -85 -51q-35 -29 -59 -76q-23 -46 -23 -96
q0 -21 6 -45q4 -20 14 -49z" />
    <glyph glyph-name="currency" unicode="&#xa4;" 
d="M607 604l-68 -57q-21 25 -56 38t-79 13t-83 -13q-40 -13 -73 -38l-45 57l-58 -49l44 -55q-76 -69 -89 -207q0 -30 7 -51q7 -23 18 -43l-66 -56l35 -45l68 58q24 -27 60 -40q39 -14 77 -14q93 0 160 54l43 -58l57 45l-43 56q44 45 65 98q23 55 23 109q0 56 -26 94l68 55z
M180 352q11 47 42 87q32 39 77 64q45 24 92 24q40 0 71 -19q33 -20 49 -51q16 -30 16 -72q0 -53 -30 -103t-80 -80q-49 -30 -103 -30q-61 0 -99 41q-39 41 -39 101l2 19z" />
    <glyph glyph-name="yen" unicode="&#xa5;" 
d="M277 385h-154l-12 -59h192l-18 -84h-193l-12 -58h191l-39 -184h90l39 184h192l13 58h-193l20 84h191l14 59h-157l258 303h-99l-239 -295l-113 295h-100z" />
    <glyph glyph-name="brokenbar" unicode="&#xa6;" horiz-adv-x="277" 
d="M90 -20h72l55 247l108 511h-73l-55 -246z" />
    <glyph glyph-name="section" unicode="&#xa7;" 
d="M242 467q-35 -7 -68 -31q-33 -27 -52 -63q-20 -38 -20 -76l2 -16l1 -17q13 -60 79 -106l109 -86q72 -49 72 -97q0 -30 -18 -49q-21 -21 -47 -29q-27 -10 -56 -10q-80 0 -80 74l2 18l2 17h-86l-1 -3q-2 -11 -3 -20q-2 -9 -4 -25v-3q0 -61 39 -97q19 -18 47 -28
q30 -11 61 -11q53 0 110 23q54 22 90 66q36 43 36 94q0 43 -29 90q24 14 36 22q19 12 31 24q33 30 52 65t19 75l-5 48q-4 18 -20 40q-16 21 -55 51q-38 29 -105 70q-69 43 -74 95q0 36 35 62t74 26q80 0 80 -70q0 -9 -1 -16t-3 -19h86q6 26 6 52q0 41 -17 70t-50 44t-76 15
q-50 0 -89 -16q-40 -16 -72 -45q-31 -28 -49 -63q-10 -24 -13 -36q-5 -20 -5 -35q0 -20 8 -39t21 -35zM283 428l145 -102q52 -37 52 -88q0 -32 -25 -63q-24 -30 -70 -52l-153 115q-36 28 -41 71q0 36 30 72q12 14 31 30q18 13 31 17z" />
    <glyph glyph-name="dieresis" unicode="&#xa8;" horiz-adv-x="332" 
d="M191 707l-23 -102h92l21 102h-90zM354 707l-22 -102h90l21 102h-89z" />
    <glyph glyph-name="copyright" unicode="&#xa9;" horiz-adv-x="736" 
d="M365 -20q90 0 174 36q83 36 152 102q68 65 107 148q38 84 38 173q0 64 -22 118q-22 55 -66 97q-39 38 -96 60t-125 22q-81 0 -153 -28q-76 -29 -141 -79q-67 -52 -110 -121q-44 -71 -60 -149q-7 -31 -8 -41q-2 -18 -2 -41q0 -85 41 -153q42 -69 112 -106q71 -38 159 -38z
M139 359q18 86 74 160t136 114q81 41 165 41q74 0 129 -31t86 -86t31 -129q0 -75 -31 -143q-31 -70 -84 -124q-52 -53 -122 -86q-70 -32 -144 -32q-72 0 -130 32q-58 31 -89 86q-31 53 -31 124zM563 289q-12 -28 -31 -49q-24 -24 -50 -35q-28 -12 -58 -12q-54 0 -86 36
q-31 34 -31 87q11 89 56 149t129 60q46 0 74 -24t28 -65h66q0 78 -42 117t-114 39q-66 0 -122 -30q-57 -30 -95 -83q-37 -52 -51 -118q-3 -12 -5 -29v-2q-2 -18 -2 -27q0 -77 49 -126q49 -50 132 -50q67 0 129 44q61 43 90 118h-66z" />
    <glyph glyph-name="ordfeminine" unicode="&#xaa;" horiz-adv-x="369" 
d="M107 352l-7 -49h296l8 49h-297zM174 631h55q6 27 32 41t57 14q32 0 49 -10q18 -10 18 -30l-4 -13q-6 -18 -20 -24q-10 -4 -20 -5q-18 -2 -28 -2l-38 -2q-127 -13 -150 -121q0 -34 23 -54q21 -18 67 -23q32 0 68 14q35 14 69 39l-2 -16q1 -12 7 -20q4 -7 15 -10l23 -7
l22 4l17 4l9 43q-7 0 -11 -1q-7 -1 -12 -3q-7 2 -9 4q-2 1 -5 4l2 10l37 179l1 12l1 12q0 40 -31 53q-30 13 -90 13q-34 0 -67 -12q-31 -12 -56 -37q-23 -24 -29 -56zM369 570l-10 -47q-3 -18 -23 -33q-19 -16 -47 -24q-31 -11 -53 -11q-22 3 -30 11t-15 26q0 18 14 34
q15 15 32 19q15 4 55 7l52 7q18 4 25 11z" />
    <glyph glyph-name="guillemotleft" unicode="&#xab;" 
d="M166 322l-21 -92l132 -123l18 88l-88 82l123 80l20 88zM365 322l-19 -92l131 -123l19 88l-88 82l121 80l20 88z" />
    <glyph glyph-name="logicalnot" unicode="&#xac;" horiz-adv-x="584" 
d="M121 391l-16 -75h434l-45 -209h74l59 284h-506z" />
    <glyph glyph-name="registered" unicode="&#xae;" horiz-adv-x="736" 
d="M365 -20q90 0 174 36q83 36 152 102q68 65 107 148q38 84 38 173q0 64 -22 118q-22 55 -66 97q-39 38 -96 60t-125 22q-81 0 -153 -28q-76 -29 -141 -79q-67 -52 -110 -121q-44 -71 -60 -149q-7 -31 -8 -41q-2 -18 -2 -41q0 -85 41 -153q42 -69 112 -106q71 -38 159 -38z
M139 359q18 86 74 160t136 114q81 41 165 41q74 0 129 -31t86 -86t31 -129q0 -75 -31 -143q-31 -70 -84 -124q-52 -53 -122 -86q-70 -32 -144 -32q-72 0 -130 32q-58 31 -89 86q-31 53 -31 124zM359 330h77l76 -189h72l-82 191q62 8 102 51q39 42 39 103q0 48 -31 69t-98 21
h-168l-92 -435h66zM371 385l29 136h90q38 0 60 -9q22 -10 22 -39q0 -88 -121 -88h-80z" />
    <glyph glyph-name="degree" unicode="&#xb0;" horiz-adv-x="344" 
d="M142 807l-4 -26q0 -29 19 -48q20 -20 57 -20q26 0 50 11q23 11 38 26t25 37q9 23 9 44q0 9 -2 19l-4 12l-3 7q-5 11 -24 23q-16 9 -42 9q-31 0 -57 -14q-27 -14 -40 -35q-16 -19 -22 -45zM177 807q7 25 26 47q18 21 51 21q46 0 46 -47q0 -20 -9 -41q-10 -21 -28 -34
q-20 -14 -43 -14q-46 0 -46 45l2 14z" />
    <glyph glyph-name="plusminus" unicode="&#xb1;" horiz-adv-x="584" 
d="M328 344h-217l-15 -73h218l-35 -162h75l33 162h217l13 73h-215l36 162h-75zM39 0h506l16 72h-506z" />
    <glyph glyph-name="twosuperior" unicode="&#xb2;" horiz-adv-x="474" 
d="M106 2h97l153 719h-98zM17 786h76l246 114l98 -114h76l-121 141h-72z" />
    <glyph glyph-name="threesuperior" unicode="&#xb3;" horiz-adv-x="774" 
d="M131 240l-1 -6q-2 -15 -3 -25q-2 -13 -4 -34v-3q0 -91 65 -141q64 -49 189 -49q73 0 142 34q70 35 117 98q48 66 65 152l96 453h-96l-99 -465q-6 -26 -11 -38q-10 -24 -17 -36q-19 -34 -47 -59t-63 -39q-22 -9 -38 -12q-15 -4 -37 -4q-166 0 -166 135l5 31l2 22l100 465
h-98zM277 788h76l246 114l98 -114h76l-121 141h-72z" />
    <glyph glyph-name="acute" unicode="&#xb4;" horiz-adv-x="1018" 
d="M203 0h104l293 596l37 -596h103l342 719h-107l-258 -584h-4l-35 584h-106l-289 -584l-10 584h-105zM657 884l46 -94h81l-69 142h-94l-129 -142h79z" />
    <glyph glyph-name="mu" unicode="&#xb5;" horiz-adv-x="754" 
d="M285 0h98l60 289l364 430h-114l-281 -346l-133 346h-111l178 -428zM523 878l46 -94h81l-69 142h-94l-129 -142h79z" />
    <glyph glyph-name="paragraph" unicode="&#xb6;" horiz-adv-x="482" 
d="M142 0h88l112 523h-88zM3 594h76l246 114l98 -114h76l-121 141h-72z" />
    <glyph glyph-name="periodcentered" unicode="&#xb7;" horiz-adv-x="596" 
d="M490 0l2 12l108 511h-88l-61 -289q-8 -42 -29 -80q-22 -39 -61 -66t-91 -27q-82 0 -82 76l5 39l75 347h-88l-80 -377l-6 -44q0 -40 21 -69q23 -28 54 -38q33 -11 65 -11q60 0 104 23q20 9 43 29q17 15 41 40l-16 -76h84zM141 594h76l246 114l98 -114h76l-121 141h-72z
" />
    <glyph glyph-name="periodcentered" unicode="&#x2219;" horiz-adv-x="596" 
d="M490 0l2 12l108 511h-88l-61 -289q-8 -42 -29 -80q-22 -39 -61 -66t-91 -27q-82 0 -82 76l5 39l75 347h-88l-80 -377l-6 -44q0 -40 21 -69q23 -28 54 -38q33 -11 65 -11q60 0 104 23q20 9 43 29q17 15 41 40l-16 -76h84zM141 594h76l246 114l98 -114h76l-121 141h-72z
" />
    <glyph glyph-name="cedilla" unicode="&#xb8;" horiz-adv-x="774" 
d="M164 0h92l187 406h4l20 -406h92l5 12l256 511h-88l-193 -410l-2 -2l-14 412h-99l-190 -412l-13 412h-96l2 -11zM495 688l46 -94h81l-69 142h-94l-129 -142h79z" />
    <glyph glyph-name="onesuperior" unicode="&#xb9;" horiz-adv-x="564" 
d="M504 523l-233 -425l-48 425h-102l82 -537l-53 -83q-15 -23 -30 -30q-16 -8 -38 -8q-25 0 -51 8l-15 -80q24 -8 66 -8q37 0 66 17q28 16 64 66q44 62 91 142l97 164l87 149l113 200h-96zM393 688l46 -94h81l-69 142h-94l-129 -142h79z" />
    <glyph glyph-name="ordmasculine" unicode="&#xba;" horiz-adv-x="365" 
d="M461 570q6 30 6 53q0 62 -35 88q-35 25 -92 25q-41 0 -80 -15t-70 -52q-32 -37 -45 -99l-6 -49q0 -59 38 -88t91 -29q66 0 121 39q56 39 72 127zM395 570q-7 -43 -36 -78q-27 -35 -80 -35q-72 0 -72 74q18 155 121 155q70 0 70 -77l-1 -20zM109 352l-9 -49h296l10 49
h-297z" />
    <glyph glyph-name="guillemotright" unicode="&#xbb;" 
d="M260 277l-121 -82l-20 -88l184 123l19 92l-131 123l-19 -88zM461 277l-123 -82l-18 -88l184 123l17 92l-128 123l-20 -88z" />
    <glyph glyph-name="onequarter" unicode="&#xbc;" horiz-adv-x="834" 
d="M439 94h206l-20 -94h64l20 94h66l12 56h-66l58 272h-64l-264 -268zM656 150h-142l183 188zM803 703h-59l-596 -723h59zM303 580l-63 -299h69l89 422h-54q-14 -32 -32 -50q-18 -16 -39 -21q-19 -5 -34 -7q-16 -2 -34 -2l-10 -43h108z" />
    <glyph glyph-name="onehalf" unicode="&#xbd;" horiz-adv-x="834" 
d="M766 703h-57l-596 -723h57zM273 576l-62 -295h70l90 422h-57q-12 -30 -31 -49q-19 -18 -39 -22l-15 -3l-20 -4q-18 -2 -35 -2l-8 -47h107zM586 270q10 28 17 41q9 19 32 36q22 16 60 16q73 0 73 -49q0 -28 -15 -51q-16 -19 -36 -33q-26 -17 -57 -31l-66 -33
q-55 -27 -88 -64q-36 -39 -53 -102h320l12 61h-244q34 40 96 70l51 23q67 30 110 70q40 37 40 96q0 48 -33 75t-88 27q-60 0 -115 -31q-56 -32 -75 -121h59z" />
    <glyph glyph-name="threequarters" unicode="&#xbe;" horiz-adv-x="834" 
d="M492 94h207l-19 -94h62l22 94h66l12 56h-67l57 272h-62l-264 -268zM752 338l-41 -188h-145zM861 703h-56l-596 -723h57zM131 410l-2 -25q0 -57 35 -86t90 -29q50 0 95 19q46 20 75 55q29 38 29 86q0 56 -57 72q35 14 57 43q22 28 22 66q0 43 -31 68q-31 24 -89 24
q-55 0 -94 -21t-57 -51q-21 -32 -28 -67h60q22 81 98 81q68 0 68 -45q0 -40 -28 -59q-29 -20 -67 -20h-28l-11 -50h23q40 0 65 -9t25 -44q0 -45 -34 -67q-35 -23 -79 -23q-40 0 -55 17q-16 16 -16 42l2 23h-68z" />
    <glyph glyph-name="questiondown" unicode="&#xbf;" horiz-adv-x="611" 
d="M344 342q-9 -64 -39 -101q-29 -38 -86 -81q-55 -43 -86 -74q-30 -33 -43 -86l-4 -28l-2 -19q0 -26 6 -45q6 -20 18 -39q23 -36 62 -53q38 -18 87 -18l24 1q56 6 107 30q50 24 90 74q39 51 55 130h-86q-19 -83 -63 -120q-44 -38 -97 -38q-48 0 -78 24q-31 22 -31 64
q0 60 70 127l57 50q31 27 60 56q22 22 40 57q21 39 29 89h-90zM377 525l-22 -103h96l24 103h-98z" />
    <glyph glyph-name="Agrave" unicode="&#xc0;" horiz-adv-x="668" 
d="M14 0h99l119 209h289l28 -209h105l-107 719h-109zM281 295l186 316l39 -316h-225zM469 793h66l-59 140h-107z" />
    <glyph glyph-name="Aacute" unicode="&#xc1;" horiz-adv-x="668" 
d="M14 0h99l119 209h289l28 -209h105l-107 719h-109zM281 295l186 316l39 -316h-225zM584 933l-119 -140h66l161 140h-108z" />
    <glyph glyph-name="Acircumflex" unicode="&#xc2;" horiz-adv-x="668" 
d="M14 0h99l119 209h289l28 -209h105l-107 719h-109zM281 295l186 316l39 -316h-225zM528 885l46 -94h81l-69 142h-94l-129 -142h79z" />
    <glyph glyph-name="Atilde" unicode="&#xc3;" horiz-adv-x="668" 
d="M14 0h99l119 209h289l28 -209h105l-107 719h-109zM281 295l186 316l39 -316h-225zM656 922q-4 -20 -19 -35q-16 -14 -37 -14q-19 3 -37 10l-43 19q-27 12 -55 12t-51 -13q-24 -13 -42 -39q-20 -26 -30 -58h47q10 20 23 33q11 12 34 12q9 0 29 -5l55 -20q18 -7 56 -12
q80 0 121 110h-51z" />
    <glyph glyph-name="Adieresis" unicode="&#xc4;" horiz-adv-x="668" 
d="M14 0h99l119 209h289l28 -209h105l-107 719h-109zM281 295l186 316l39 -316h-225zM408 906l-23 -102h92l21 102h-90zM571 906l-22 -102h90l21 102h-89z" />
    <glyph glyph-name="Aring" unicode="&#xc5;" horiz-adv-x="668" 
d="M14 0h99l119 209h289l28 -209h105l-107 719h-109zM281 295l186 316l39 -316h-225zM453 906q-22 -28 -25 -64q0 -63 80 -71q11 0 28 5q12 4 26 11q23 13 40 38q15 24 15 54q0 33 -20 54q-21 20 -54 20q-55 0 -90 -47zM490 894q20 20 43 20q20 0 32 -12q11 -13 11 -31
q0 -25 -19 -41q-20 -17 -43 -20q-18 3 -29 12q-11 8 -14 29q5 30 19 43z" />
    <glyph glyph-name="AE" unicode="&#xc6;" horiz-adv-x="1000" 
d="M235 209h265l-43 -209h494l18 86h-398l52 240h356l19 86h-355l45 219h390l20 88h-645l-446 -719h106zM520 295h-231l205 336h97z" />
    <glyph glyph-name="Ccedilla" unicode="&#xc7;" horiz-adv-x="723" 
d="M322 -18l-66 -68l14 -19l35 7q45 -5 45 -29t-22 -37q-23 -14 -45 -14q-28 0 -62 14l-24 -39q53 -24 96 -24q50 0 92 30q41 30 41 78q0 27 -18 45q-20 17 -49 17l-33 -6l41 43q55 0 104 15q50 16 90 40q78 46 116 106q40 57 59 123h-93q-27 -78 -73 -121t-94 -60
q-49 -17 -89 -17q-90 0 -135 57q-45 56 -45 143q6 65 27 134q20 70 57 125q22 33 43 52q21 21 49 39q55 34 127 34q74 0 126 -30t52 -118h93q0 234 -252 234q-65 0 -134 -27q-70 -27 -129 -79t-100 -129q-41 -78 -53 -171l-3 -40l-3 -38q0 -131 58 -195q59 -65 157 -75z" />
    <glyph glyph-name="Egrave" unicode="&#xc8;" horiz-adv-x="668" 
d="M86 0h529l20 86h-434l51 240h393l19 86h-393l45 221h428l18 86h-524zM475 789h66l-59 140h-107z" />
    <glyph glyph-name="Eacute" unicode="&#xc9;" horiz-adv-x="668" 
d="M86 0h529l20 86h-434l51 240h393l19 86h-393l45 221h428l18 86h-524zM572 929l-119 -140h66l161 140h-108z" />
    <glyph glyph-name="Ecircumflex" unicode="&#xca;" horiz-adv-x="668" 
d="M86 0h529l20 86h-434l51 240h393l19 86h-393l45 221h428l18 86h-524zM516 881l46 -94h81l-69 142h-94l-129 -142h79z" />
    <glyph glyph-name="Edieresis" unicode="&#xcb;" horiz-adv-x="668" 
d="M86 0h529l20 86h-434l51 240h393l19 86h-393l45 221h428l18 86h-524zM396 902l-23 -102h92l21 102h-90zM559 902l-22 -102h90l21 102h-89z" />
    <glyph glyph-name="Igrave" unicode="&#xcc;" horiz-adv-x="277" 
d="M92 0h97l153 719h-98zM276 789h66l-59 140h-107z" />
    <glyph glyph-name="Iacute" unicode="&#xcd;" horiz-adv-x="277" 
d="M92 0h97l153 719h-98zM373 929l-119 -140h66l161 140h-108z" />
    <glyph glyph-name="Icircumflex" unicode="&#xce;" horiz-adv-x="277" 
d="M92 0h97l153 719h-98zM317 881l46 -94h81l-69 142h-94l-129 -142h79z" />
    <glyph glyph-name="Idieresis" unicode="&#xcf;" horiz-adv-x="277" 
d="M92 0h97l153 719h-98zM197 902l-23 -102h92l22 102h-91zM360 902l-22 -102h90l22 102h-90z" />
    <glyph glyph-name="Eth" unicode="&#xd0;" horiz-adv-x="723" 
d="M80 0h293q85 0 158 40q73 41 124 107q52 68 80 148q29 84 29 162q0 69 -21 127q-21 59 -67 96t-117 37h-325l-66 -305h-82l-18 -86h80zM197 84l51 240h186l19 88h-185l45 221h214q45 0 76 -27q30 -26 44 -69q13 -40 13 -94q0 -47 -10 -88q-10 -43 -33 -90
q-26 -53 -53 -89q-35 -44 -71 -67q-37 -25 -81 -25h-215z" />
    <glyph glyph-name="Ntilde" unicode="&#xd1;" horiz-adv-x="723" 
d="M76 0h94l125 580l240 -580h111l153 719h-94l-125 -580l-236 580h-115zM685 877q-4 -20 -19 -35q-16 -14 -37 -14q-19 3 -37 10l-43 19q-27 12 -55 12t-51 -13q-24 -13 -42 -39q-20 -26 -30 -58h47q10 20 23 33q11 12 34 12q9 0 29 -5l55 -20q18 -7 56 -12q80 0 121 110
h-51z" />
    <glyph glyph-name="Ograve" unicode="&#xd2;" horiz-adv-x="777" 
d="M105 283q0 -81 19 -135q19 -56 57 -94q39 -38 91 -56q53 -18 123 -18q93 0 171 40q80 39 138 108q57 66 89 153q19 52 25 87q8 43 8 87q0 72 -19 123q-19 53 -55 88q-38 35 -91 54q-55 18 -126 18q-122 0 -223 -72q-51 -37 -87 -79q-38 -43 -65 -97q-55 -105 -55 -207z
M215 363q15 70 56 137q42 67 109 109q68 43 155 43q27 0 54 -8q26 -9 48 -24q44 -28 66 -75t22 -107q0 -71 -24 -137q-25 -67 -70 -119q-45 -53 -103 -84q-59 -32 -126 -32q-103 0 -150 63q-47 64 -47 150q0 14 2 32q0 5 4 26q3 17 4 26zM516 748h66l-59 140h-107z" />
    <glyph glyph-name="Oacute" unicode="&#xd3;" horiz-adv-x="777" 
d="M105 283q0 -81 19 -135q19 -56 57 -94q39 -38 91 -56q53 -18 123 -18q93 0 171 40q80 39 138 108q57 66 89 153q19 52 25 87q8 43 8 87q0 72 -19 123q-19 53 -55 88q-38 35 -91 54q-55 18 -126 18q-122 0 -223 -72q-51 -37 -87 -79q-38 -43 -65 -97q-55 -105 -55 -207z
M215 363q15 70 56 137q42 67 109 109q68 43 155 43q27 0 54 -8q26 -9 48 -24q44 -28 66 -75t22 -107q0 -71 -24 -137q-25 -67 -70 -119q-45 -53 -103 -84q-59 -32 -126 -32q-103 0 -150 63q-47 64 -47 150q0 14 2 32q0 5 4 26q3 17 4 26zM613 888l-119 -140h66l161 140h-108
z" />
    <glyph glyph-name="Ocircumflex" unicode="&#xd4;" horiz-adv-x="777" 
d="M105 283q0 -81 19 -135q19 -56 57 -94q39 -38 91 -56q53 -18 123 -18q93 0 171 40q80 39 138 108q57 66 89 153q19 52 25 87q8 43 8 87q0 72 -19 123q-19 53 -55 88q-38 35 -91 54q-55 18 -126 18q-122 0 -223 -72q-51 -37 -87 -79q-38 -43 -65 -97q-55 -105 -55 -207z
M215 363q15 70 56 137q42 67 109 109q68 43 155 43q27 0 54 -8q26 -9 48 -24q44 -28 66 -75t22 -107q0 -71 -24 -137q-25 -67 -70 -119q-45 -53 -103 -84q-59 -32 -126 -32q-103 0 -150 63q-47 64 -47 150q0 14 2 32q0 5 4 26q3 17 4 26zM577 885l46 -94h81l-69 142h-94
l-129 -142h79z" />
    <glyph glyph-name="Otilde" unicode="&#xd5;" horiz-adv-x="777" 
d="M105 283q0 -81 19 -135q19 -56 57 -94q39 -38 91 -56q53 -18 123 -18q93 0 171 40q80 39 138 108q57 66 89 153q19 52 25 87q8 43 8 87q0 72 -19 123q-19 53 -55 88q-38 35 -91 54q-55 18 -126 18q-122 0 -223 -72q-51 -37 -87 -79q-38 -43 -65 -97q-55 -105 -55 -207z
M215 363q15 70 56 137q42 67 109 109q68 43 155 43q27 0 54 -8q26 -9 48 -24q44 -28 66 -75t22 -107q0 -71 -24 -137q-25 -67 -70 -119q-45 -53 -103 -84q-59 -32 -126 -32q-103 0 -150 63q-47 64 -47 150q0 14 2 32q0 5 4 26q3 17 4 26zM705 922q-4 -20 -19 -35
q-16 -14 -37 -14q-19 3 -37 10l-43 19q-27 12 -55 12t-51 -13q-24 -13 -42 -39q-20 -26 -30 -58h47q10 20 23 33q11 12 34 12q9 0 29 -5l55 -20q18 -7 56 -12q80 0 121 110h-51z" />
    <glyph glyph-name="Odieresis" unicode="&#xd6;" horiz-adv-x="777" 
d="M105 283q0 -81 19 -135q19 -56 57 -94q39 -38 91 -56q53 -18 123 -18q93 0 171 40q80 39 138 108q57 66 89 153q19 52 25 87q8 43 8 87q0 72 -19 123q-19 53 -55 88q-38 35 -91 54q-55 18 -126 18q-122 0 -223 -72q-51 -37 -87 -79q-38 -43 -65 -97q-55 -105 -55 -207z
M215 363q15 70 56 137q42 67 109 109q68 43 155 43q27 0 54 -8q26 -9 48 -24q44 -28 66 -75t22 -107q0 -71 -24 -137q-25 -67 -70 -119q-45 -53 -103 -84q-59 -32 -126 -32q-103 0 -150 63q-47 64 -47 150q0 14 2 32q0 5 4 26q3 17 4 26zM457 906l-23 -102h92l21 102h-90z
M620 906l-22 -102h90l21 102h-89z" />
    <glyph glyph-name="multiply" unicode="&#xd7;" horiz-adv-x="594" 
d="M105 484l169 -139l-174 -137l57 -48l173 139l167 -138l56 47l-165 137l173 139l-57 46l-174 -138l-167 138z" />
    <glyph glyph-name="Oslash" unicode="&#xd8;" horiz-adv-x="777" 
d="M891 707l-26 29l-99 -88q-67 88 -221 88q-95 0 -170 -34q-77 -35 -131 -93q-53 -57 -85 -123q-33 -69 -43 -120q-12 -54 -12 -106q0 -46 11 -88q11 -41 30 -74l-102 -90l25 -28l98 86q74 -86 219 -86q97 0 175 40q80 39 140 107q59 68 92 155q32 87 32 175q0 97 -37 158z
M705 543q18 -40 18 -102q0 -94 -40 -178q-40 -86 -113 -142q-73 -55 -168 -55q-103 0 -156 71zM225 170q-10 25 -14 48q-6 26 -6 55q0 26 4 47q3 24 6 39q13 59 43 116q30 56 68 93q40 39 91 61q51 21 110 21q107 0 161 -72z" />
    <glyph glyph-name="Ugrave" unicode="&#xd9;" horiz-adv-x="723" 
d="M131 240l-1 -6q-2 -15 -3 -25q-2 -13 -4 -34v-3q0 -91 65 -141q64 -49 189 -49q73 0 142 34q70 35 117 98q48 66 65 152l96 453h-96l-99 -465q-6 -26 -11 -38q-10 -24 -17 -36q-19 -34 -47 -59t-63 -39q-22 -9 -38 -12q-15 -4 -37 -4q-166 0 -166 135l5 31l2 22l100 465
h-98zM502 793h66l-59 140h-107z" />
    <glyph glyph-name="Uacute" unicode="&#xda;" horiz-adv-x="723" 
d="M131 240l-1 -6q-2 -15 -3 -25q-2 -13 -4 -34v-3q0 -91 65 -141q64 -49 189 -49q73 0 142 34q70 35 117 98q48 66 65 152l96 453h-96l-99 -465q-6 -26 -11 -38q-10 -24 -17 -36q-19 -34 -47 -59t-63 -39q-22 -9 -38 -12q-15 -4 -37 -4q-166 0 -166 135l5 31l2 22l100 465
h-98zM599 933l-119 -140h66l161 140h-108z" />
    <glyph glyph-name="Ucircumflex" unicode="&#xdb;" horiz-adv-x="723" 
d="M131 240l-1 -6q-2 -15 -3 -25q-2 -13 -4 -34v-3q0 -91 65 -141q64 -49 189 -49q73 0 142 34q70 35 117 98q48 66 65 152l96 453h-96l-99 -465q-6 -26 -11 -38q-10 -24 -17 -36q-19 -34 -47 -59t-63 -39q-22 -9 -38 -12q-15 -4 -37 -4q-166 0 -166 135l5 31l2 22l100 465
h-98zM543 885l46 -94h81l-69 142h-94l-129 -142h79z" />
    <glyph glyph-name="Udieresis" unicode="&#xdc;" horiz-adv-x="723" 
d="M131 240l-1 -6q-2 -15 -3 -25q-2 -13 -4 -34v-3q0 -91 65 -141q64 -49 189 -49q73 0 142 34q70 35 117 98q48 66 65 152l96 453h-96l-99 -465q-6 -26 -11 -38q-10 -24 -17 -36q-19 -34 -47 -59t-63 -39q-22 -9 -38 -12q-15 -4 -37 -4q-166 0 -166 135l5 31l2 22l100 465
h-98zM423 906l-23 -102h92l21 102h-90zM586 906l-22 -102h90l21 102h-89z" />
    <glyph glyph-name="Yacute" unicode="&#xdd;" horiz-adv-x="668" 
d="M285 0h98l60 289l364 430h-114l-281 -346l-133 346h-111l178 -428zM599 933l-119 -140h66l161 140h-108z" />
    <glyph glyph-name="Thorn" unicode="&#xde;" horiz-adv-x="668" 
d="M86 0h98l37 184h234q70 0 129 37q58 36 93 95q34 58 34 127q0 77 -46 117t-126 40h-230l27 119h-98zM238 268l55 246l207 2q42 0 76 -18q33 -19 33 -70q0 -47 -22 -82q-22 -37 -61 -58q-38 -22 -85 -22z" />
    <glyph glyph-name="germandbls" unicode="&#xdf;" horiz-adv-x="611" 
d="M66 0h88l108 510q17 71 55 106q38 36 119 36q40 0 73 -11q31 -14 44 -34t13 -48q0 -45 -28 -75q-27 -30 -70 -44q-44 -14 -83 -14l-11 1l-13 1l-17 -78q11 4 41 4q144 0 144 -102l-4 -39q-16 -75 -67 -112q-53 -38 -134 -38l-45 3l-15 -74q30 -8 52 -8q60 0 115 21
q57 22 100 60q42 38 68 91q24 53 24 114q0 28 -9 55q-1 2 -1 3l-12 24q-8 12 -16 20q-20 21 -46 28q35 18 62 47q26 30 41 66q14 37 14 73q0 44 -24 77q-26 34 -71 50t-108 16q-75 0 -131 -25q-58 -26 -92 -69q-36 -46 -50 -104l-6 -19z" />
    <glyph glyph-name="agrave" unicode="&#xe0;" 
d="M414 318q-63 -6 -137 -16q-51 -7 -97 -25q-42 -16 -71 -50q-30 -32 -43 -88l-3 -19l-2 -20q0 -53 40 -84q41 -32 104 -32q30 0 68 11q5 1 9 3q22 7 28 10q7 2 24 12l8 4q37 21 62 46l-4 -21q0 -57 77 -57q33 0 54 10l14 61q-18 0 -33 -4q-24 5 -24 17l4 18l63 299
q1 2 2 6t2 9v16q0 53 -42 84q-43 31 -136 31q-72 0 -123 -24q-50 -25 -79 -63q-30 -39 -40 -87h82q19 61 56 81q35 19 82 19q112 0 112 -67l-1 -8l-1 -7l-6 -18q-3 -18 -16 -31t-33 -16zM156 129q0 45 30 69q29 24 55 28l100 16q73 10 100 24l-21 -92q-12 -56 -66 -85
q-31 -15 -56 -22q-32 -8 -60 -8l-8 -2q-40 0 -57 18q-17 19 -17 54zM383 594h66l-59 140h-107z" />
    <glyph glyph-name="aacute" unicode="&#xe1;" 
d="M414 318q-63 -6 -137 -16q-51 -7 -97 -25q-42 -16 -71 -50q-30 -32 -43 -88l-3 -19l-2 -20q0 -53 40 -84q41 -32 104 -32q30 0 68 11q5 1 9 3q22 7 28 10q7 2 24 12l8 4q37 21 62 46l-4 -21q0 -57 77 -57q33 0 54 10l14 61q-18 0 -33 -4q-24 5 -24 17l4 18l63 299
q1 2 2 6t2 9v16q0 53 -42 84q-43 31 -136 31q-72 0 -123 -24q-50 -25 -79 -63q-30 -39 -40 -87h82q19 61 56 81q35 19 82 19q112 0 112 -67l-1 -8l-1 -7l-6 -18q-3 -18 -16 -31t-33 -16zM156 129q0 45 30 69q29 24 55 28l100 16q73 10 100 24l-21 -92q-12 -56 -66 -85
q-31 -15 -56 -22q-32 -8 -60 -8l-8 -2q-40 0 -57 18q-17 19 -17 54zM480 734l-119 -140h66l161 140h-108z" />
    <glyph glyph-name="acircumflex" unicode="&#xe2;" 
d="M414 318q-63 -6 -137 -16q-51 -7 -97 -25q-42 -16 -71 -50q-30 -32 -43 -88l-3 -19l-2 -20q0 -53 40 -84q41 -32 104 -32q30 0 68 11q5 1 9 3q22 7 28 10q7 2 24 12l8 4q37 21 62 46l-4 -21q0 -57 77 -57q33 0 54 10l14 61q-18 0 -33 -4q-24 5 -24 17l4 18l63 299
q1 2 2 6t2 9v16q0 53 -42 84q-43 31 -136 31q-72 0 -123 -24q-50 -25 -79 -63q-30 -39 -40 -87h82q19 61 56 81q35 19 82 19q112 0 112 -67l-1 -8l-1 -7l-6 -18q-3 -18 -16 -31t-33 -16zM156 129q0 45 30 69q29 24 55 28l100 16q73 10 100 24l-21 -92q-12 -56 -66 -85
q-31 -15 -56 -22q-32 -8 -60 -8l-8 -2q-40 0 -57 18q-17 19 -17 54zM424 688l46 -94h81l-69 142h-94l-129 -142h79z" />
    <glyph glyph-name="atilde" unicode="&#xe3;" 
d="M414 318q-63 -6 -137 -16q-51 -7 -97 -25q-42 -16 -71 -50q-30 -32 -43 -88l-3 -19l-2 -20q0 -53 40 -84q41 -32 104 -32q30 0 68 11q5 1 9 3q22 7 28 10q7 2 24 12l8 4q37 21 62 46l-4 -21q0 -57 77 -57q33 0 54 10l14 61q-18 0 -33 -4q-24 5 -24 17l4 18l63 299
q1 2 2 6t2 9v16q0 53 -42 84q-43 31 -136 31q-72 0 -123 -24q-50 -25 -79 -63q-30 -39 -40 -87h82q19 61 56 81q35 19 82 19q112 0 112 -67l-1 -8l-1 -7l-6 -18q-3 -18 -16 -31t-33 -16zM156 129q0 45 30 69q29 24 55 28l100 16q73 10 100 24l-21 -92q-12 -56 -66 -85
q-31 -15 -56 -22q-32 -8 -60 -8l-8 -2q-40 0 -57 18q-17 19 -17 54zM543 725q-4 -20 -19 -35q-16 -14 -37 -14q-19 3 -37 10l-43 19q-27 12 -55 12t-51 -13q-24 -13 -42 -39q-20 -26 -30 -58h47q10 20 23 33q11 12 34 12q9 0 29 -5l55 -20q18 -7 56 -12q80 0 121 110h-51z
" />
    <glyph glyph-name="adieresis" unicode="&#xe4;" 
d="M414 318q-63 -6 -137 -16q-51 -7 -97 -25q-42 -16 -71 -50q-30 -32 -43 -88l-3 -19l-2 -20q0 -53 40 -84q41 -32 104 -32q30 0 68 11q5 1 9 3q22 7 28 10q7 2 24 12l8 4q37 21 62 46l-4 -21q0 -57 77 -57q33 0 54 10l14 61q-18 0 -33 -4q-24 5 -24 17l4 18l63 299
q1 2 2 6t2 9v16q0 53 -42 84q-43 31 -136 31q-72 0 -123 -24q-50 -25 -79 -63q-30 -39 -40 -87h82q19 61 56 81q35 19 82 19q112 0 112 -67l-1 -8l-1 -7l-6 -18q-3 -18 -16 -31t-33 -16zM156 129q0 45 30 69q29 24 55 28l100 16q73 10 100 24l-21 -92q-12 -56 -66 -85
q-31 -15 -56 -22q-32 -8 -60 -8l-8 -2q-40 0 -57 18q-17 19 -17 54zM302 707l-23 -102h92l21 102h-90zM465 707l-22 -102h90l21 102h-89z" />
    <glyph glyph-name="aring" unicode="&#xe5;" 
d="M414 318q-63 -6 -137 -16q-51 -7 -97 -25q-42 -16 -71 -50q-30 -32 -43 -88l-3 -19l-2 -20q0 -53 40 -84q41 -32 104 -32q30 0 68 11q5 1 9 3q22 7 28 10q7 2 24 12l8 4q37 21 62 46l-4 -21q0 -57 77 -57q33 0 54 10l14 61q-18 0 -33 -4q-24 5 -24 17l4 18l63 299
q1 2 2 6t2 9v16q0 53 -42 84q-43 31 -136 31q-72 0 -123 -24q-50 -25 -79 -63q-30 -39 -40 -87h82q19 61 56 81q35 19 82 19q112 0 112 -67l-1 -8l-1 -7l-6 -18q-3 -18 -16 -31t-33 -16zM156 129q0 45 30 69q29 24 55 28l100 16q73 10 100 24l-21 -92q-12 -56 -66 -85
q-31 -15 -56 -22q-32 -8 -60 -8l-8 -2q-40 0 -57 18q-17 19 -17 54zM347 707q-22 -28 -25 -64q0 -63 80 -71q11 0 28 5q12 4 26 11q23 13 40 38q15 24 15 54q0 33 -20 54q-21 20 -54 20q-55 0 -90 -47zM384 695q20 20 43 20q20 0 32 -12q11 -13 11 -31q0 -25 -19 -41
q-20 -17 -43 -20q-18 3 -29 12q-11 8 -14 29q5 30 19 43z" />
    <glyph glyph-name="ae" unicode="&#xe6;" horiz-adv-x="889" 
d="M787 164q-6 -20 -28 -45q-20 -23 -58 -41q-35 -17 -72 -17q-121 0 -121 111q0 3 1 6q1 15 3 27q1 13 4 26v1h380q12 59 12 112q0 95 -42 144q-43 49 -130 49q-45 0 -84 -11q-36 -13 -58 -27l-47 -36q-29 39 -57 56q-31 18 -97 18q-210 0 -254 -174h80q11 26 24 48
q12 20 43 38q28 16 75 16q108 0 108 -67q0 -32 -16 -54q-17 -23 -45 -26l-150 -19q-162 -19 -194 -164l-5 -35q0 -32 18 -61q15 -27 49 -41q33 -14 71 -14q46 0 88 12q39 10 78 35q20 14 36 27q13 11 35 36q33 -110 168 -110q57 0 114 20q54 19 99 61q41 41 60 99h-88z
M529 303q8 32 23 57q17 28 43 51q23 21 51 34q30 14 61 14q114 0 114 -117l-1 -39h-291zM422 180q-6 -34 -36 -63q-26 -26 -67 -43q-43 -17 -85 -17q-80 0 -80 64l2 14l2 13q9 46 46 62q36 17 85 24q124 16 152 32z" />
    <glyph glyph-name="ccedilla" unicode="&#xe7;" horiz-adv-x="500" 
d="M260 -16q52 0 95 18t75 47q33 30 56 66q21 35 30 69h-86q-17 -49 -58 -85q-43 -38 -104 -38q-49 0 -74 37q-26 37 -26 91q0 33 7 61q5 26 20 64q25 63 73 105q46 40 101 40q61 0 79 -23q17 -23 17 -69v-21h86l3 40q0 55 -24 89q-26 35 -64 48q-40 14 -81 14
q-37 0 -68 -10q-32 -10 -68 -30q-65 -38 -109 -104q-45 -68 -60 -157l-6 -66q0 -74 33 -119q33 -46 110 -63l-74 -76l15 -17l16 3l19 4q45 -5 45 -31q0 -21 -20 -35t-46 -14q-25 0 -61 14l-25 -39q47 -22 96 -22q39 0 69 15t47 38q10 16 13 24q5 13 5 23q0 31 -19 50
q-19 18 -51 18l-31 -6z" />
    <glyph glyph-name="egrave" unicode="&#xe8;" 
d="M94 246l-10 -76q0 -85 50 -135q50 -51 141 -51q90 0 162 48q71 48 108 132h-88q-18 -41 -62 -72t-92 -31q-127 0 -127 115q1 4 1 9l3 21q1 11 3 24l1 4h382q12 56 12 112q0 89 -40 141t-132 52q-125 0 -206 -82t-106 -211zM197 303q12 49 42 83q28 34 67 54q37 19 73 19
q113 0 113 -115l-2 -41h-293zM381 594h66l-59 140h-107z" />
    <glyph glyph-name="eacute" unicode="&#xe9;" 
d="M94 246l-10 -76q0 -85 50 -135q50 -51 141 -51q90 0 162 48q71 48 108 132h-88q-18 -41 -62 -72t-92 -31q-127 0 -127 115q1 4 1 9l3 21q1 11 3 24l1 4h382q12 56 12 112q0 89 -40 141t-132 52q-125 0 -206 -82t-106 -211zM197 303q12 49 42 83q28 34 67 54q37 19 73 19
q113 0 113 -115l-2 -41h-293zM478 734l-119 -140h66l161 140h-108z" />
    <glyph glyph-name="ecircumflex" unicode="&#xea;" 
d="M94 246l-10 -76q0 -85 50 -135q50 -51 141 -51q90 0 162 48q71 48 108 132h-88q-18 -41 -62 -72t-92 -31q-127 0 -127 115q1 4 1 9l3 21q1 11 3 24l1 4h382q12 56 12 112q0 89 -40 141t-132 52q-125 0 -206 -82t-106 -211zM197 303q12 49 42 83q28 34 67 54q37 19 73 19
q113 0 113 -115l-2 -41h-293zM424 688l46 -94h81l-69 142h-94l-129 -142h79z" />
    <glyph glyph-name="edieresis" unicode="&#xeb;" 
d="M94 246l-10 -76q0 -85 50 -135q50 -51 141 -51q90 0 162 48q71 48 108 132h-88q-18 -41 -62 -72t-92 -31q-127 0 -127 115q1 4 1 9l3 21q1 11 3 24l1 4h382q12 56 12 112q0 89 -40 141t-132 52q-125 0 -206 -82t-106 -211zM197 303q12 49 42 83q28 34 67 54q37 19 73 19
q113 0 113 -115l-2 -41h-293zM304 707l-23 -102h92l21 102h-90zM467 707l-22 -102h90l21 102h-89z" />
    <glyph glyph-name="igrave" unicode="&#xec;" horiz-adv-x="277" 
d="M205 523l-111 -523h90l109 523h-88zM245 594h66l-59 140h-107z" />
    <glyph glyph-name="iacute" unicode="&#xed;" horiz-adv-x="277" 
d="M205 523l-111 -523h90l109 523h-88zM342 734l-119 -140h66l161 140h-108z" />
    <glyph glyph-name="icircumflex" unicode="&#xee;" horiz-adv-x="277" 
d="M205 523l-111 -523h90l109 523h-88zM286 688l46 -94h81l-69 142h-94l-129 -142h79z" />
    <glyph glyph-name="idieresis" unicode="&#xef;" horiz-adv-x="277" 
d="M205 523l-111 -523h90l109 523h-88zM164 707l-23 -102h92l21 102h-90zM327 707l-22 -102h90l21 102h-89z" />
    <glyph glyph-name="eth" unicode="&#xf0;" 
d="M617 697l-39 39l-117 -50q-39 36 -80 50l-82 -35q45 -20 78 -53l-129 -56l33 -41l137 60q66 -63 80 -142l-2 -2q-25 36 -55 46q-29 10 -66 10q-86 0 -151 -50t-101 -128q-22 -45 -32 -83q-11 -41 -11 -78q0 -87 51 -143q50 -57 152 -57q73 0 131 37q59 36 99 97
q38 59 61 132q21 71 21 139q0 73 -27 140q-25 66 -70 117zM180 254q7 38 30 82q22 42 63 77q40 34 100 34q63 0 89 -41t26 -99q0 -57 -24 -114q-25 -56 -69 -94t-104 -38q-117 0 -117 136z" />
    <glyph glyph-name="ntilde" unicode="&#xf1;" 
d="M568 355q6 30 6 53q0 50 -23 81q-23 30 -57 40q-33 10 -72 10q-58 0 -104 -28q-43 -27 -74 -62l16 74h-84l-2 -11l-110 -512h88l63 285q14 68 45 107q33 39 65 53q36 14 64 14q49 0 68 -19q20 -20 20 -59q0 -27 -6 -59l-67 -322h88zM543 725q-4 -20 -19 -35
q-16 -14 -37 -14q-19 3 -37 10l-43 19q-27 12 -55 12t-51 -13q-24 -13 -42 -39q-20 -26 -30 -58h47q10 20 23 33q11 12 34 12q9 0 29 -5l55 -20q18 -7 56 -12q80 0 121 110h-51z" />
    <glyph glyph-name="ograve" unicode="&#xf2;" 
d="M92 262q0 -1 -1 -6q-1 -14 -4 -27q-5 -25 -5 -43q0 -45 13 -80q12 -35 36 -64q48 -56 144 -56q64 0 123 29q58 29 99 79q20 22 38 54q17 30 26 58q12 35 17 63q6 32 6 63q0 56 -20 105q-19 47 -63 75q-43 27 -108 27q-80 0 -142 -40q-63 -40 -104 -103q-42 -65 -55 -134z
M182 262q17 74 64 137q46 64 131 64q115 0 115 -139q0 -29 -6 -61q-5 -29 -17 -60q-24 -61 -70 -100q-46 -40 -108 -40q-117 0 -117 132l4 39zM383 594h66l-59 140h-107z" />
    <glyph glyph-name="oacute" unicode="&#xf3;" 
d="M92 262q0 -1 -1 -6q-1 -14 -4 -27q-5 -25 -5 -43q0 -45 13 -80q12 -35 36 -64q48 -56 144 -56q64 0 123 29q58 29 99 79q20 22 38 54q17 30 26 58q12 35 17 63q6 32 6 63q0 56 -20 105q-19 47 -63 75q-43 27 -108 27q-80 0 -142 -40q-63 -40 -104 -103q-42 -65 -55 -134z
M182 262q17 74 64 137q46 64 131 64q115 0 115 -139q0 -29 -6 -61q-5 -29 -17 -60q-24 -61 -70 -100q-46 -40 -108 -40q-117 0 -117 132l4 39zM480 734l-119 -140h66l161 140h-108z" />
    <glyph glyph-name="ocircumflex" unicode="&#xf4;" 
d="M92 262q0 -1 -1 -6q-1 -14 -4 -27q-5 -25 -5 -43q0 -45 13 -80q12 -35 36 -64q48 -56 144 -56q64 0 123 29q58 29 99 79q20 22 38 54q17 30 26 58q12 35 17 63q6 32 6 63q0 56 -20 105q-19 47 -63 75q-43 27 -108 27q-80 0 -142 -40q-63 -40 -104 -103q-42 -65 -55 -134z
M182 262q17 74 64 137q46 64 131 64q115 0 115 -139q0 -29 -6 -61q-5 -29 -17 -60q-24 -61 -70 -100q-46 -40 -108 -40q-117 0 -117 132l4 39zM424 688l46 -94h81l-69 142h-94l-129 -142h79z" />
    <glyph glyph-name="otilde" unicode="&#xf5;" 
d="M92 262q0 -1 -1 -6q-1 -14 -4 -27q-5 -25 -5 -43q0 -45 13 -80q12 -35 36 -64q48 -56 144 -56q64 0 123 29q58 29 99 79q20 22 38 54q17 30 26 58q12 35 17 63q6 32 6 63q0 56 -20 105q-19 47 -63 75q-43 27 -108 27q-80 0 -142 -40q-63 -40 -104 -103q-42 -65 -55 -134z
M182 262q17 74 64 137q46 64 131 64q115 0 115 -139q0 -29 -6 -61q-5 -29 -17 -60q-24 -61 -70 -100q-46 -40 -108 -40q-117 0 -117 132l4 39zM552 725q-4 -20 -19 -35q-16 -14 -37 -14q-19 3 -37 10l-43 19q-27 12 -55 12t-51 -13q-24 -13 -42 -39q-20 -26 -30 -58h47
q10 20 23 33q11 12 34 12q9 0 29 -5l55 -20q18 -7 56 -12q80 0 121 110h-51z" />
    <glyph glyph-name="odieresis" unicode="&#xf6;" 
d="M92 262q0 -1 -1 -6q-1 -14 -4 -27q-5 -25 -5 -43q0 -45 13 -80q12 -35 36 -64q48 -56 144 -56q64 0 123 29q58 29 99 79q20 22 38 54q17 30 26 58q12 35 17 63q6 32 6 63q0 56 -20 105q-19 47 -63 75q-43 27 -108 27q-80 0 -142 -40q-63 -40 -104 -103q-42 -65 -55 -134z
M182 262q17 74 64 137q46 64 131 64q115 0 115 -139q0 -29 -6 -61q-5 -29 -17 -60q-24 -61 -70 -100q-46 -40 -108 -40q-117 0 -117 132l4 39zM302 707l-23 -102h92l21 102h-90zM465 707l-22 -102h90l21 102h-89z" />
    <glyph glyph-name="divide" unicode="&#xf7;" horiz-adv-x="446" 
d="M9 254h427l34 90h-431zM130 66h103l24 105h-106zM208 424h103l24 105h-106z" />
    <glyph glyph-name="oslash" unicode="&#xf8;" horiz-adv-x="611" 
d="M646 520l-25 25l-78 -72q-49 64 -150 64q-77 0 -142 -39q-64 -39 -105 -102q-42 -66 -56 -134q-1 -3 -1 -10q-1 -6 -1 -9q-1 -5 -1 -14q-3 -24 -5 -41q0 -34 7 -61q8 -28 18 -51l-78 -72l24 -27l76 68q48 -61 146 -61q65 0 122 30t100 82q41 50 64 113q12 35 17 63
q6 32 6 62q0 58 -21 107zM180 143l-2 13l-2 12v11l-2 14q6 69 28 129q21 60 64 100q42 39 109 39q69 0 100 -51zM486 373q6 -24 6 -53q0 -59 -25 -119q-26 -62 -69 -101q-45 -39 -107 -39q-67 0 -94 46z" />
    <glyph glyph-name="ugrave" unicode="&#xf9;" 
d="M490 0l2 12l108 511h-88l-61 -289q-8 -42 -29 -80q-22 -39 -61 -66t-91 -27q-82 0 -82 76l5 39l75 347h-88l-80 -377l-6 -44q0 -40 21 -69q23 -28 54 -38q33 -11 65 -11q60 0 104 23q20 9 43 29q17 15 41 40l-16 -76h84zM381 594h66l-59 140h-107z" />
    <glyph glyph-name="uacute" unicode="&#xfa;" 
d="M490 0l2 12l108 511h-88l-61 -289q-8 -42 -29 -80q-22 -39 -61 -66t-91 -27q-82 0 -82 76l5 39l75 347h-88l-80 -377l-6 -44q0 -40 21 -69q23 -28 54 -38q33 -11 65 -11q60 0 104 23q20 9 43 29q17 15 41 40l-16 -76h84zM478 734l-119 -140h66l161 140h-108z" />
    <glyph glyph-name="ucircumflex" unicode="&#xfb;" 
d="M490 0l2 12l108 511h-88l-61 -289q-8 -42 -29 -80q-22 -39 -61 -66t-91 -27q-82 0 -82 76l5 39l75 347h-88l-80 -377l-6 -44q0 -40 21 -69q23 -28 54 -38q33 -11 65 -11q60 0 104 23q20 9 43 29q17 15 41 40l-16 -76h84zM424 688l46 -94h81l-69 142h-94l-129 -142h79z
" />
    <glyph glyph-name="udieresis" unicode="&#xfc;" 
d="M490 0l2 12l108 511h-88l-61 -289q-8 -42 -29 -80q-22 -39 -61 -66t-91 -27q-82 0 -82 76l5 39l75 347h-88l-80 -377l-6 -44q0 -40 21 -69q23 -28 54 -38q33 -11 65 -11q60 0 104 23q20 9 43 29q17 15 41 40l-16 -76h84zM302 707l-23 -102h92l21 102h-90zM465 707
l-22 -102h90l21 102h-89z" />
    <glyph glyph-name="yacute" unicode="&#xfd;" horiz-adv-x="500" 
d="M504 523l-233 -425l-48 425h-102l82 -537l-53 -83q-15 -23 -30 -30q-16 -8 -38 -8q-25 0 -51 8l-15 -80q24 -8 66 -8q37 0 66 17q28 16 64 66q44 62 91 142l97 164l87 149l113 200h-96zM451 734l-119 -140h66l161 140h-108z" />
    <glyph glyph-name="thorn" unicode="&#xfe;" 
d="M14 -207h88l56 262q33 -71 125 -71q88 0 158 56q69 55 106 140q37 83 37 172q0 85 -44 135q-45 50 -128 50q-48 0 -74 -10q-28 -10 -48 -27l-48 -49l57 268h-88zM191 236q12 55 33 104q20 51 60 85t97 34q111 0 111 -115q0 -45 -12 -95q-5 -23 -14 -48q-8 -22 -21 -44
q-25 -46 -61 -70q-38 -26 -87 -26q-43 0 -78 29t-35 90z" />
    <glyph glyph-name="ydieresis" unicode="&#xff;" horiz-adv-x="500" 
d="M504 523l-233 -425l-48 425h-102l82 -537l-53 -83q-15 -23 -30 -30q-16 -8 -38 -8q-25 0 -51 8l-15 -80q24 -8 66 -8q37 0 66 17q28 16 64 66q44 62 91 142l97 164l87 149l113 200h-96zM275 707l-23 -102h92l21 102h-90zM438 707l-22 -102h90l21 102h-89z" />
    </font>
</defs>
</svg>
