<?xml version="1.0" standalone="no"?>
<!DOCTYPE svg PUBLIC "-//W3C//DTD SVG 1.1//EN" "http://www.w3.org/Graphics/SVG/1.1/DTD/svg11.dtd" >
<svg xmlns="http://www.w3.org/2000/svg">
<metadata></metadata>
<defs>
<font id="signikaregular" horiz-adv-x="1085" >
<font-face units-per-em="2048" ascent="1638" descent="-410" />
<missing-glyph horiz-adv-x="450" />
<glyph horiz-adv-x="0" />
<glyph horiz-adv-x="0" />
<glyph horiz-adv-x="682" />
<glyph unicode="&#xd;" horiz-adv-x="380" />
<glyph unicode=" "  horiz-adv-x="450" />
<glyph unicode="&#x09;" horiz-adv-x="450" />
<glyph unicode="&#xa0;" horiz-adv-x="450" />
<glyph unicode="!" horiz-adv-x="589" d="M158 102q0 70 18 97q44 26 115 26q73 0 117 -26q7 -13 12.5 -43.5t5.5 -53.5q0 -62 -18 -94q-44 -26 -117 -26q-71 0 -115 26q-18 27 -18 94zM184 1352q37 28 98 44.5t128 16.5l14 -14l-51 -1002q-34 -10 -80 -10q-53 0 -84 10z" />
<glyph unicode="&#x22;" horiz-adv-x="798" d="M94 1440q0 36 15 98q46 27 104 27q60 0 106 -27q15 -62 15 -98q0 -13 -11 -70t-27 -151t-26 -179q-20 -10 -55 -10t-57 10q-10 86 -26 180t-27 150.5t-11 69.5zM465 1440q0 40 14 98q46 27 105 27q60 0 106 -27q15 -62 15 -98q0 -13 -11 -70t-27 -151t-26 -179 q-20 -10 -55.5 -10t-57.5 10q-10 86 -26 180t-26.5 150.5t-10.5 69.5z" />
<glyph unicode="#" horiz-adv-x="1320" d="M48 404.5q0 52.5 13 87.5h248l80 352h-231q-12 35 -12 87t12 89h270l66 289q35 13 95.5 13t94.5 -13l-66 -289h259l65 289q35 13 96 13t95 -13l-66 -289h201q12 -37 12 -89t-12 -87h-240l-78 -352h219q13 -35 13 -87.5t-13 -87.5h-258l-65 -290q-34 -15 -96.5 -15 t-96.5 15l66 290h-256l-66 -290q-34 -15 -96 -15t-96 15l65 290h-209q-13 35 -13 87.5zM502 492h256l80 352h-258z" />
<glyph unicode="$" horiz-adv-x="1021" d="M68 201q2 43 27 92.5t57 71.5q208 -115 370 -115q87 0 143 36t56 101q0 53 -40 95t-110 67l-204 74q-252 94 -252 299q0 122 82 209t221 110v168q27 8 84 8q55 0 86 -8v-164q163 -15 319 -88q0 -47 -22 -93.5t-56 -74.5q-174 80 -317 80q-83 0 -131.5 -35.5t-48.5 -97.5 q0 -48 33.5 -76t107.5 -53l199 -74q123 -44 196.5 -126.5t73.5 -198.5q0 -139 -97 -229t-265 -103v-156q-34 -6 -86 -6q-54 0 -84 6v160q-102 14 -193 48t-149 73z" />
<glyph unicode="%" horiz-adv-x="1857" d="M98 1006q0 230 101 333q81 84 221 84q142 0 223 -84q100 -102 100 -333q0 -236 -100 -336q-83 -86 -223 -86q-138 0 -221 86q-101 101 -101 336zM281 1006q0 -60 6 -106.5t20.5 -88t43.5 -64t71 -22.5q41 0 69.5 22.5t43 64t20.5 88t6 106.5t-6 105.5t-20.5 87t-43 63.5 t-69.5 22q-42 0 -71 -22t-43.5 -63.5t-20.5 -87t-6 -105.5zM438 0l772 1399q41 12 109.5 11.5t97.5 -11.5l-770 -1399q-41 -12 -110 -11.5t-99 11.5zM1114 395q0 234 100 334q83 86 222 86q140 0 223 -86q100 -100 100 -334t-100 -336q-81 -84 -223 -84q-138 0 -222 84 q-100 105 -100 336zM1296 395q0 -60 6 -106.5t21 -88t44 -63.5t71 -22t71 22t43.5 63.5t20.5 88t6 106.5t-6 106.5t-20.5 87.5t-43.5 63t-71 22t-71 -22t-44 -63t-21 -87.5t-6 -106.5z" />
<glyph unicode="&#x26;" horiz-adv-x="1275" d="M102 369q0 137 79 241t192 140q-93 31 -152 116.5t-59 194.5q0 157 115.5 260.5t312.5 103.5q209 0 377 -59q0 -44 -15.5 -91t-42.5 -77q-168 53 -299 53q-105 0 -164 -56.5t-59 -147.5q0 -100 63 -156.5t191 -56.5h377q124 0 194 30q29 -37 29 -102q0 -113 -154 -113 h-65q0 -25 1 -68.5t1 -58.5v-213q0 -36 14 -309q-40 -12 -100 -12q-56 0 -98 10l-17 84q-149 -109 -327 -109q-187 0 -290.5 111t-103.5 285zM328 379q0 -109 59 -171.5t158 -62.5q78 0 149.5 28t120.5 69v278q0 82 2 129h-196q-146 0 -219.5 -79t-73.5 -191z" />
<glyph unicode="'" horiz-adv-x="432" d="M88 1440q0 40 14 98q46 27 105 27q60 0 106 -27q15 -62 15 -98q0 -13 -11 -70t-27 -151t-26 -179q-20 -10 -55 -10t-57 10q-10 86 -26 180t-27 150.5t-11 69.5z" />
<glyph unicode="(" horiz-adv-x="679" d="M127 666q0 279 104.5 565t288.5 467q88 -28 127 -115q-147 -191 -219 -429.5t-72 -487.5q0 -251 72 -490t219 -430q-39 -87 -127 -115q-184 181 -288.5 467.5t-104.5 567.5z" />
<glyph unicode=")" horiz-adv-x="679" d="M33 -254q146 191 218.5 431t72.5 489q0 248 -72.5 487t-218.5 430q39 87 127 115q184 -181 287.5 -466.5t103.5 -565.5q0 -282 -103.5 -568t-287.5 -467q-88 28 -127 115z" />
<glyph unicode="*" horiz-adv-x="1032" d="M92 1120q-4 35 14.5 90.5t43.5 85.5l106 -36q73 -26 207 -109q-37 148 -37 231l-2 115q32 13 91 13t93 -13l-2 -115q0 -73 -39 -229q141 83 209 107l109 34q23 -25 41.5 -80.5t15.5 -93.5l-111 -35q-74 -23 -231 -32q116 -96 168 -166l66 -90q-17 -31 -63.5 -65.5 t-84.5 -43.5l-65 92q-53 74 -105 209q-53 -138 -104 -207l-66 -94q-36 9 -82.5 43t-66.5 66l67 90q47 64 166 166q-155 8 -229 34z" />
<glyph unicode="+" d="M106 602q0 47 9 90h233q15 0 49.5 -1t51.5 -1q0 17 -1.5 51.5t-1.5 49.5v251q46 9 97 9q53 0 96 -9v-251q0 -15 -1 -49.5t-1 -51.5q15 0 49 1t51 1h234q8 -41 8 -90q0 -56 -8 -92h-234q-17 0 -51 1t-49 1q0 -17 1 -50.5t1 -47.5v-254q-39 -8 -94 -8q-58 0 -99 8v254 q0 14 1.5 47.5t1.5 50.5q-17 0 -51.5 -1t-49.5 -1h-233q-9 40 -9 92z" />
<glyph unicode="," horiz-adv-x="550" d="M68 -223q73 32 119.5 86.5t50.5 118.5q-60 13 -82 28q-19 38 -19 99q0 75 19 104q19 11 56.5 19t68.5 8q32 0 68 -7.5t54 -19.5q23 -61 23 -135q0 -135 -78 -246t-225 -162q-27 13 -42 44t-13 63z" />
<glyph unicode="-" horiz-adv-x="716" d="M94 545q0 56 10 92h508q11 -40 11 -92q0 -50 -11 -90h-508q-10 36 -10 90z" />
<glyph unicode="." horiz-adv-x="538" d="M125 113q0 65 18 100q53 29 127 29q31 0 68 -8.5t57 -20.5q19 -36 19 -100q0 -63 -19 -103q-41 -26 -125 -26q-80 0 -127 26q-18 38 -18 103z" />
<glyph unicode="/" horiz-adv-x="864" d="M14 -158l648 1717q101 -7 184 -68l-647 -1718q-105 7 -185 69z" />
<glyph unicode="0" d="M94 664q0 211 31 344t119 227q58 58 129 88.5t172 30.5q100 0 169 -30t128 -89q88 -93 118.5 -226.5t30.5 -344.5q0 -212 -30.5 -345.5t-118.5 -226.5q-58 -58 -128.5 -88.5t-170.5 -30.5t-170.5 30.5t-128.5 88.5q-88 94 -119 227.5t-31 344.5zM317 664 q0 -182 18 -288.5t60 -162.5q48 -72 148 -72q99 0 147 72q42 56 60 162.5t18 288.5q0 181 -18 287.5t-60 162.5q-48 72 -147 72q-100 0 -148 -72q-42 -56 -60 -162.5t-18 -287.5z" />
<glyph unicode="1" d="M121 934q144 89 242 192t141 201q44 10 100 10q55 0 101 -10v-1014q0 -25 -1.5 -69.5t-1.5 -67.5q16 0 62 1t59 1h142q8 -39 8 -90q0 -49 -8 -88h-772q-9 46 -9 88q0 46 9 90h188q13 0 57.5 -1t59.5 -1q0 23 -1 67.5t-1 69.5v467q0 33 10 248q-56 -69 -135.5 -127.5 t-159.5 -93.5q-34 19 -58.5 53t-31.5 74z" />
<glyph unicode="2" d="M111 133q0 168 256 389l200 176q77 69 115.5 133t38.5 144q0 92 -55.5 147.5t-143.5 55.5q-82 0 -145.5 -54t-97.5 -141q-44 2 -89 21t-65 51q46 128 156.5 213.5t259.5 85.5q182 0 290.5 -106t108.5 -277q0 -72 -19.5 -133.5t-60 -115.5t-78 -91t-98.5 -88l-158 -135 q-180 -156 -200 -238q160 16 270 16h377q0 -28 -4 -82q-18 -104 -138 -104h-636q-30 26 -57 64.5t-27 68.5z" />
<glyph unicode="3" d="M98 109q9 37 36 76.5t59 64.5q140 -103 286 -103q120 0 196.5 72.5t76.5 204.5q0 112 -62.5 175t-169.5 63q-77 0 -139 -35q-28 13 -51.5 45t-34.5 69l256 279q104 104 139 133l-6 10q-82 -20 -238 -20h-288q-13 40 -13 80q0 54 19 104h715q45 -88 45 -135q0 -45 -43 -94 l-215 -230q-32 -32 -74 -63q165 -5 273 -105t108 -284q0 -107 -40 -193.5t-107 -140t-148.5 -81.5t-169.5 -28q-126 0 -231.5 37t-178.5 99z" />
<glyph unicode="4" d="M78 410q0 9 2 20t7 26t8.5 24.5t12 30t11.5 28.5l346 800q45 11 107.5 -1t91.5 -38l-236 -544q-91 -211 -143 -297l6 -8q130 10 233 10h76q-2 23 -2 65v160q0 76 37 120t102 44h58l10 -10v-271q0 -18 -1 -55t-1 -53q16 0 46 1t48 1h109q6 -44 6 -82q0 -49 -15 -98h-100 q-18 0 -48 1t-46 1q0 -17 1 -55.5t1 -55.5v-174q-47 -8 -105 -8t-102 8v174q0 17 1 55.5t1 55.5q-16 0 -54.5 -2t-56.5 -2h-362q-49 78 -49 129z" />
<glyph unicode="5" d="M115 104q6 34 32.5 77t57.5 65q142 -99 280 -99q111 0 187 76t76 221q0 74 -22 128.5t-60 84t-80 43t-90 13.5q-124 0 -232 -88q-28 4 -58 25.5t-44 45.5l28 617l15 14h694q14 -43 14 -88q0 -94 -94 -94h-354h-78v-103l-8 -143l-6 -53q88 37 180 37q189 0 302.5 -114.5 t113.5 -311.5q0 -97 -26.5 -177.5t-71.5 -136.5t-105.5 -95t-127.5 -57t-138 -18q-117 0 -216.5 35.5t-168.5 95.5z" />
<glyph unicode="6" d="M102 670q0 319 137 501.5t392 182.5q179 0 295 -66q-3 -42 -23.5 -84.5t-52.5 -64.5q-100 45 -207 45q-80 0 -140.5 -31.5t-97.5 -88.5t-56.5 -130.5t-22.5 -163.5q127 117 295 117q173 0 272.5 -112t99.5 -333q0 -209 -122 -339t-314 -130q-197 0 -311 131 q-45 58 -67 103q-77 164 -77 463zM326 561q0 -99 19.5 -195.5t62.5 -152.5q62 -76 151 -76q105 0 161 78.5t56 212.5q0 281 -209 281q-63 0 -126.5 -30.5t-114.5 -84.5v-33z" />
<glyph unicode="7" d="M123 1219q0 59 18 108h811q39 -80 39 -133q0 -44 -33 -88l-69 -100q-155 -229 -239.5 -442.5t-112.5 -489.5l-7 -74q-48 -10 -110 -10q-56 0 -111 10l8 84q50 482 334 893l23 33q44 67 114 143l-8 8q-36 -8 -144.5 -13t-166.5 -5h-336q-10 38 -10 76z" />
<glyph unicode="8" d="M90 334q0 114 67.5 207t172.5 149q-205 112 -205 314q0 151 120 250.5t296 99.5q184 0 299.5 -95.5t115.5 -246.5q0 -97 -55 -174.5t-143 -124.5q238 -128 235 -363q0 -115 -63 -202t-167 -131t-231 -44q-201 0 -321.5 96t-120.5 265zM307 350q0 -104 66 -163.5 t168 -59.5q100 0 166.5 62t66.5 163q0 97 -70.5 161.5t-183.5 98.5l-35 13h-4q-85 -48 -129.5 -121t-44.5 -154zM338 1006q0 -158 237 -222l25 -10q69 40 107 100t38 130q0 87 -58 139.5t-146 52.5q-87 0 -145 -52.5t-58 -137.5z" />
<glyph unicode="9" d="M92 885q0 209 122 339t314 130q198 0 312 -131q46 -58 68 -107q75 -162 75 -459q0 -319 -136.5 -501.5t-391.5 -182.5q-179 0 -295 66q3 42 23.5 84.5t52.5 64.5q100 -45 206 -45t177.5 55.5t104 145t36.5 211.5q-129 -115 -295 -115q-173 0 -273 112t-100 333zM309 899 q0 -281 209 -281q61 0 125 30t117 83v35q0 99 -19.5 195.5t-62.5 152.5q-62 76 -152 76q-105 0 -161 -78.5t-56 -212.5z" />
<glyph unicode=":" horiz-adv-x="550" d="M131 113q0 64 19 100q53 29 126 29q31 0 68 -8.5t57 -20.5q19 -36 19 -100q0 -63 -19 -103q-41 -26 -125 -26q-79 0 -126 26q-19 40 -19 103zM131 786q0 65 19 101q51 28 126 28q31 0 68 -8t57 -20q19 -36 19 -101q0 -62 -19 -102q-18 -12 -55.5 -19.5t-69.5 -7.5 q-77 0 -126 27q-19 40 -19 102z" />
<glyph unicode=";" horiz-adv-x="559" d="M66 -223q73 32 119.5 86.5t50.5 118.5q-60 13 -82 28q-19 38 -19 99q0 75 19 104q19 11 56.5 19t68.5 8q32 0 68 -7.5t54 -19.5q23 -61 23 -135q0 -135 -78 -246t-225 -162q-27 13 -42 44t-13 63zM135 786q0 65 19 101q51 28 127 28q31 0 68 -8t57 -20q18 -34 18 -101 q0 -64 -18 -102q-18 -12 -55.5 -19.5t-69.5 -7.5q-78 0 -127 27q-19 40 -19 102z" />
<glyph unicode="&#x3c;" d="M111 514q-26 96 0 170l755 414q39 -24 67 -69.5t32 -96.5l-486 -256l-151 -70v-12l151 -70l486 -256q-4 -50 -33 -96.5t-66 -71.5z" />
<glyph unicode="=" d="M106 406q0 48 9 92h856q8 -39 8 -92q0 -52 -8 -91h-856q-9 43 -9 91zM106 799q0 47 9 94h856q8 -41 8 -94q0 -52 -8 -88h-856q-9 41 -9 88z" />
<glyph unicode="&#x3e;" d="M121 270l485 254q62 32 152 70v14q-90 38 -152 70l-485 256q4 50 32.5 97t65.5 71l756 -416q26 -94 0 -170l-756 -414q-39 24 -66.5 69.5t-31.5 98.5z" />
<glyph unicode="?" horiz-adv-x="811" d="M23 1321q189 104 391 104q174 0 276.5 -95.5t102.5 -254.5q0 -247 -267 -397l-129 -70l-16 -209q-37 -12 -78 -12q-47 0 -84 12l-12 306l18 22l99 51q118 60 180.5 126.5t62.5 150.5t-53 133t-147 49q-119 0 -267 -74q-28 24 -51 70t-26 88zM168 100q0 23 5.5 53.5 t12.5 43.5q44 26 115 26q73 0 117 -26q18 -27 18 -97q0 -67 -18 -94q-44 -26 -117 -26q-71 0 -115 26q-18 32 -18 94z" />
<glyph unicode="@" horiz-adv-x="1943" d="M102 461q0 197 67.5 368.5t186 294t287 192.5t363.5 70q248 0 441 -95.5t302 -276.5t109 -420q0 -138 -35.5 -250t-94.5 -182t-133 -107t-155 -37q-171 0 -248 127q-57 -60 -132 -97.5t-153 -37.5q-152 0 -238.5 122.5t-86.5 330.5q0 148 47 264.5t143 187t227 70.5 q103 0 198.5 -39.5t160.5 -101.5l-2 -522q0 -75 22 -108.5t68 -33.5q85 0 144 101.5t59 318.5q0 286 -175.5 457.5t-467.5 171.5q-154 0 -284 -58.5t-219 -160.5t-138.5 -243.5t-49.5 -305.5q0 -327 166 -504.5t447 -177.5q229 0 415 76q24 -26 40 -68.5t16 -81.5 q-234 -90 -486 -90q-177 0 -324.5 54.5t-256.5 159t-169.5 266t-60.5 366.5zM786 469q0 -293 166 -293q51 0 107.5 34.5t95.5 86.5v473q-61 61 -156 61q-104 0 -158.5 -102t-54.5 -260z" />
<glyph unicode="A" horiz-adv-x="1251" d="M41 14l463 1385q44 8 125 8q82 0 123 -8l458 -1385q-43 -28 -127 -28q-52 0 -80.5 24t-48.5 90l-75 240q-20 0 -68.5 -1t-54.5 -1h-281q-6 0 -52.5 1t-66.5 1l-108 -342q-36 -8 -94 -8q-56 0 -107 14zM412 516q19 0 58.5 1t45.5 1h205q5 0 44 -1t58 -1l-94 297 q-64 207 -108 371h-11q-25 -116 -80 -297z" />
<glyph unicode="B" horiz-adv-x="1239" d="M186 12v1374l13 15q25 0 185.5 3t240.5 3q222 0 334 -97t112 -274q0 -96 -52.5 -174t-139.5 -112q108 -32 184 -131.5t76 -227.5q0 -180 -122 -289.5t-366 -109.5q-74 0 -148.5 1t-162.5 2.5t-141 2.5zM401 156q44 0 127.5 1t120.5 1q64 0 112.5 16t77 40t46.5 58 t24 65.5t6 65.5q0 42 -13.5 82.5t-43 79.5t-86.5 62.5t-135 23.5h-236v-495zM401 819h215q69 0 118 19t73 51.5t34.5 66.5t10.5 74q0 211 -231 211q-154 0 -220 2v-424z" />
<glyph unicode="C" horiz-adv-x="1236" d="M100 692q0 185 45 328.5t123.5 230t178 130.5t215.5 44q220 0 356.5 -118.5t136.5 -280.5q0 -123 -123 -123q-38 0 -90 12v15q0 54 -12 104q-14 56 -45.5 106t-90 79.5t-137.5 29.5q-161 0 -244 -142.5t-83 -414.5q0 -252 89.5 -390t250.5 -138q178 0 366 155 q36 -24 67.5 -64t41.5 -77q-90 -90 -225.5 -147.5t-286.5 -57.5q-114 0 -205.5 40.5t-151.5 108t-100.5 161t-58 195.5t-17.5 214z" />
<glyph unicode="D" horiz-adv-x="1327" d="M186 12v1374l13 15q178 6 450 6q93 0 194.5 -26.5t162.5 -77.5q127 -105 172 -252.5t45 -352.5q0 -208 -44.5 -353.5t-172.5 -250.5q-61 -51 -162.5 -77.5t-194.5 -26.5q-94 0 -450 8zM403 166q5 1 59 1h66q118 -1 121 -1q87 0 152 33t101.5 83.5t58.5 124.5t29 141.5 t7 149.5q0 58 -3.5 107.5t-13 105.5t-25 100.5t-42.5 86.5t-62.5 70.5t-87 45.5t-114.5 17q-42 0 -120.5 1t-125.5 1v-1067z" />
<glyph unicode="E" horiz-adv-x="1159" d="M184 133v1253l15 13h823q6 -33 6 -86q0 -55 -16 -99h-486q-9 0 -34.5 -0.5t-49.5 -0.5t-45 1q0 -26 1 -66t1 -67v-286q25 0 69 1t58 1h385q11 -40 11 -90q0 -51 -11 -91h-385q-80 0 -127 2v-335q0 -18 -1 -51.5t-1 -53.5q62 6 135 6h531q0 -55 -6 -84q-17 -102 -139 -102 h-609q-58 0 -91.5 36t-33.5 99z" />
<glyph unicode="F" horiz-adv-x="1069" d="M186 0v1386l13 13h811q12 -37 12 -86q0 -53 -30 -77t-93 -24h-301q-140 0 -197 2q0 -42 1 -122t1 -119v-180q31 2 86 2h412q10 -36 10 -90q0 -57 -10 -93h-412h-86v-612q-47 -8 -108 -8q-65 0 -109 8z" />
<glyph unicode="G" horiz-adv-x="1316" d="M100 690q0 151 34.5 275.5t92.5 208.5t136.5 141.5t164.5 83.5t179 26q131 0 257.5 -40t219.5 -109q-7 -48 -37.5 -93.5t-67.5 -70.5q-166 127 -372 127q-81 0 -147.5 -30t-119.5 -93.5t-82.5 -172t-29.5 -255.5q0 -534 391 -534q144 0 260 34v230q0 90 4 131h-180 q-54 0 -78.5 22t-24.5 74q0 44 17 90l315 2q83 0 119.5 -36t36.5 -107v-533q-230 -88 -506 -88q-124 0 -223 38t-165.5 103.5t-110.5 157.5t-63.5 196t-19.5 222z" />
<glyph unicode="H" horiz-adv-x="1382" d="M186 0v1399q41 8 107 8t110 -8v-434q0 -29 -1 -77t-1 -75q10 0 59 1t58 1h346q9 0 57 -1t58 -1q0 27 -1 75t-1 77v434q44 8 108 8q67 0 111 -8v-1399q-47 -8 -109 -8q-63 0 -110 8v479q0 29 1 77t1 75q-10 0 -58 -1t-57 -1h-346q-9 0 -58 1t-59 1q0 -27 1 -75t1 -77v-479 q-44 -8 -110 -8t-107 8z" />
<glyph unicode="I" horiz-adv-x="602" d="M193 0v1399q41 8 108 8q65 0 109 -8v-1399q-44 -8 -109 -8q-67 0 -108 8z" />
<glyph unicode="J" horiz-adv-x="917" d="M20 66q16 94 82 163q110 -67 220 -67q123 0 171 74t48 243v920q44 8 110 8q63 0 107 -8v-889q0 -98 -9.5 -171.5t-36 -144t-72 -115.5t-121.5 -72t-179 -27q-81 0 -167.5 22.5t-152.5 63.5z" />
<glyph unicode="K" horiz-adv-x="1220" d="M186 0v1399q41 8 107 8t110 -8v-588l115 4q29 0 44.5 12t33.5 45l262 445q29 49 55 68.5t76 19.5q61 0 125 -6l14 -19l-309 -524q-40 -65 -82 -102q97 -19 151 -78.5t97 -173.5l111 -297q23 -58 42 -90t50 -58q-21 -32 -63.5 -50.5t-84.5 -18.5q-60 0 -88.5 29.5 t-54.5 101.5l-111 301q-43 115 -97.5 162t-145.5 47q-77 0 -140 -4v-625q-44 -8 -110 -8t-107 8z" />
<glyph unicode="L" horiz-adv-x="1048" d="M184 133v1262l15 12h82q66 0 94 -33t28 -106v-1088q84 8 183 8h407q0 -46 -6 -86q-18 -104 -141 -104h-535q-57 0 -92 35.5t-35 99.5z" />
<glyph unicode="M" horiz-adv-x="1654" d="M152 2l108 1397q49 8 148 8q90 0 137 -8l194 -641q15 -48 45 -166t37 -160h13q14 97 79 326l195 641q53 8 139 8q95 0 148 -8l108 -1397q-47 -12 -110 -12q-55 0 -99 8l-47 750q-12 165 -16 415h-12l-281 -950q-66 -8 -113 -8q-46 0 -108 8l-281 950h-12 q-10 -306 -16 -415l-50 -750q-41 -8 -98 -8q-64 0 -108 12z" />
<glyph unicode="N" horiz-adv-x="1392" d="M186 0v1397q58 10 129 10q74 0 131 -8l433 -858q29 -61 75.5 -165.5t59.5 -131.5l8 2q-16 262 -16 516v510q0 73 25.5 104t90.5 31h72l12 -10v-1395q-58 -10 -131 -10q-74 0 -131 8l-436 858q-61 127 -129 285l-8 -2q18 -317 18 -502v-639q-49 -8 -100 -8q-56 0 -103 8z " />
<glyph unicode="O" horiz-adv-x="1347" d="M100 700q0 183 52.5 344t166.5 259q138 122 355 122q216 0 354 -122q77 -66 127.5 -169.5t70 -209.5t19.5 -224q0 -119 -19.5 -225.5t-70 -209.5t-127.5 -169q-140 -123 -354 -123q-215 0 -355 123q-114 98 -166.5 259t-52.5 345zM330 700q0 -82 8 -153.5t31 -147.5 t59.5 -129.5t99.5 -88t146 -34.5q82 0 144.5 34.5t99 88t59.5 129.5t31 147.5t8 153.5t-8 153.5t-31 147t-59.5 129t-99 87.5t-144.5 34q-69 0 -124.5 -23t-92.5 -65t-62.5 -94t-39 -116.5t-19.5 -125t-6 -127.5z" />
<glyph unicode="P" horiz-adv-x="1163" d="M186 0v1386l13 15q35 0 188 3t234 3q212 0 340.5 -117t128.5 -340q0 -218 -128.5 -337t-340.5 -119h-218v-494q-44 -8 -110 -8t-107 8zM403 666q43 0 118.5 1t90.5 1q73 0 125 26t77.5 70t36.5 89t11 97q0 41 -6 78t-23 75.5t-44 66t-72.5 45.5t-104.5 18q-141 0 -209 2 v-569z" />
<glyph unicode="Q" horiz-adv-x="1335" d="M100 700q0 117 18.5 223t68 211.5t126.5 172.5q134 118 355 118q218 0 352 -118q77 -67 126.5 -172.5t68 -211.5t18.5 -223q0 -395 -186 -573q-57 -60 -119 -84l45 -33q93 -66 148 -89t112 -23q-4 -76 -47 -118t-101 -42q-85 0 -157 55l-234 180h-20q-219 0 -361 119 q-113 100 -163 261.5t-50 346.5zM328 700q0 -548 340 -548q338 0 338 548q0 551 -338 551q-340 0 -340 -551z" />
<glyph unicode="R" horiz-adv-x="1228" d="M186 0v1386l13 15q23 0 190.5 3t249.5 3q217 0 341 -109.5t124 -310.5q0 -137 -73 -237t-189 -136q95 -35 145 -174l90 -239q39 -106 92 -148q-21 -31 -62.5 -49t-84.5 -18q-58 0 -87 30t-56 103l-103 276q-15 40 -30 67t-38.5 51.5t-58 37t-80.5 12.5h-168v-563 q-44 -8 -108 -8q-66 0 -107 8zM401 737q160 4 228 4q72 0 123.5 21t77.5 58t37.5 77.5t11.5 89.5q0 248 -250 248q-158 0 -228 2v-500z" />
<glyph unicode="S" horiz-adv-x="1138" d="M61 127q4 46 31 92.5t62 75.5q95 -62 202.5 -100.5t208.5 -38.5q122 0 191 52.5t71 139.5q0 141 -186 221l-242 105q-136 59 -208 144t-72 210q0 169 130 283t333 114q222 0 434 -106q-1 -45 -23.5 -92t-56.5 -78q-83 42 -179 69t-171 27q-112 0 -179 -54.5t-67 -137.5 q0 -63 43.5 -106t126.5 -79l238 -102q141 -59 224 -155t83 -226q0 -185 -128.5 -298.5t-373.5 -113.5q-127 0 -258 41t-234 113z" />
<glyph unicode="T" horiz-adv-x="1007" d="M27 1307q0 48 8 92h942q12 -50 12 -86q0 -53 -29.5 -76t-93.5 -23h-133q-13 0 -58.5 1.5t-60.5 1.5v-1217q-47 -8 -108 -8q-64 0 -111 8v1065q0 27 1 75t1 77h-2q-13 0 -57 -1.5t-59 -1.5h-244q-8 44 -8 93z" />
<glyph unicode="U" horiz-adv-x="1370" d="M168 492v903l12 12h84q65 0 93 -33t28 -106v-776q0 -168 76 -255t223 -87q148 0 223.5 86.5t75.5 255.5v907q44 8 107 8q68 0 112 -8v-907q0 -250 -139 -384.5t-379 -134.5q-239 0 -377.5 134.5t-138.5 384.5z" />
<glyph unicode="V" horiz-adv-x="1177" d="M41 1380q75 33 135 33q45 0 73.5 -24.5t45.5 -81.5l211 -740q44 -153 90 -352q5 -20 18 -20l326 1204q39 8 94 8q58 0 99 -12l10 -17l-406 -1380q-106 -8 -168 -8q-61 0 -96.5 21t-54.5 85z" />
<glyph unicode="W" horiz-adv-x="1740" d="M61 1386q61 27 121 27q54 0 80.5 -25.5t36.5 -91.5l129 -696q55 -317 66 -395q1 -16 4.5 -20.5t13.5 -4.5l223 1190q68 10 142 10q81 0 139 -10l205 -1165q3 -16 6.5 -20.5t11.5 -4.5q13 87 74 422l157 797q41 8 99 8q57 0 104 -12l10 -15l-292 -1378q-79 -12 -195 -12 q-57 0 -90.5 21.5t-44.5 84.5l-98 549q-39 224 -82 506h-15q-50 -301 -90 -506l-125 -645q-88 -10 -188 -10q-29 0 -49.5 4t-41 14.5t-33.5 33t-20 56.5z" />
<glyph unicode="X" horiz-adv-x="1202" d="M37 25l438 706l-389 635q68 47 143 47q43 0 75.5 -19t62.5 -67l251 -409l293 481q33 10 90 10q70 0 115 -20l6 -15l-393 -635l436 -706q-68 -47 -143 -47q-43 0 -75.5 19.5t-63.5 68.5l-297 479l-334 -553q-33 -10 -94 -10q-70 0 -115 20z" />
<glyph unicode="Y" horiz-adv-x="1030" d="M18 1374q68 39 138 39q43 0 69 -21.5t47 -72.5l162 -393q38 -93 86 -256h10q27 95 91 260l186 469q39 10 92 10q57 0 107 -16l10 -15l-389 -929v-449q-47 -8 -111 -8q-67 0 -108 8v453z" />
<glyph unicode="Z" horiz-adv-x="1150" d="M98 137q0 49 29 94l516 777q19 28 45 63t62.5 82.5t54.5 71.5l-6 6q-96 -17 -320 -17h-329q-9 38 -9 74q0 48 17 111h843q31 -105 31 -142q0 -43 -28 -86l-515 -770q-42 -65 -159 -219l6 -6q129 12 246 12h213q164 0 241 39q19 -59 19 -106q0 -59 -38.5 -90t-113.5 -31 h-778q-27 102 -27 137z" />
<glyph unicode="[" horiz-adv-x="704" d="M203 -293v1950l14 12l416 -14q8 -24 8 -64q0 -37 -16 -90l-209 -6v-1626l209 -6q16 -53 16 -90q0 -40 -8 -64l-416 -14z" />
<glyph unicode="\" horiz-adv-x="864" d="M20 1491q79 61 183 68l647 -1717q-76 -58 -182 -69z" />
<glyph unicode="]" horiz-adv-x="704" d="M63 -227q0 33 17 90l209 6v1626l-209 6q-17 57 -17 90q0 37 9 64l413 14l15 -12v-1950l-15 -12l-413 14q-9 27 -9 64z" />
<glyph unicode="^" d="M90 627l338 700q41 9 114.5 9.5t114.5 -9.5l338 -700q-37 -9 -101.5 -9.5t-107.5 9.5l-168 360q-31 74 -69 172h-12q-29 -75 -70 -172l-168 -360q-43 -10 -107.5 -9.5t-101.5 9.5z" />
<glyph unicode="_" d="M-10 -236q0 50 10 84h1085q9 -41 9 -84q0 -44 -9 -81h-1085q-10 31 -10 81z" />
<glyph unicode="`" horiz-adv-x="815" d="M131 1374q17 44 59.5 84t88.5 55l294 -325q-12 -29 -38 -54t-54 -32z" />
<glyph unicode="a" horiz-adv-x="1038" d="M88 274q0 168 108.5 254t284.5 86q102 0 197 -14v80q0 182 -168 182q-120 0 -322 -78q-25 24 -42 68.5t-19 85.5q90 40 207.5 67t216.5 27q157 0 246.5 -86t89.5 -256v-420q0 -64 12 -105.5t45 -70.5q-9 -31 -32 -62.5t-48 -45.5q-119 23 -164 127q-144 -140 -309 -140 q-74 0 -133.5 26.5t-95.5 70t-55 96t-19 108.5zM299 291q0 -65 36.5 -107.5t100.5 -42.5q60 0 124 31.5t118 91.5v195q-81 8 -184 8q-92 0 -143.5 -46.5t-51.5 -129.5z" />
<glyph unicode="b" horiz-adv-x="1081" d="M160 51v1442l12 12h80q64 0 89.5 -31.5t25.5 -103.5v-446q125 104 270 104q172 0 263 -139t91 -375q0 -254 -129 -392q-130 -138 -330 -138q-193 0 -372 67zM367 166q80 -25 168 -25q109 0 175 96.5t66 278.5q0 170 -51.5 253t-134.5 83q-59 0 -118.5 -32t-104.5 -85 v-569z" />
<glyph unicode="c" horiz-adv-x="964" d="M90 500q0 137 36 243t97.5 169t136.5 94.5t158 31.5q90 0 163 -28t117 -73.5t67.5 -99t23.5 -108.5q0 -117 -107 -117q-44 0 -88 9v20q0 233 -180 233q-98 0 -151.5 -94.5t-53.5 -279.5q0 -353 232 -353q111 0 247 103q29 -17 56.5 -54t34.5 -71q-71 -71 -167 -111.5 t-204 -40.5q-106 0 -188 42t-131.5 116t-74 167t-24.5 202z" />
<glyph unicode="d" d="M90 494q0 132 33.5 236.5t89.5 168t125 96.5t145 33q112 0 232 -67v532l14 12h80q64 0 88.5 -31t24.5 -104v-1081q0 -143 57 -195q-8 -29 -30.5 -61t-47.5 -47q-115 20 -162 127q-56 -64 -132.5 -102t-164.5 -38q-170 0 -261 142t-91 379zM305 492q0 -172 53.5 -257 t133.5 -85q58 0 118 32.5t105 96.5v507q-114 74 -203 74q-91 0 -149 -94t-58 -274z" />
<glyph unicode="e" horiz-adv-x="1024" d="M90 504q0 155 46.5 274t144.5 189.5t237 70.5q191 0 298.5 -123.5t107.5 -314.5q0 -76 -15 -162h-602q7 -139 61 -216t177 -77q135 0 284 78q25 -23 43 -61.5t25 -73.5q-74 -53 -176.5 -84t-208.5 -31q-94 0 -168 29t-121 78t-77.5 118.5t-43 144t-12.5 161.5zM307 592 h414v26q0 116 -50.5 189.5t-154.5 73.5q-96 0 -148.5 -75.5t-60.5 -213.5z" />
<glyph unicode="f" horiz-adv-x="681" d="M23 936q0 42 8 78l166 -2q-13 137 -13 182q0 140 84.5 229.5t231.5 89.5q66 0 139 -13.5t123 -33.5q0 -38 -13.5 -78.5t-35.5 -64.5q-103 31 -176 31q-71 0 -111.5 -45t-40.5 -127q0 -69 14 -172l289 4q8 -36 8 -78q0 -44 -8 -80l-274 4v-860q-44 -8 -105 -8t-102 8v860 l-176 -4q-8 36 -8 80z" />
<glyph unicode="g" horiz-adv-x="1081" d="M90 504q0 131 33.5 235.5t90 168t125 97t142.5 33.5q162 0 281 -106q46 74 141 94q25 -15 48.5 -47.5t29.5 -60.5q-57 -54 -57 -195v-606q0 -170 -23.5 -269.5t-73.5 -162.5q-51 -63 -138.5 -99.5t-201.5 -36.5q-181 0 -354 68q2 41 17 87t38 73q62 -30 139.5 -47 t139.5 -17q61 0 106.5 15t73 39.5t44 62.5t22.5 77.5t6 90.5v94q-123 -110 -273 -110q-174 0 -265 141t-91 381zM305 502q0 -173 51.5 -258.5t132.5 -85.5q62 0 123 32.5t107 88.5v477v20q-102 92 -205 92q-94 0 -151.5 -93t-57.5 -273z" />
<glyph unicode="h" horiz-adv-x="1114" d="M160 0v1493l12 12h82q64 0 88.5 -31t24.5 -104v-477q68 62 152 98.5t171 36.5q93 0 156 -45.5t90 -119t27 -171.5v-475q0 -123 32 -186q-56 -45 -131 -45q-61 0 -86.5 33t-25.5 102v520q0 106 -28 151.5t-101 45.5q-61 0 -132 -34.5t-124 -92.5v-711q-39 -8 -105 -8 q-61 0 -102 8z" />
<glyph unicode="i" horiz-adv-x="555" d="M66 932q0 30 10 78q68 8 129 8h28q77 0 121.5 -48.5t44.5 -133.5v-836q-39 -8 -104 -8q-68 0 -107 8v750q0 57 -20 81.5t-70 24.5h-22q-10 45 -10 76zM124 1292q0 52 19 92q45 25 113 25q28 0 61.5 -7.5t50.5 -17.5q19 -40 19 -92q0 -50 -19 -90q-14 -11 -48 -18.5 t-64 -7.5q-76 0 -113 26q-19 40 -19 90z" />
<glyph unicode="j" horiz-adv-x="569" d="M55 -319q86 43 117 95.5t31 157.5v816q0 57 -19 81.5t-69 24.5h-41q-11 49 -11 76q0 25 11 78q73 8 149 8h27q76 0 119 -48.5t43 -133.5v-799q0 -58 -1.5 -95.5t-5.5 -82.5t-12.5 -75t-23 -63t-36.5 -55.5t-52 -45t-71 -39.5t-93 -30q-23 21 -40.5 56.5t-21.5 73.5z M137 1292q0 52 19 92q45 25 112 25q28 0 62 -7.5t51 -17.5q18 -38 18 -92q0 -53 -18 -90q-14 -11 -48.5 -18.5t-64.5 -7.5q-75 0 -112 26q-19 40 -19 90z" />
<glyph unicode="k" horiz-adv-x="1028" d="M160 0v1493l12 12h82q64 0 88.5 -31t24.5 -104v-758l69 4q32 0 49 29l181 283q27 47 56.5 68.5t80.5 21.5q73 0 112 -2l13 -17l-223 -354q-30 -50 -68 -80q65 -17 110.5 -61.5t77.5 -122.5l70 -170q24 -63 45.5 -101t52.5 -59q-24 -27 -63.5 -46t-77.5 -19q-54 0 -82 27 t-53 91l-82 201q-32 80 -68 107.5t-106 27.5q-28 0 -94 -4v-436q-39 -8 -105 -8q-61 0 -102 8z" />
<glyph unicode="l" horiz-adv-x="602" d="M156 203v1290l14 12h80q64 0 89.5 -31.5t25.5 -103.5v-1120q0 -92 79 -92h76q19 -55 19 -107q0 -21 -7 -45q-82 -14 -174 -14q-202 0 -202 211z" />
<glyph unicode="m" horiz-adv-x="1632" d="M160 0v1006l12 14h80q111 0 117 -129q142 139 290 139q85 0 144.5 -40.5t89.5 -110.5q165 151 326 151q129 0 196.5 -90t67.5 -231v-492q0 -126 33 -186q-56 -45 -134 -45q-60 0 -86 33.5t-26 101.5v522q0 105 -30 150t-93 45q-52 0 -110.5 -33.5t-110.5 -91.5v-2v-711 q-39 -8 -105 -8q-67 0 -106 8v641q0 105 -30 151t-93 46q-52 0 -111.5 -34t-109.5 -91v-713q-39 -8 -105 -8q-65 0 -106 8z" />
<glyph unicode="n" horiz-adv-x="1118" d="M160 0v1008l12 12h80q111 0 117 -127q151 137 325 137q93 0 156 -45.5t90 -119t27 -171.5v-477q0 -124 34 -186q-56 -45 -133 -45q-61 0 -86.5 33t-25.5 102v520q0 106 -27.5 151.5t-99.5 45.5q-63 0 -134 -34t-124 -93v-711q-39 -8 -105 -8q-65 0 -106 8z" />
<glyph unicode="o" horiz-adv-x="1064" d="M90 506q0 274 146 420q112 112 296 112q185 0 297 -112q146 -146 146 -420t-146 -420q-113 -113 -297 -113q-183 0 -296 113q-146 146 -146 420zM309 506q0 -77 10.5 -139t34.5 -116.5t69.5 -85t108.5 -30.5t109 30.5t70.5 84.5t35.5 117t11 139q0 75 -11 138 t-35.5 117.5t-70.5 85t-109 30.5t-108.5 -30.5t-69.5 -85t-34.5 -117t-10.5 -138.5z" />
<glyph unicode="p" d="M160 -428v1436l12 12h66q102 0 124 -105q120 123 281 123q170 0 261 -141.5t91 -378.5q0 -133 -33.5 -238t-89.5 -168.5t-125 -96.5t-145 -33q-113 0 -233 67v-354q0 -72 -25.5 -103.5t-89.5 -31.5h-82zM369 225q109 -73 204 -73q91 0 149 93.5t58 272.5q0 172 -53 257 t-133 85q-59 0 -119.5 -33.5t-105.5 -99.5v-502z" />
<glyph unicode="q" horiz-adv-x="1083" d="M90 504q0 131 33.5 235.5t90 168t125 97t142.5 33.5q161 0 281 -104q50 73 139 92q25 -15 48.5 -47t31.5 -61q-57 -52 -57 -195v-1151l-13 -12h-80q-65 0 -89.5 31t-24.5 104v393q-122 -106 -271 -106q-174 0 -265 141t-91 381zM305 502q0 -173 52 -258.5t132 -85.5 q62 0 121.5 31.5t106.5 86.5v480v22q-103 90 -203 90q-93 0 -151 -93t-58 -273z" />
<glyph unicode="r" horiz-adv-x="753" d="M102 913q8 30 30 63t48 50q141 -29 187 -182q82 182 268 182q49 0 108 -12q0 -120 -51 -201q-19 5 -84 10q-140 0 -219 -155v-668q-39 -8 -104 -8q-68 0 -107 8v702q0 139 -76 211z" />
<glyph unicode="s" horiz-adv-x="897" d="M63 76q2 36 22.5 79t47.5 68q165 -90 287 -90q84 0 133 34.5t51 92.5q0 43 -33.5 79.5t-95.5 59.5l-115 43q-260 96 -260 293q0 138 102 220.5t259 82.5q80 0 174.5 -21t161.5 -52q0 -41 -18 -86.5t-46 -69.5q-144 68 -272 68q-67 0 -107.5 -33t-40.5 -86q0 -43 30 -71 t97 -54l123 -47q260 -98 260 -307q0 -141 -108.5 -223.5t-282.5 -82.5q-198 0 -369 103z" />
<glyph unicode="t" horiz-adv-x="716" d="M39 936q0 39 8 78l152 -4v180q0 73 24 104t88 31h80l15 -14v-303l251 6q11 -40 11 -78q0 -43 -11 -80l-251 4v-612q0 -90 83 -90h142q16 -46 16 -107q0 -31 -4 -45q-119 -14 -229 -14q-105 0 -160 53t-55 158v655l-152 -2q-8 36 -8 80z" />
<glyph unicode="u" horiz-adv-x="1120" d="M117 979q52 45 133 45q60 0 86 -32.5t26 -100.5v-522q0 -106 27 -151.5t100 -45.5q61 0 131 33.5t125 91.5v715q58 8 107 8q44 0 106 -8v-725q0 -142 58 -195q-9 -30 -31.5 -60.5t-48.5 -45.5q-128 23 -172 147q-158 -151 -342 -151q-136 0 -203 92.5t-67 242.5v478 q0 123 -35 184z" />
<glyph unicode="v" horiz-adv-x="931" d="M12 995q70 31 121 31q94 0 115 -90l137 -451q41 -126 80 -297q3 -12 6 -14t12 -2l242 840q39 8 80 8q62 0 106 -16l7 -9q-152 -510 -316 -995q-59 -10 -153 -10q-66 0 -98 22t-56 94z" />
<glyph unicode="w" horiz-adv-x="1480" d="M45 997q62 29 125 29q42 0 65.5 -20.5t32.5 -65.5l92 -426q33 -143 68 -340q3 -11 5.5 -13.5t10.5 -2.5l172 848q41 10 127 10q89 0 125 -10l168 -832q1 -10 4.5 -13t12.5 -3q42 216 73 356l111 498q33 8 90 8q71 0 107 -16l6 -11l-248 -995q-57 -8 -160 -8 q-68 0 -101 22t-46 92l-60 285l-77 426h-11q-44 -240 -84 -424l-82 -391q-78 -10 -170 -10q-59 0 -92 23.5t-51 92.5z" />
<glyph unicode="x" horiz-adv-x="942" d="M31 23l321 499l-295 457q65 49 144 49q38 0 61 -15t47 -48l174 -271l195 318q36 8 86 8q57 0 104 -14l6 -17l-288 -452l329 -504q-74 -49 -145 -49q-38 0 -63 15t-48 48l-204 313l-222 -362q-24 -8 -88 -8q-62 0 -108 16z" />
<glyph unicode="y" horiz-adv-x="958" d="M10 -414q-1 7 -1 13q0 32 12 69q14 45 36 70q74 -27 152 -27q97 0 152.5 63.5t93.5 190.5l6 25q-66 2 -103 25.5t-55 84.5l-270 895q76 31 129 31q41 0 66.5 -20.5t39.5 -73.5l140 -471q22 -71 75 -301q5 -15 19 -15l225 867q36 8 90 8q62 0 111 -14l6 -13l-270 -960 q-37 -127 -72 -208t-87.5 -146.5t-125 -95t-172.5 -29.5q-46 0 -105 10t-92 22z" />
<glyph unicode="z" horiz-adv-x="913" d="M72 117q0 40 32 82l334 454q27 37 88.5 110.5t73.5 88.5l-6 8q-86 -12 -270 -12h-215q-9 30 -9 67q0 43 13 97h686q30 -91 30 -125q0 -31 -26 -72l-334 -453q-40 -55 -158 -198l6 -8q88 8 189 8h98q157 0 219 29q21 -49 21 -93q0 -49 -30 -74.5t-103 -25.5h-611 q-28 85 -28 117z" />
<glyph unicode="{" horiz-adv-x="708" d="M77 666.5q0 44.5 9 70.5q74 22 121 87t47 153v348q0 142 79.5 227.5t211.5 106.5l106 18q22 -25 33.5 -69.5t3.5 -75.5l-100 -33q-56 -18 -87.5 -63t-31.5 -113v-342q0 -99 -46.5 -185t-123.5 -122v-17q77 -35 123.5 -120.5t46.5 -184.5v-344q0 -136 119 -176l100 -31 q7 -32 -4 -77t-33 -70l-106 18q-133 23 -212 107.5t-79 226.5v350q0 87 -47 152.5t-121 87.5q-9 26 -9 70.5z" />
<glyph unicode="|" horiz-adv-x="522" d="M162 -289v1874q39 10 100 10q59 0 98 -10v-1874q-41 -8 -98 -8q-59 0 -100 8z" />
<glyph unicode="}" horiz-adv-x="708" d="M20 -199l103 31q117 40 117 176v344q0 98 47 184t123 121v17q-76 36 -123 122.5t-47 184.5v342q0 68 -30.5 113.5t-86.5 62.5l-103 33q-7 30 5 75t34 70l105 -18q132 -21 211.5 -106.5t79.5 -227.5v-348q0 -88 47.5 -152.5t120.5 -87.5q11 -26 11 -70.5t-11 -70.5 q-73 -22 -120.5 -87.5t-47.5 -152.5v-350q0 -142 -79 -226.5t-212 -107.5l-105 -18q-22 25 -34 70t-5 77z" />
<glyph unicode="~" horiz-adv-x="1200" d="M82 543l27 47q99 180 282 180q77 0 174 -41l160 -74q63 -24 106 -24q71 0 123 65l39 45q36 -2 74 -25t51 -57l-26 -47q-99 -180 -283 -180q-81 0 -174 41l-162 74q-53 24 -104 24q-71 0 -123 -65l-39 -45q-37 3 -74.5 26t-50.5 56z" />
<glyph unicode="&#xa1;" horiz-adv-x="589" d="M164 907q0 61 18 97q46 24 117 24q69 0 115 -24q18 -30 18 -97q0 -69 -18 -96q-42 -25 -115 -25q-75 0 -117 25q-18 32 -18 96zM166 -387l51 999q37 11 80 11q47 0 84 -11l25 -954q-37 -28 -98 -44.5t-128 -16.5z" />
<glyph unicode="&#xa2;" horiz-adv-x="958" d="M86 662q0 119 27 214.5t75 158.5t107.5 101.5t130.5 53.5v205q30 6 84 6q52 0 86 -6v-201q135 -23 210 -110.5t75 -184.5q0 -61 -26 -93t-87 -32q-37 0 -82 10q2 48 -5.5 90t-26.5 80t-57 60t-91 22q-96 0 -147.5 -94.5t-51.5 -279.5q0 -353 230 -353q118 0 243 105 q29 -18 56.5 -52t37.5 -67q-113 -126 -284 -156v-202q-40 -7 -86 -7q-49 0 -84 7v202q-91 16 -158 67t-104 125.5t-54.5 156.5t-17.5 174z" />
<glyph unicode="&#xa3;" horiz-adv-x="1083" d="M108 626.5q0 45.5 11 82.5q18 0 58 -1t61 -1q-5 13 -26 64.5t-29.5 74.5t-17.5 64.5t-9 78.5q0 65 25 128t72.5 117t128 87t181.5 33q127 0 234 -45t174 -107q-5 -42 -37.5 -84t-73.5 -55q-62 52 -138.5 82.5t-141.5 30.5q-92 0 -151.5 -53t-59.5 -146q0 -33 7.5 -71 t16.5 -64t24.5 -69.5t22.5 -65.5q52 0 177.5 1t199.5 1q11 -34 11 -80.5t-11 -81.5q-231 0 -346 2v-4q0 -97 -40.5 -196t-92.5 -173l6 -6q190 10 287 10h377q0 -49 -4 -78q-18 -104 -142 -104h-723q-26 100 -26 139q0 52 28 90l33 52q100 147 100 268h-155q-11 34 -11 79.5z " />
<glyph unicode="&#xa4;" horiz-adv-x="1177" d="M66 279l145 157q-72 107 -72 248q0 139 70 248l-143 158q37 66 114 116l160 -147q109 67 248 67q137 0 246 -67l161 149q73 -41 117 -114l-147 -160q71 -110 71 -250q0 -138 -71 -248l145 -157q-37 -67 -115 -117l-164 149q-103 -65 -243 -65t-246 65l-162 -147 q-72 42 -114 115zM354 684q0 -116 62.5 -197t171.5 -81q110 0 172.5 80t62.5 198q0 119 -62.5 200t-172.5 81t-172 -80.5t-62 -200.5z" />
<glyph unicode="&#xa5;" horiz-adv-x="1056" d="M49 1307q72 41 139 41q39 0 63 -20t42 -62l151 -367q37 -80 84 -237h13q52 164 88 239l180 430q46 12 88 12q49 0 104 -14l9 -12l-232 -514h162q8 -39 8 -74q0 -36 -8 -72h-227l-72 -161h299q8 -39 8 -74q0 -36 -8 -72h-309v-350q-47 -8 -105 -8q-63 0 -104 8v350h-309 q-11 50 -11 72q0 21 11 74h299l-72 161h-227q-11 49 -11 72q0 21 11 74h161z" />
<glyph unicode="&#xa6;" horiz-adv-x="509" d="M158 -289v793q36 10 98 10q57 0 98 -10v-793q-44 -8 -98 -8q-59 0 -98 8zM158 793v792q36 10 98 10q57 0 98 -10v-792q-49 -9 -98 -9q-54 0 -98 9z" />
<glyph unicode="&#xa7;" horiz-adv-x="993" d="M66 582q0 92 59.5 170.5t157.5 132.5q-142 93 -142 241q0 131 104 215t261 84q80 0 167.5 -20t153.5 -51q2 -40 -16 -85.5t-45 -68.5q-149 64 -256 64q-68 0 -112 -33t-44 -88q0 -44 32 -74.5t97 -56.5l119 -47q74 -30 126 -58t102 -69t76 -95t26 -120q0 -94 -59.5 -172 t-157.5 -132q141 -98 141 -241q0 -132 -107 -215.5t-274 -83.5q-89 0 -182.5 23.5t-157.5 62.5q-1 39 20 83.5t48 65.5q150 -73 276 -73q75 0 119.5 32.5t44.5 87.5q0 82 -129 134l-119 47q-58 23 -101.5 44.5t-88.5 52.5t-74 65t-47 79.5t-18 98.5zM274 614 q0 -65 55 -107.5t158 -82.5l78 -31q156 80 156 197q0 65 -54.5 108.5t-156.5 83.5l-80 31q-69 -35 -112.5 -86t-43.5 -113z" />
<glyph unicode="&#xa8;" horiz-adv-x="815" d="M102 1253q0 47 17 82q41 25 98 25t98 -25q17 -43 17 -82q0 -40 -17 -79q-41 -25 -98 -25q-62 0 -98 25q-17 35 -17 79zM483 1253q0 39 17 82q41 25 98 25t98 -25q17 -35 17 -82q0 -46 -17 -79q-36 -25 -98 -25q-57 0 -98 25q-17 42 -17 79z" />
<glyph unicode="&#xa9;" horiz-adv-x="1642" d="M82 698q0 154 57 291.5t155 235.5t235.5 155.5t291.5 57.5t291 -57.5t235.5 -155.5t156 -235.5t57.5 -291.5t-57.5 -291t-156 -234.5t-235.5 -154.5t-291 -57q-206 0 -375.5 96.5t-266.5 265.5t-97 375zM260 698q0 -161 71.5 -295t200.5 -213t289 -79t289.5 79t201.5 213 t72 295t-72 296t-202 214.5t-289 79.5t-288.5 -79.5t-201 -214.5t-71.5 -296zM467 698q0 103 31 184t83.5 129t115 72.5t130.5 24.5q139 0 221 -76.5t82 -167.5q0 -96 -94 -96q-39 0 -69 10q3 48 -9 90t-47.5 72.5t-89.5 30.5q-82 0 -127 -70t-45 -203q0 -127 52 -195.5 t145 -68.5q95 0 201 84q25 -13 46 -42.5t29 -59.5q-54 -54 -137.5 -88.5t-165.5 -34.5q-171 0 -261.5 113t-90.5 292z" />
<glyph unicode="&#xaa;" horiz-adv-x="868" d="M82 836q0 133 84.5 198.5t226.5 65.5q46 0 152 -8v57q0 66 -33 98.5t-88 32.5q-111 0 -258 -57q-51 55 -51 129q74 31 166.5 52t173.5 21q126 0 198 -68t72 -202v-315q0 -51 10.5 -84.5t40.5 -55.5q-4 -25 -27 -52.5t-49 -41.5q-93 15 -133 96q-112 -104 -241 -104 q-115 0 -179.5 70.5t-64.5 167.5zM260 848q0 -46 29.5 -78.5t77.5 -32.5q41 0 88.5 23t89.5 65v142q-94 8 -144 8q-66 0 -103.5 -34t-37.5 -93z" />
<glyph unicode="&#xab;" horiz-adv-x="1142" d="M68 522.5q0 39.5 12 67.5l395 377q36 -10 71.5 -43.5t47.5 -67.5l-285 -330l295 -340q-12 -34 -48 -67t-73 -43l-403 379q-12 28 -12 67.5zM533 522.5q0 39.5 12 67.5l395 377q36 -10 71.5 -43.5t47.5 -67.5l-285 -330l295 -340q-12 -34 -48 -67t-73 -43l-403 379 q-12 28 -12 67.5z" />
<glyph unicode="&#xac;" d="M96 612q0 52 8 93h852l13 -15v-454q-43 -9 -97 -9q-46 0 -98 9v192q0 14 1 47t1 49q-17 0 -50.5 -1t-47.5 -1h-574q-8 36 -8 90z" />
<glyph unicode="&#xad;" horiz-adv-x="716" d="M94 545q0 56 10 92h508q11 -40 11 -92q0 -50 -11 -90h-508q-10 36 -10 90z" />
<glyph unicode="&#xae;" horiz-adv-x="1214" d="M70 985q0 147 70.5 270.5t194 195t271.5 71.5t271.5 -71.5t194.5 -195t71 -270.5q0 -148 -71 -271.5t-194.5 -194t-271.5 -70.5q-111 0 -210.5 41.5t-171 113t-113 171t-41.5 210.5zM211 985q0 -170 113.5 -288.5t281.5 -118.5q169 0 283.5 118.5t114.5 288.5t-114.5 290 t-283.5 120q-167 0 -281 -120t-114 -290zM408 735v506l6 6q132 4 204 4q98 0 147.5 -41.5t49.5 -111.5q0 -53 -29.5 -87t-72.5 -48q16 -6 30 -22t19 -25t18 -33l27 -54q22 -41 45 -57q-28 -47 -86 -47q-48 0 -76 63l-51 95q-20 41 -61 41h-46v-189q-26 -7 -62 -7t-62 7z M532 1020q27 2 72 2q41 0 61.5 19t20.5 49q0 28 -19 46.5t-57 18.5h-78v-135z" />
<glyph unicode="&#xaf;" horiz-adv-x="815" d="M111 1262q0 50 10 86h575q9 -44 9 -84q0 -42 -9 -86h-575q-10 36 -10 84z" />
<glyph unicode="&#xb0;" horiz-adv-x="669" d="M37 1075q0 129 85 215t214 86q127 0 212 -86t85 -215q0 -130 -84.5 -215.5t-212.5 -85.5q-129 0 -214 85.5t-85 215.5zM199 1075q0 -70 37 -113.5t100 -43.5q61 0 98 43.5t37 113.5q0 68 -37 112t-98 44q-63 0 -100 -43.5t-37 -112.5z" />
<glyph unicode="&#xb1;" d="M129 88q0 44 8 88h811q8 -44 8 -88q0 -47 -8 -88h-811q-8 41 -8 88zM129 707q0 45 8 86h215q14 0 47.5 -1t49.5 -1q0 15 -1.5 51t-1.5 51v209q41 8 97 8q57 0 96 -8v-209q0 -15 -1 -50.5t-1 -51.5q14 0 47 1t49 1h215q8 -41 8 -86q0 -47 -8 -86h-215q-16 0 -49 1t-47 1 q0 -17 1 -51.5t1 -49.5v-211q-39 -8 -96 -8q-56 0 -97 8v211q0 15 1.5 49.5t1.5 51.5q-16 0 -49.5 -1t-47.5 -1h-215q-8 39 -8 86z" />
<glyph unicode="&#xb2;" horiz-adv-x="860" d="M113 803q0 110 155 237l150 123q50 38 70 72t20 78q0 46 -31 77t-78 31q-45 0 -81 -32t-56 -82q-37 3 -78.5 21.5t-58.5 41.5q28 91 104.5 152t184.5 61q129 0 207.5 -75.5t78.5 -186.5q0 -89 -42 -154t-126 -131l-114 -90q-92 -69 -113 -106q101 16 174 16h244 q0 -58 -2 -78q-8 -40 -34.5 -63t-68.5 -23h-446q-3 4 -13.5 17t-16.5 22t-13.5 22t-11.5 25.5t-4 24.5z" />
<glyph unicode="&#xb3;" horiz-adv-x="860" d="M104 774q6 34 26 68t46 57q99 -68 191 -68q73 0 118 37.5t45 106.5q0 62 -36.5 101.5t-102.5 39.5q-47 0 -84 -18q-23 9 -44 37t-27 59l161 162q38 38 80 65l-4 6q-46 -10 -162 -10h-164q-10 29 -10 72q0 45 13 80h499q33 -68 33 -101q0 -42 -35 -75l-119 -117 q-23 -23 -59 -45q105 0 176.5 -72t71.5 -188q0 -92 -48.5 -159t-120.5 -97.5t-155 -30.5q-173 0 -289 90z" />
<glyph unicode="&#xb4;" horiz-adv-x="815" d="M252 1188l295 325q46 -15 89 -55t60 -84l-350 -272q-29 7 -55.5 31.5t-38.5 54.5z" />
<glyph unicode="&#xb6;" horiz-adv-x="1374" d="M86 965q0 220 128.5 332t342.5 112q54 0 234 -8l12 -12v-1229q0 -135 -18.5 -220.5t-73.5 -146.5q-101 -112 -301 -112q-69 0 -144.5 15t-122.5 34q0 37 15 85t37 76q118 -43 196 -43q104 0 154 64q43 55 43 211v391h-39q-207 0 -335 117t-128 334zM936 -272v1658l12 13 h369q11 -32 11 -94t-11 -93h-80q-57 0 -84 2v-1486q-53 -9 -109 -9q-58 0 -108 9z" />
<glyph unicode="&#xb7;" horiz-adv-x="624" d="M176 582q0 64 19 100q49 29 118 29q29 0 63.5 -8.5t53.5 -20.5q19 -36 19 -100q0 -63 -19 -103q-16 -11 -51 -18.5t-66 -7.5q-74 0 -118 26q-19 40 -19 103z" />
<glyph unicode="&#xb8;" horiz-adv-x="815" d="M231 -416q3 56 43 107q49 -29 103 -29q45 0 68.5 23t23.5 57t-23.5 57t-64.5 23q-24 0 -47 -10q-26 10 -37 36q24 86 53 152h133q-27 -54 -34 -76q85 -5 137.5 -53.5t52.5 -124.5q0 -90 -69.5 -146.5t-176.5 -56.5q-100 0 -162 41z" />
<glyph unicode="&#xb9;" horiz-adv-x="860" d="M121 1286q105 60 167 125.5t103 155.5q39 10 88 10q38 0 82 -10v-715h170q8 -31 8 -78q0 -42 -8 -78h-555q-8 39 -8 78q0 47 8 78h209v326q0 19 2.5 69t3.5 64q-62 -83 -190 -140q-30 15 -52 47.5t-28 67.5z" />
<glyph unicode="&#xba;" horiz-adv-x="845" d="M74 1014q0 205 114 327q90 84 234 84q145 0 235 -84q115 -123 115 -327q0 -211 -115 -332q-90 -84 -235 -84q-144 0 -234 84q-114 120 -114 332zM256 1014q0 -121 40 -197t128 -76q86 0 125 75.5t39 197.5q0 119 -39 194.5t-125 75.5q-60 0 -99 -39t-54 -97t-15 -134z " />
<glyph unicode="&#xbb;" horiz-adv-x="1142" d="M74 856q12 33 48.5 66.5t72.5 44.5l405 -379q10 -28 10 -67.5t-10 -65.5l-397 -379q-35 11 -70 44t-47 68l283 330zM539 856q12 34 48.5 67t71.5 44l406 -379q11 -28 11 -67.5t-11 -65.5l-397 -379q-35 11 -70 44t-47 68l283 330z" />
<glyph unicode="&#xbc;" horiz-adv-x="1937" d="M72 1118q105 60 167 125.5t103 155.5q39 10 88 10q38 0 82 -10v-715h170q8 -31 8 -78q0 -42 -8 -78h-555q-8 39 -8 78q0 47 8 78h209v326q0 19 2.5 69t3.5 64q-60 -82 -190 -139q-30 15 -52 47t-28 67zM553 0l770 1399q41 12 110 11.5t99 -11.5l-772 -1399 q-41 -12 -109.5 -11.5t-97.5 11.5zM1184 272q0 32 30 95l240 518q43 5 94 -6.5t78 -34.5l-156 -336q-70 -148 -104 -191l4 -4q51 4 146 4h36q-2 16 -2 50v67q0 60 32.5 94.5t86.5 34.5h51l6 -6v-135q0 -15 -1 -53.5t-1 -51.5h125q6 -27 6 -61q0 -55 -14 -90h-117v-160 q-33 -8 -84 -8t-90 8v86q0 12 1 37t1 37q-14 0 -42 -1t-42 -1h-243q-41 68 -41 108z" />
<glyph unicode="&#xbd;" horiz-adv-x="1937" d="M72 1118q105 60 167 125.5t103 155.5q39 10 88 10q38 0 82 -10v-715h170q8 -31 8 -78q0 -42 -8 -78h-555q-8 39 -8 78q0 47 8 78h209v326q0 19 2.5 69t3.5 64q-60 -82 -190 -139q-30 15 -52 47t-28 67zM522 0l770 1399q41 12 110 11.5t99 -11.5l-772 -1399 q-41 -12 -109.5 -11.5t-97.5 11.5zM1227 111q0 110 155 237l150 123q50 38 70 72t20 78q0 46 -31 77t-78 31q-45 0 -81 -32.5t-56 -82.5q-36 3 -78 22t-59 42q28 91 104.5 152t184.5 61q129 0 208 -76t79 -186q0 -89 -42 -154t-126 -131l-115 -90q-91 -68 -113 -107 q107 17 174 17h244q0 -58 -2 -78q-8 -41 -34 -63.5t-68 -22.5h-447q-3 4 -13.5 17t-16.5 22t-13.5 22t-11.5 25.5t-4 24.5z" />
<glyph unicode="&#xbe;" horiz-adv-x="1937" d="M102 608q6 34 26 68t46 57q98 -67 191 -67q73 0 118 37.5t45 105.5q0 62 -36.5 101.5t-102.5 39.5q-47 0 -84 -18q-23 9 -44.5 37t-27.5 59l162 162q38 38 80 65l-4 7q-51 -11 -162 -11h-164q-10 29 -10 72q0 48 12 80h500q33 -68 33 -100q0 -43 -35 -76l-119 -117 q-23 -23 -59 -45q105 0 176.5 -72t71.5 -188q0 -92 -48.5 -159t-120.5 -97.5t-155 -30.5q-173 0 -289 90zM522 0l770 1399q41 12 110 11.5t99 -11.5l-772 -1399q-41 -12 -109.5 -11.5t-97.5 11.5zM1174 272q0 32 30 95l240 518q43 5 94 -6.5t78 -34.5l-156 -336 q-70 -148 -104 -191l4 -4q51 4 145 4h37q-2 16 -2 50v67q0 60 32.5 94.5t86.5 34.5h51l6 -6v-135q0 -15 -1 -53.5t-1 -51.5h125q6 -27 6 -61q0 -55 -14 -90h-117v-160q-33 -8 -84 -8t-90 8v86q0 12 1 37t1 37q-14 0 -42 -1t-42 -1h-244q-40 66 -40 108z" />
<glyph unicode="&#xbf;" horiz-adv-x="811" d="M23 -68q0 248 268 398l127 71l16 207q33 13 80 13q52 0 84 -13l12 -305l-18 -22l-100 -50q-118 -63 -180 -128t-62 -150q0 -83 53.5 -132.5t147.5 -49.5q123 0 266 75q29 -26 52 -72t26 -87q-198 -105 -392 -105q-174 0 -277 95.5t-103 254.5zM381 907q0 67 18 97 q46 24 115 24q67 0 117 -24q16 -32 16 -97q0 -67 -16 -96q-45 -25 -117 -25q-73 0 -115 25q-18 27 -18 96z" />
<glyph unicode="&#xc0;" horiz-adv-x="1251" d="M41 14l463 1385q44 8 125 8q82 0 123 -8l458 -1385q-43 -28 -127 -28q-52 0 -80.5 24t-48.5 90l-75 240q-20 0 -68.5 -1t-54.5 -1h-281q-6 0 -52.5 1t-66.5 1l-108 -342q-36 -8 -94 -8q-56 0 -107 14zM352 1675q6 49 34 99t60 73l416 -245q-17 -80 -63 -111zM412 516 q19 0 58.5 1t45.5 1h205q5 0 44 -1t58 -1l-94 297q-64 207 -108 371h-11q-25 -116 -80 -297z" />
<glyph unicode="&#xc1;" horiz-adv-x="1251" d="M41 14l463 1385q44 8 125 8q82 0 123 -8l458 -1385q-43 -28 -127 -28q-52 0 -80.5 24t-48.5 90l-75 240q-20 0 -68.5 -1t-54.5 -1h-281q-6 0 -52.5 1t-66.5 1l-108 -342q-36 -8 -94 -8q-56 0 -107 14zM412 516q19 0 58.5 1t45.5 1h205q5 0 44 -1t58 -1l-94 297 q-64 207 -108 371h-11q-25 -116 -80 -297zM422 1602l416 245q32 -23 60 -73t34 -99l-447 -184q-23 14 -40.5 47t-22.5 64z" />
<glyph unicode="&#xc2;" horiz-adv-x="1251" d="M41 14l463 1385q44 8 125 8q82 0 123 -8l458 -1385q-43 -28 -127 -28q-52 0 -80.5 24t-48.5 90l-75 240q-20 0 -68.5 -1t-54.5 -1h-281q-6 0 -52.5 1t-66.5 1l-108 -342q-36 -8 -94 -8q-56 0 -107 14zM299 1587l233 232q40 7 95.5 7t93.5 -7l229 -217q-10 -33 -38 -58.5 t-54 -34.5l-231 154l-236 -170q-27 10 -55 37.5t-37 56.5zM412 516q19 0 58.5 1t45.5 1h205q5 0 44 -1t58 -1l-94 297q-64 207 -108 371h-11q-25 -116 -80 -297z" />
<glyph unicode="&#xc3;" horiz-adv-x="1251" d="M41 14l463 1385q44 8 125 8q82 0 123 -8l458 -1385q-43 -28 -127 -28q-52 0 -80.5 24t-48.5 90l-75 240q-20 0 -68.5 -1t-54.5 -1h-281q-6 0 -52.5 1t-66.5 1l-108 -342q-36 -8 -94 -8q-56 0 -107 14zM258 1606l18 41q29 68 85.5 108.5t123.5 40.5q53 0 121 -33l115 -53 q32 -18 67 -18q41 0 80 51l25 29q31 -2 62 -20.5t44 -45.5l-18 -39q-32 -71 -87.5 -110t-121.5 -39q-50 0 -121 30l-114 56q-40 18 -68 18q-42 0 -80 -51l-24 -29q-32 0 -63.5 18.5t-43.5 45.5zM412 516q19 0 58.5 1t45.5 1h205q5 0 44 -1t58 -1l-94 297q-64 207 -108 371 h-11q-25 -116 -80 -297z" />
<glyph unicode="&#xc4;" horiz-adv-x="1251" d="M41 14l463 1385q44 8 125 8q82 0 123 -8l458 -1385q-43 -28 -127 -28q-52 0 -80.5 24t-48.5 90l-75 240q-20 0 -68.5 -1t-54.5 -1h-281q-6 0 -52.5 1t-66.5 1l-108 -342q-36 -8 -94 -8q-56 0 -107 14zM295 1618q0 44 18 82q39 24 99 24q61 0 100 -24q20 -31 20 -82 q0 -55 -20 -86q-36 -25 -100 -25q-63 0 -99 25q-18 38 -18 86zM412 516q19 0 58.5 1t45.5 1h205q5 0 44 -1t58 -1l-94 297q-64 207 -108 371h-11q-25 -116 -80 -297zM725 1618q0 51 20 82q39 24 101 24q55 0 98 -24q19 -40 19 -82q0 -46 -19 -86q-39 -25 -98 -25 q-65 0 -101 25q-20 31 -20 86z" />
<glyph unicode="&#xc5;" horiz-adv-x="1251" d="M41 14l461 1381q-57 31 -89 84.5t-32 119.5q0 97 70 164.5t178 67.5q107 0 177.5 -67.5t70.5 -164.5q0 -66 -33.5 -120.5t-91.5 -83.5l458 -1381q-43 -28 -127 -28q-52 0 -80.5 24t-48.5 90l-75 240q-20 0 -68.5 -1t-54.5 -1h-281q-6 0 -52.5 1t-66.5 1l-108 -342 q-36 -8 -94 -8q-56 0 -107 14zM412 516q19 0 58.5 1t45.5 1h205q5 0 44 -1t58 -1l-94 297q-64 207 -108 371h-11q-25 -116 -80 -297zM524 1599q0 -49 29.5 -80.5t75.5 -31.5q44 0 73 31.5t29 80.5q0 47 -29 79t-73 32q-46 0 -75.5 -31.5t-29.5 -79.5z" />
<glyph unicode="&#xc6;" horiz-adv-x="1794" d="M31 16l671 1362q46 21 132 21h823q8 -44 8 -86q0 -49 -18 -99h-488h-129q0 -26 1 -66t1 -67v-286q26 0 70 1t57 1h387q10 -36 10 -90q0 -55 -10 -91h-387q-80 0 -127 2v-333q0 -18 -1 -52.5t-1 -54.5q58 6 135 6h533q0 -55 -6 -84q-15 -102 -140 -102h-608q-57 0 -90 36 t-33 99v207q-20 0 -63 -1t-49 -1h-183q-6 0 -47.5 1t-60.5 1l-166 -342q-41 -8 -107 -8q-55 0 -106 14zM502 516q18 0 48.5 1t35.5 1h125q4 0 47 -1t63 -1v668h-10q-73 -179 -129 -297z" />
<glyph unicode="&#xc7;" horiz-adv-x="1236" d="M100 692q0 185 45 328.5t123.5 230t178 130.5t215.5 44q220 0 356.5 -118.5t136.5 -280.5q0 -123 -123 -123q-38 0 -90 12q2 62 -12 118.5t-45.5 106.5t-90 79.5t-137.5 29.5q-161 0 -244 -142.5t-83 -414.5q0 -252 89.5 -390t250.5 -138q178 0 366 155q36 -24 67.5 -64 t41.5 -77q-77 -77 -191 -132t-243 -69q-19 -39 -23 -53q85 -5 138 -53.5t53 -124.5q0 -90 -69.5 -146.5t-176.5 -56.5q-100 0 -162 41q3 56 43 107q45 -29 102 -29q45 0 69 23t24 57t-23.5 57t-64.5 23q-28 0 -48 -10q-25 9 -36 36q17 61 43 129q-126 11 -221.5 75 t-150.5 165.5t-81.5 220.5t-26.5 254z" />
<glyph unicode="&#xc8;" horiz-adv-x="1159" d="M184 133v1253l15 13h823q6 -33 6 -86q0 -55 -16 -99h-486q-9 0 -34.5 -0.5t-49.5 -0.5t-45 1q0 -26 1 -66t1 -67v-286q25 0 69 1t58 1h385q11 -40 11 -90q0 -51 -11 -91h-385q-80 0 -127 2v-335q0 -18 -1 -51.5t-1 -53.5q62 6 135 6h531q0 -55 -6 -84q-17 -102 -139 -102 h-609q-58 0 -91.5 36t-33.5 99zM336 1675q6 49 34 99t60 73l416 -245q-16 -80 -64 -111z" />
<glyph unicode="&#xc9;" horiz-adv-x="1159" d="M184 133v1253l15 13h823q6 -33 6 -86q0 -55 -16 -99h-486q-9 0 -34.5 -0.5t-49.5 -0.5t-45 1q0 -26 1 -66t1 -67v-286q25 0 69 1t58 1h385q11 -40 11 -90q0 -51 -11 -91h-385q-80 0 -127 2v-335q0 -18 -1 -51.5t-1 -53.5q62 6 135 6h531q0 -55 -6 -84q-17 -102 -139 -102 h-609q-58 0 -91.5 36t-33.5 99zM406 1602l415 245q32 -23 60 -73t34 -99l-446 -184q-23 14 -40.5 47t-22.5 64z" />
<glyph unicode="&#xca;" horiz-adv-x="1159" d="M184 133v1253l15 13h823q6 -33 6 -86q0 -55 -16 -99h-486q-9 0 -34.5 -0.5t-49.5 -0.5t-45 1q0 -26 1 -66t1 -67v-286q25 0 69 1t58 1h385q11 -40 11 -90q0 -51 -11 -91h-385q-80 0 -127 2v-335q0 -18 -1 -51.5t-1 -53.5q62 6 135 6h531q0 -55 -6 -84q-17 -102 -139 -102 h-609q-58 0 -91.5 36t-33.5 99zM283 1587l233 232q40 7 95.5 7t93.5 -7l229 -217q-10 -33 -38 -58.5t-54 -34.5l-232 154l-235 -170q-27 10 -55 37.5t-37 56.5z" />
<glyph unicode="&#xcb;" horiz-adv-x="1159" d="M184 133v1253l15 13h823q6 -33 6 -86q0 -55 -16 -99h-486q-9 0 -34.5 -0.5t-49.5 -0.5t-45 1q0 -26 1 -66t1 -67v-286q25 0 69 1t58 1h385q11 -40 11 -90q0 -51 -11 -91h-385q-80 0 -127 2v-335q0 -18 -1 -51.5t-1 -53.5q62 6 135 6h531q0 -55 -6 -84q-17 -102 -139 -102 h-609q-58 0 -91.5 36t-33.5 99zM279 1618q0 44 18 82q39 24 98 24q62 0 101 -24q20 -31 20 -82q0 -55 -20 -86q-36 -25 -101 -25q-62 0 -98 25q-18 38 -18 86zM709 1618q0 51 20 82q39 24 100 24q56 0 99 -24q18 -38 18 -82q0 -48 -18 -86q-39 -25 -99 -25q-64 0 -100 25 q-20 31 -20 86z" />
<glyph unicode="&#xcc;" horiz-adv-x="602" d="M25 1675q6 49 34 99t60 73l416 -245q-16 -80 -64 -111zM193 0v1399q41 8 108 8q65 0 109 -8v-1399q-44 -8 -109 -8q-67 0 -108 8z" />
<glyph unicode="&#xcd;" horiz-adv-x="602" d="M94 1602l416 245q32 -23 60 -73t34 -99l-446 -184q-23 14 -41 47.5t-23 63.5zM193 0v1399q41 8 108 8q65 0 109 -8v-1399q-44 -8 -109 -8q-67 0 -108 8z" />
<glyph unicode="&#xce;" horiz-adv-x="602" d="M-29 1587l234 232q40 7 95 7t93 -7l230 -217q-10 -33 -38 -58.5t-55 -34.5l-231 154l-236 -170q-27 10 -55 37.5t-37 56.5zM193 0v1399q41 8 108 8q65 0 109 -8v-1399q-44 -8 -109 -8q-67 0 -108 8z" />
<glyph unicode="&#xcf;" horiz-adv-x="602" d="M-33 1618q0 42 19 82q39 24 98 24q61 0 100 -24q21 -33 21 -82q0 -53 -21 -86q-36 -25 -100 -25q-62 0 -98 25q-19 40 -19 86zM193 0v1399q41 8 108 8q65 0 109 -8v-1399q-44 -8 -109 -8q-67 0 -108 8zM397 1618q0 49 21 82q39 24 100 24q55 0 98 -24q19 -40 19 -82 q0 -46 -19 -86q-39 -25 -98 -25q-64 0 -100 25q-21 33 -21 86z" />
<glyph unicode="&#xd0;" horiz-adv-x="1359" d="M51 707q0 53 8 92h158v587l14 15q178 6 451 6q92 0 192.5 -26.5t163.5 -77.5q126 -105 171.5 -252.5t45.5 -350.5q0 -206 -45 -353.5t-172 -252.5q-63 -51 -163.5 -77.5t-192.5 -26.5q-95 0 -451 8l-14 14v606h-158q-8 36 -8 89zM432 166q8 2 127 1t123 -1q63 0 114.5 17 t87 45.5t62 71t42 87.5t25 101t12.5 105t3 107q0 57 -3 106.5t-12.5 105t-25 100t-42 87t-62 70.5t-87 45t-114.5 17q-43 0 -122.5 1t-127.5 1v-434h316q10 -48 10 -90q0 -46 -10 -91h-316v-452z" />
<glyph unicode="&#xd1;" horiz-adv-x="1392" d="M186 0v1397q58 10 129 10q74 0 131 -8l433 -858q29 -61 75.5 -165.5t59.5 -131.5l8 2q-16 262 -16 516v510q0 73 25.5 104t90.5 31h72l12 -10v-1395q-58 -10 -131 -10q-74 0 -131 8l-436 858q-61 127 -129 285l-8 -2q18 -317 18 -502v-639q-49 -8 -100 -8q-56 0 -103 8z M332 1606l18 41q29 68 85.5 108.5t123.5 40.5q53 0 121 -33l115 -53q32 -18 67 -18q41 0 80 51l25 29q31 -2 62 -20.5t44 -45.5l-18 -39q-32 -71 -87.5 -110t-121.5 -39q-50 0 -121 30l-115 56q-40 18 -67 18q-42 0 -80 -51l-25 -29q-32 0 -63 18.5t-43 45.5z" />
<glyph unicode="&#xd2;" horiz-adv-x="1347" d="M100 700q0 183 52.5 344t166.5 259q138 122 355 122q216 0 354 -122q77 -66 127.5 -169.5t70 -209.5t19.5 -224q0 -119 -19.5 -225.5t-70 -209.5t-127.5 -169q-140 -123 -354 -123q-215 0 -355 123q-114 98 -166.5 259t-52.5 345zM330 700q0 -82 8 -153.5t31 -147.5 t59.5 -129.5t99.5 -88t146 -34.5q82 0 144.5 34.5t99 88t59.5 129.5t31 147.5t8 153.5t-8 153.5t-31 147t-59.5 129t-99 87.5t-144.5 34q-69 0 -124.5 -23t-92.5 -65t-62.5 -94t-39 -116.5t-19.5 -125t-6 -127.5zM397 1675q6 49 34.5 99t60.5 73l415 -245q-17 -80 -63 -111z " />
<glyph unicode="&#xd3;" horiz-adv-x="1347" d="M100 700q0 183 52.5 344t166.5 259q138 122 355 122q216 0 354 -122q77 -66 127.5 -169.5t70 -209.5t19.5 -224q0 -119 -19.5 -225.5t-70 -209.5t-127.5 -169q-140 -123 -354 -123q-215 0 -355 123q-114 98 -166.5 259t-52.5 345zM330 700q0 -82 8 -153.5t31 -147.5 t59.5 -129.5t99.5 -88t146 -34.5q82 0 144.5 34.5t99 88t59.5 129.5t31 147.5t8 153.5t-8 153.5t-31 147t-59.5 129t-99 87.5t-144.5 34q-69 0 -124.5 -23t-92.5 -65t-62.5 -94t-39 -116.5t-19.5 -125t-6 -127.5zM467 1602l416 245q32 -23 60 -73t34 -99l-447 -184 q-23 14 -40.5 47t-22.5 64z" />
<glyph unicode="&#xd4;" horiz-adv-x="1347" d="M100 700q0 183 52.5 344t166.5 259q138 122 355 122q216 0 354 -122q77 -66 127.5 -169.5t70 -209.5t19.5 -224q0 -119 -19.5 -225.5t-70 -209.5t-127.5 -169q-140 -123 -354 -123q-215 0 -355 123q-114 98 -166.5 259t-52.5 345zM330 700q0 -82 8 -153.5t31 -147.5 t59.5 -129.5t99.5 -88t146 -34.5q82 0 144.5 34.5t99 88t59.5 129.5t31 147.5t8 153.5t-8 153.5t-31 147t-59.5 129t-99 87.5t-144.5 34q-69 0 -124.5 -23t-92.5 -65t-62.5 -94t-39 -116.5t-19.5 -125t-6 -127.5zM344 1587l234 232q40 7 95 7t93 -7l229 -217 q-10 -33 -38 -58.5t-54 -34.5l-231 154l-236 -170q-27 10 -55 37.5t-37 56.5z" />
<glyph unicode="&#xd5;" horiz-adv-x="1347" d="M100 700q0 183 52.5 344t166.5 259q138 122 355 122q216 0 354 -122q77 -66 127.5 -169.5t70 -209.5t19.5 -224q0 -119 -19.5 -225.5t-70 -209.5t-127.5 -169q-140 -123 -354 -123q-215 0 -355 123q-114 98 -166.5 259t-52.5 345zM303 1618l19 41q33 69 86.5 108 t119.5 39q57 0 119 -30l115 -56q32 -18 65 -18q39 0 80 51l23 29q32 0 63 -19t43 -45l-18 -41q-32 -69 -87.5 -108t-119.5 -39q-50 0 -119 31l-112 53q-32 18 -68 18q-41 0 -80 -49l-22 -29q-32 0 -63.5 18.5t-43.5 45.5zM330 700q0 -82 8 -153.5t31 -147.5t59.5 -129.5 t99.5 -88t146 -34.5q82 0 144.5 34.5t99 88t59.5 129.5t31 147.5t8 153.5t-8 153.5t-31 147t-59.5 129t-99 87.5t-144.5 34q-69 0 -124.5 -23t-92.5 -65t-62.5 -94t-39 -116.5t-19.5 -125t-6 -127.5z" />
<glyph unicode="&#xd6;" horiz-adv-x="1347" d="M100 700q0 183 52.5 344t166.5 259q138 122 355 122q216 0 354 -122q77 -66 127.5 -169.5t70 -209.5t19.5 -224q0 -119 -19.5 -225.5t-70 -209.5t-127.5 -169q-140 -123 -354 -123q-215 0 -355 123q-114 98 -166.5 259t-52.5 345zM330 700q0 -82 8 -153.5t31 -147.5 t59.5 -129.5t99.5 -88t146 -34.5q82 0 144.5 34.5t99 88t59.5 129.5t31 147.5t8 153.5t-8 153.5t-31 147t-59.5 129t-99 87.5t-144.5 34q-69 0 -124.5 -23t-92.5 -65t-62.5 -94t-39 -116.5t-19.5 -125t-6 -127.5zM340 1618q0 44 18 82q39 24 99 24q61 0 100 -24 q21 -33 21 -82q0 -53 -21 -86q-36 -25 -100 -25q-63 0 -99 25q-18 38 -18 86zM770 1618q0 49 21 82q39 24 100 24q55 0 98 -24q19 -40 19 -82q0 -46 -19 -86q-39 -25 -98 -25q-64 0 -100 25q-21 33 -21 86z" />
<glyph unicode="&#xd7;" d="M147 338l203 201q11 12 34 34t28 27l-62 64l-203 200q18 44 54 80q35 35 78 53l202 -202q54 -60 60 -66q14 12 37.5 37t25.5 27l201 204q43 -18 78 -53q34 -34 55 -80l-203 -200q-11 -12 -35.5 -35.5t-29.5 -28.5q60 -54 65 -59l203 -203q-21 -46 -53 -78 q-39 -39 -80 -53l-201 203l-63 61l-60 -61l-202 -205q-31 14 -78 55q-39 39 -54 78z" />
<glyph unicode="&#xd8;" horiz-adv-x="1349" d="M100 700q0 182 53 343.5t166 259.5q142 122 357 122q153 0 258 -57l82 141q37 -4 78.5 -26.5t64.5 -50.5l-94 -164q94 -101 139 -252t45 -316q0 -183 -53 -344.5t-166 -259.5q-140 -123 -354 -123q-146 0 -262 58l-78 -140q-38 4 -78.5 27t-64.5 51l90 162 q-93 102 -138 252.5t-45 316.5zM324 700q0 -231 65 -370l457 876q-71 49 -170 49q-83 0 -147 -34.5t-102 -88.5t-62 -129.5t-32.5 -148t-8.5 -154.5zM502 193q76 -50 174 -50q83 0 146 34.5t100.5 89t61 130.5t32 148.5t8.5 154.5q0 222 -66 369z" />
<glyph unicode="&#xd9;" horiz-adv-x="1370" d="M168 492v903l12 12h84q65 0 93 -33t28 -106v-776q0 -168 76 -255t223 -87q148 0 223.5 86.5t75.5 255.5v907q44 8 107 8q68 0 112 -8v-907q0 -250 -139 -384.5t-379 -134.5q-239 0 -377.5 134.5t-138.5 384.5zM406 1675q6 49 34 99t60 73l415 -245q-17 -80 -63 -111z" />
<glyph unicode="&#xda;" horiz-adv-x="1370" d="M168 492v903l12 12h84q65 0 93 -33t28 -106v-776q0 -168 76 -255t223 -87q148 0 223.5 86.5t75.5 255.5v907q44 8 107 8q68 0 112 -8v-907q0 -250 -139 -384.5t-379 -134.5q-239 0 -377.5 134.5t-138.5 384.5zM475 1602l416 245q32 -23 60 -73t34 -99l-446 -184 q-23 14 -41 47.5t-23 63.5z" />
<glyph unicode="&#xdb;" horiz-adv-x="1370" d="M168 492v903l12 12h84q65 0 93 -33t28 -106v-776q0 -168 76 -255t223 -87q148 0 223.5 86.5t75.5 255.5v907q44 8 107 8q68 0 112 -8v-907q0 -250 -139 -384.5t-379 -134.5q-239 0 -377.5 134.5t-138.5 384.5zM352 1587l234 232q40 7 95 7t93 -7l230 -217 q-10 -33 -38 -58.5t-55 -34.5l-231 154l-236 -170q-27 10 -55 37.5t-37 56.5z" />
<glyph unicode="&#xdc;" horiz-adv-x="1370" d="M168 492v903l12 12h84q65 0 93 -33t28 -106v-776q0 -168 76 -255t223 -87q148 0 223.5 86.5t75.5 255.5v907q44 8 107 8q68 0 112 -8v-907q0 -250 -139 -384.5t-379 -134.5q-239 0 -377.5 134.5t-138.5 384.5zM348 1618q0 42 19 82q39 24 98 24q61 0 100 -24 q21 -33 21 -82q0 -53 -21 -86q-36 -25 -100 -25q-62 0 -98 25q-19 40 -19 86zM778 1618q0 49 21 82q39 24 100 24q55 0 98 -24q19 -40 19 -82q0 -46 -19 -86q-39 -25 -98 -25q-64 0 -100 25q-21 33 -21 86z" />
<glyph unicode="&#xdd;" horiz-adv-x="1021" d="M12 1374q68 39 138 39q43 0 69 -21.5t47 -72.5l162 -393q38 -93 86 -256h10q29 104 90 260l187 469q39 10 92 10q56 0 106 -16l11 -15l-389 -929v-449q-47 -8 -111 -8q-68 0 -109 8v453zM311 1602l416 245q32 -23 60 -73t34 -99l-446 -184q-23 14 -41 47.5t-23 63.5z" />
<glyph unicode="&#xde;" horiz-adv-x="1169" d="M186 0v1399q41 8 107 8t110 -8v-209q140 4 213 4q139 0 243 -47t166 -150t62 -252q0 -217 -129 -332.5t-342 -115.5h-213v-297q-44 -8 -110 -8t-107 8zM403 469q44 0 118 1t87 1q59 0 104.5 17t73 43.5t44.5 64t23.5 73.5t6.5 76q0 52 -11 96.5t-37.5 87t-78.5 67 t-125 24.5q-127 0 -205 2v-553z" />
<glyph unicode="&#xdf;" horiz-adv-x="1284" d="M31 885q0 48 8 84l176 -4v71q0 188 122.5 292t326.5 104t326 -111t122 -297q0 -75 -31 -160h-4l4 -2q-84 -20 -126 -62.5t-42 -86.5q0 -52 76 -117l76 -68q152 -135 152 -266q0 -129 -104 -209t-271 -80q-60 0 -132 16t-128 44q2 37 21.5 81.5t47.5 69.5q86 -47 174 -47 q72 0 119 34.5t47 88.5q0 67 -82 139l-84 72q-68 60 -101.5 113.5t-33.5 113.5q0 74 54 141t147 103q8 46 8 72q0 109 -61.5 181.5t-175.5 72.5q-118 0 -175 -67t-57 -187v-1014q-44 -8 -108 -8q-66 0 -107 8v801l-176 -2q-8 33 -8 86z" />
<glyph unicode="&#xe0;" horiz-adv-x="1038" d="M88 274q0 168 108.5 254t284.5 86q102 0 197 -14v80q0 182 -168 182q-120 0 -322 -78q-25 24 -42 68.5t-19 85.5q90 40 207.5 67t216.5 27q157 0 246.5 -86t89.5 -256v-420q0 -64 12 -105.5t45 -70.5q-9 -31 -32 -62.5t-48 -45.5q-119 23 -164 127q-144 -140 -309 -140 q-74 0 -133.5 26.5t-95.5 70t-55 96t-19 108.5zM229 1374q17 44 59.5 84t88.5 55l294 -325q-12 -29 -38 -54t-54 -32zM299 291q0 -65 36.5 -107.5t100.5 -42.5q60 0 124 31.5t118 91.5v195q-81 8 -184 8q-92 0 -143.5 -46.5t-51.5 -129.5z" />
<glyph unicode="&#xe1;" horiz-adv-x="1038" d="M88 274q0 168 108.5 254t284.5 86q102 0 197 -14v80q0 182 -168 182q-120 0 -322 -78q-25 24 -42 68.5t-19 85.5q90 40 207.5 67t216.5 27q157 0 246.5 -86t89.5 -256v-420q0 -64 12 -105.5t45 -70.5q-9 -31 -32 -62.5t-48 -45.5q-119 23 -164 127q-144 -140 -309 -140 q-74 0 -133.5 26.5t-95.5 70t-55 96t-19 108.5zM299 291q0 -65 36.5 -107.5t100.5 -42.5q60 0 124 31.5t118 91.5v195q-81 8 -184 8q-92 0 -143.5 -46.5t-51.5 -129.5zM346 1188l295 325q46 -15 89.5 -55t60.5 -84l-351 -272q-29 7 -55.5 31.5t-38.5 54.5z" />
<glyph unicode="&#xe2;" horiz-adv-x="1038" d="M88 274q0 168 108.5 254t284.5 86q102 0 197 -14v80q0 182 -168 182q-120 0 -322 -78q-25 24 -42 68.5t-19 85.5q90 40 207.5 67t216.5 27q157 0 246.5 -86t89.5 -256v-420q0 -64 12 -105.5t45 -70.5q-9 -31 -32 -62.5t-48 -45.5q-119 23 -164 127q-144 -140 -309 -140 q-74 0 -133.5 26.5t-95.5 70t-55 96t-19 108.5zM203 1196l217 272q34 12 86.5 12t91.5 -10l201 -258q-14 -33 -44 -58.5t-59 -35.5l-190 187l-205 -197q-62 24 -98 88zM299 291q0 -65 36.5 -107.5t100.5 -42.5q60 0 124 31.5t118 91.5v195q-81 8 -184 8q-92 0 -143.5 -46.5 t-51.5 -129.5z" />
<glyph unicode="&#xe3;" horiz-adv-x="1038" d="M88 274q0 168 108.5 254t284.5 86q102 0 197 -14v80q0 182 -168 182q-120 0 -322 -78q-25 24 -42 68.5t-19 85.5q90 40 207.5 67t216.5 27q157 0 246.5 -86t89.5 -256v-420q0 -64 12 -105.5t45 -70.5q-9 -31 -32 -62.5t-48 -45.5q-119 23 -164 127q-144 -140 -309 -140 q-74 0 -133.5 26.5t-95.5 70t-55 96t-19 108.5zM139 1229l18 41q31 69 85 109t120 40q55 0 117 -30l113 -58q32 -18 65 -18q40 0 80 53l23 29q31 0 61.5 -19t42.5 -47l-18 -41q-32 -71 -86.5 -110t-118.5 -39q-51 0 -117 30l-113 56q-32 18 -65 18q-42 0 -80 -51l-22 -29 q-32 0 -62.5 18.5t-42.5 47.5zM299 291q0 -65 36.5 -107.5t100.5 -42.5q60 0 124 31.5t118 91.5v195q-81 8 -184 8q-92 0 -143.5 -46.5t-51.5 -129.5z" />
<glyph unicode="&#xe4;" horiz-adv-x="1038" d="M88 274q0 168 108.5 254t284.5 86q102 0 197 -14v80q0 182 -168 182q-120 0 -322 -78q-25 24 -42 68.5t-19 85.5q90 40 207.5 67t216.5 27q157 0 246.5 -86t89.5 -256v-420q0 -64 12 -105.5t45 -70.5q-9 -31 -32 -62.5t-48 -45.5q-119 23 -164 127q-144 -140 -309 -140 q-74 0 -133.5 26.5t-95.5 70t-55 96t-19 108.5zM197 1253q0 49 16 82q41 25 98 25q58 0 99 -25q16 -40 16 -82t-16 -79q-41 -25 -99 -25q-62 0 -98 25q-16 33 -16 79zM299 291q0 -65 36.5 -107.5t100.5 -42.5q60 0 124 31.5t118 91.5v195q-81 8 -184 8q-92 0 -143.5 -46.5 t-51.5 -129.5zM578 1253q0 42 16 82q41 25 98 25q58 0 99 -25q16 -33 16 -82q0 -48 -16 -79q-36 -25 -99 -25q-57 0 -98 25q-16 40 -16 79z" />
<glyph unicode="&#xe5;" horiz-adv-x="1038" d="M88 274q0 168 108.5 254t284.5 86q102 0 197 -14v80q0 182 -168 182q-120 0 -322 -78q-25 24 -42 68.5t-19 85.5q90 40 207.5 67t216.5 27q157 0 246.5 -86t89.5 -256v-420q0 -64 12 -105.5t45 -70.5q-9 -31 -32 -62.5t-48 -45.5q-119 23 -164 127q-144 -140 -309 -140 q-74 0 -133.5 26.5t-95.5 70t-55 96t-19 108.5zM254 1335q0 98 70.5 166t177.5 68t177.5 -68t70.5 -166q0 -97 -70.5 -164t-177.5 -67t-177.5 67t-70.5 164zM299 291q0 -65 36.5 -107.5t100.5 -42.5q60 0 124 31.5t118 91.5v195q-81 8 -184 8q-92 0 -143.5 -46.5 t-51.5 -129.5zM399 1335q0 -47 29.5 -78.5t73.5 -31.5t73 31.5t29 78.5q0 48 -29 80.5t-73 32.5t-73.5 -32.5t-29.5 -80.5z" />
<glyph unicode="&#xe6;" horiz-adv-x="1599" d="M88 276q0 168 108.5 253t284.5 85q105 0 197 -14v82q0 180 -166 180q-132 0 -324 -78q-25 24 -42 68.5t-19 85.5q91 40 205 67t211 27q184 0 268 -125q111 131 287 131q129 0 222 -59t138 -157t45 -222q0 -86 -16 -162h-596q7 -140 59.5 -216.5t173.5 -76.5q132 0 285 80 q25 -23 43 -62.5t23 -74.5q-73 -53 -174.5 -84t-206.5 -31q-233 0 -336 170q-70 -74 -164 -122t-203 -48q-74 0 -133.5 26t-95.5 69.5t-55 96.5t-19 111zM299 291q0 -65 36.5 -107.5t100.5 -42.5q68 0 138.5 36.5t125.5 105.5q-18 77 -24 174q-74 10 -182 10 q-92 0 -143.5 -46.5t-51.5 -129.5zM891 592h407v24q0 117 -49 191t-151 74q-191 0 -207 -289z" />
<glyph unicode="&#xe7;" horiz-adv-x="964" d="M90 500q0 137 36 243t97.5 169t136.5 94.5t158 31.5q90 0 163 -28t117 -73.5t67.5 -99t23.5 -108.5q0 -117 -107 -117q-44 0 -88 9q8 253 -180 253q-98 0 -151.5 -94.5t-53.5 -279.5q0 -353 232 -353q111 0 247 103q29 -17 56.5 -54t34.5 -71q-127 -127 -306 -148 q-17 -35 -22 -53q84 -5 137 -53.5t53 -124.5q0 -90 -69 -146.5t-176 -56.5q-100 0 -162 41q3 61 43 107q45 -29 102 -29q45 0 67.5 22.5t22.5 57.5q0 34 -22.5 57t-63.5 23q-26 0 -49 -10q-11 5 -21.5 15.5t-13.5 20.5q11 51 43 129q-119 16 -200 92.5t-116.5 185.5 t-35.5 245z" />
<glyph unicode="&#xe8;" horiz-adv-x="1024" d="M90 504q0 155 46.5 274t144.5 189.5t237 70.5q191 0 298.5 -123.5t107.5 -314.5q0 -76 -15 -162h-602q7 -139 61 -216t177 -77q135 0 284 78q25 -23 43 -61.5t25 -73.5q-74 -53 -176.5 -84t-208.5 -31q-94 0 -168 29t-121 78t-77.5 118.5t-43 144t-12.5 161.5zM252 1374 q17 44 59.5 84t88.5 55l294 -325q-12 -29 -38 -54t-54 -32zM307 592h414v26q0 116 -50.5 189.5t-154.5 73.5q-96 0 -148.5 -75.5t-60.5 -213.5z" />
<glyph unicode="&#xe9;" horiz-adv-x="1024" d="M90 504q0 155 46.5 274t144.5 189.5t237 70.5q191 0 298.5 -123.5t107.5 -314.5q0 -76 -15 -162h-602q7 -139 61 -216t177 -77q135 0 284 78q25 -23 43 -61.5t25 -73.5q-74 -53 -176.5 -84t-208.5 -31q-94 0 -168 29t-121 78t-77.5 118.5t-43 144t-12.5 161.5zM307 592 h414v26q0 116 -50.5 189.5t-154.5 73.5q-96 0 -148.5 -75.5t-60.5 -213.5zM369 1188l295 325q46 -15 89 -55t60 -84l-350 -272q-29 7 -55.5 31.5t-38.5 54.5z" />
<glyph unicode="&#xea;" horiz-adv-x="1024" d="M90 504q0 155 46.5 274t144.5 189.5t237 70.5q191 0 298.5 -123.5t107.5 -314.5q0 -76 -15 -162h-602q7 -139 61 -216t177 -77q135 0 284 78q25 -23 43 -61.5t25 -73.5q-74 -53 -176.5 -84t-208.5 -31q-94 0 -168 29t-121 78t-77.5 118.5t-43 144t-12.5 161.5zM224 1196 l217 272q34 12 86.5 12t91.5 -10l201 -258q-14 -33 -44 -58.5t-59 -35.5l-190 187l-205 -197q-62 24 -98 88zM307 592h414v26q0 116 -50.5 189.5t-154.5 73.5q-96 0 -148.5 -75.5t-60.5 -213.5z" />
<glyph unicode="&#xeb;" horiz-adv-x="1024" d="M90 504q0 155 46.5 274t144.5 189.5t237 70.5q191 0 298.5 -123.5t107.5 -314.5q0 -76 -15 -162h-602q7 -139 61 -216t177 -77q135 0 284 78q25 -23 43 -61.5t25 -73.5q-74 -53 -176.5 -84t-208.5 -31q-94 0 -168 29t-121 78t-77.5 118.5t-43 144t-12.5 161.5zM217 1253 q0 49 16 82q41 25 99 25q57 0 98 -25q16 -40 16 -82t-16 -79q-41 -25 -98 -25q-63 0 -99 25q-16 33 -16 79zM307 592h414v26q0 116 -50.5 189.5t-154.5 73.5q-96 0 -148.5 -75.5t-60.5 -213.5zM598 1253q0 42 16 82q41 25 99 25q57 0 98 -25q16 -33 16 -82q0 -48 -16 -79 q-36 -25 -98 -25q-58 0 -99 25q-16 40 -16 79z" />
<glyph unicode="&#xec;" horiz-adv-x="548" d="M-23 1374q17 44 59.5 84t88.5 55l295 -325q-12 -29 -38 -54t-54 -32zM59 932q0 25 11 78q68 8 129 8h28q77 0 121.5 -48.5t44.5 -133.5v-836q-39 -8 -104 -8q-68 0 -107 8v750q0 57 -20 81.5t-70 24.5h-22q-11 49 -11 76z" />
<glyph unicode="&#xed;" horiz-adv-x="548" d="M59 932q0 25 11 78q68 8 129 8h28q77 0 121.5 -48.5t44.5 -133.5v-836q-39 -8 -104 -8q-68 0 -107 8v750q0 57 -20 81.5t-70 24.5h-22q-11 49 -11 76zM94 1188l295 325q46 -15 89.5 -55t60.5 -84l-351 -272q-29 7 -55.5 31.5t-38.5 54.5z" />
<glyph unicode="&#xee;" horiz-adv-x="548" d="M-51 1196l217 272q34 12 86.5 12t91.5 -10l201 -258q-14 -33 -44 -58.5t-59 -35.5l-190 187l-205 -197q-62 24 -98 88zM59 932q0 25 11 78q68 8 129 8h28q77 0 121.5 -48.5t44.5 -133.5v-836q-39 -8 -104 -8q-68 0 -107 8v750q0 57 -20 81.5t-70 24.5h-22q-11 49 -11 76z " />
<glyph unicode="&#xef;" horiz-adv-x="548" d="M-57 1253q0 49 16 82q41 25 98 25q58 0 99 -25q16 -40 16 -82t-16 -79q-41 -25 -99 -25q-62 0 -98 25q-16 33 -16 79zM59 932q0 25 11 78q68 8 129 8h28q77 0 121.5 -48.5t44.5 -133.5v-836q-39 -8 -104 -8q-68 0 -107 8v750q0 57 -20 81.5t-70 24.5h-22q-11 49 -11 76z M324 1253q0 42 16 82q41 25 98 25q58 0 99 -25q16 -33 16 -82q0 -48 -16 -79q-36 -25 -99 -25q-57 0 -98 25q-16 40 -16 79z" />
<glyph unicode="&#xf0;" horiz-adv-x="1058" d="M86 494q0 250 145 395q114 108 287 108q72 0 148 -34q-44 120 -158 237l-203 -141q-26 18 -49 50t-29 62l176 121q-69 55 -163 105q6 39 30.5 78.5t53.5 56.5q127 -55 233 -135l178 123q25 -19 48.5 -51t27.5 -60l-149 -102q151 -151 230 -356t79 -449q0 -270 -146 -416 q-113 -113 -297 -113t-297 113q-145 145 -145 408zM305 492q0 -73 10.5 -133t34.5 -113t69.5 -83t108.5 -30t109 30.5t70.5 84.5t35.5 116.5t11 137.5q0 157 -33 276q-89 62 -191 62q-225 0 -225 -348z" />
<glyph unicode="&#xf1;" horiz-adv-x="1118" d="M160 0v1008l12 12h80q111 0 117 -127q151 137 325 137q93 0 156 -45.5t90 -119t27 -171.5v-477q0 -124 34 -186q-56 -45 -133 -45q-61 0 -86.5 33t-25.5 102v520q0 106 -27.5 151.5t-99.5 45.5q-63 0 -134 -34t-124 -93v-711q-39 -8 -105 -8q-65 0 -106 8zM207 1229 l18 41q31 69 85 109t120 40q55 0 117 -30l112 -58q32 -18 66 -18q40 0 80 53l22 29q31 0 62 -19.5t43 -46.5l-19 -41q-32 -71 -86 -110t-118 -39q-51 0 -117 30l-113 56q-32 18 -65 18q-42 0 -80 -51l-23 -29q-32 0 -62 18.5t-42 47.5z" />
<glyph unicode="&#xf2;" horiz-adv-x="1064" d="M90 506q0 274 146 420q112 112 296 112q185 0 297 -112q146 -146 146 -420t-146 -420q-113 -113 -297 -113q-183 0 -296 113q-146 146 -146 420zM260 1374q17 44 59.5 84t88.5 55l294 -325q-12 -29 -38 -54t-54 -32zM309 506q0 -77 10.5 -139t34.5 -116.5t69.5 -85 t108.5 -30.5t109 30.5t70.5 84.5t35.5 117t11 139q0 75 -11 138t-35.5 117.5t-70.5 85t-109 30.5t-108.5 -30.5t-69.5 -85t-34.5 -117t-10.5 -138.5z" />
<glyph unicode="&#xf3;" horiz-adv-x="1064" d="M90 506q0 274 146 420q112 112 296 112q185 0 297 -112q146 -146 146 -420t-146 -420q-113 -113 -297 -113q-183 0 -296 113q-146 146 -146 420zM309 506q0 -77 10.5 -139t34.5 -116.5t69.5 -85t108.5 -30.5t109 30.5t70.5 84.5t35.5 117t11 139q0 75 -11 138 t-35.5 117.5t-70.5 85t-109 30.5t-108.5 -30.5t-69.5 -85t-34.5 -117t-10.5 -138.5zM377 1188l295 325q46 -15 89 -55t60 -84l-350 -272q-29 7 -55.5 31.5t-38.5 54.5z" />
<glyph unicode="&#xf4;" horiz-adv-x="1064" d="M90 506q0 274 146 420q112 112 296 112q185 0 297 -112q146 -146 146 -420t-146 -420q-113 -113 -297 -113q-183 0 -296 113q-146 146 -146 420zM234 1196l217 272q34 12 86.5 12t91.5 -10l201 -258q-14 -33 -44 -58.5t-59 -35.5l-190 187l-205 -197q-62 24 -98 88z M309 506q0 -77 10.5 -139t34.5 -116.5t69.5 -85t108.5 -30.5t109 30.5t70.5 84.5t35.5 117t11 139q0 75 -11 138t-35.5 117.5t-70.5 85t-109 30.5t-108.5 -30.5t-69.5 -85t-34.5 -117t-10.5 -138.5z" />
<glyph unicode="&#xf5;" horiz-adv-x="1064" d="M90 506q0 274 146 420q112 112 296 112q185 0 297 -112q146 -146 146 -420t-146 -420q-113 -113 -297 -113q-183 0 -296 113q-146 146 -146 420zM170 1229l18 41q31 69 85 109t120 40q55 0 117 -30l113 -58q32 -18 65 -18q40 0 80 53l23 29q31 0 61.5 -19t42.5 -47 l-18 -41q-32 -71 -86.5 -110t-118.5 -39q-51 0 -117 30l-113 56q-32 18 -65 18q-42 0 -80 -51l-23 -29q-32 0 -62 18.5t-42 47.5zM309 506q0 -77 10.5 -139t34.5 -116.5t69.5 -85t108.5 -30.5t109 30.5t70.5 84.5t35.5 117t11 139q0 75 -11 138t-35.5 117.5t-70.5 85 t-109 30.5t-108.5 -30.5t-69.5 -85t-34.5 -117t-10.5 -138.5z" />
<glyph unicode="&#xf6;" horiz-adv-x="1064" d="M90 506q0 274 146 420q112 112 296 112q185 0 297 -112q146 -146 146 -420t-146 -420q-113 -113 -297 -113q-183 0 -296 113q-146 146 -146 420zM227 1253q0 47 17 82q41 25 98 25t98 -25q17 -43 17 -82q0 -40 -17 -79q-41 -25 -98 -25q-62 0 -98 25q-17 35 -17 79z M309 506q0 -77 10.5 -139t34.5 -116.5t69.5 -85t108.5 -30.5t109 30.5t70.5 84.5t35.5 117t11 139q0 75 -11 138t-35.5 117.5t-70.5 85t-109 30.5t-108.5 -30.5t-69.5 -85t-34.5 -117t-10.5 -138.5zM608 1253q0 39 17 82q41 25 98 25t98 -25q17 -35 17 -82q0 -46 -17 -79 q-36 -25 -98 -25q-57 0 -98 25q-17 42 -17 79z" />
<glyph unicode="&#xf7;" d="M106 602q0 46 9 92h856q8 -41 8 -92q0 -54 -8 -90h-856q-9 40 -9 90zM418 236q0 50 18 86q43 24 107 24q67 0 106 -24q19 -38 19 -86q0 -45 -19 -89q-34 -24 -106 -24q-68 0 -107 24q-18 41 -18 89zM418 965q0 47 18 88q43 24 107 24q67 0 106 -24q19 -44 19 -88 q0 -48 -19 -86q-15 -10 -46.5 -17.5t-59.5 -7.5q-71 0 -107 25q-18 36 -18 86z" />
<glyph unicode="&#xf8;" horiz-adv-x="1069" d="M92 506q0 276 144 420q115 112 296 112q106 0 187 -37l72 125q32 -5 66 -23.5t54 -43.5l-77 -135q143 -147 143 -418q0 -278 -146 -420q-113 -113 -299 -113q-105 0 -186 37l-74 -125q-32 5 -66.5 24t-53.5 44l77 137q-137 140 -137 416zM293 506q0 -142 37 -232l307 584 q-52 25 -102 25q-55 0 -97.5 -21.5t-69 -57t-44 -85t-24.5 -102t-7 -111.5zM426 156q46 -27 109 -27q68 0 116.5 32t74 88t37 119t11.5 138q0 146 -39 237z" />
<glyph unicode="&#xf9;" horiz-adv-x="1120" d="M117 979q52 45 133 45q60 0 86 -32.5t26 -100.5v-522q0 -106 27 -151.5t100 -45.5q61 0 131 33.5t125 91.5v715q58 8 107 8q44 0 106 -8v-725q0 -142 58 -195q-9 -30 -31.5 -60.5t-48.5 -45.5q-128 23 -172 147q-158 -151 -342 -151q-136 0 -203 92.5t-67 242.5v478 q0 123 -35 184zM276 1374q17 44 59.5 84t88.5 55l294 -325q-12 -29 -38 -54t-54 -32z" />
<glyph unicode="&#xfa;" horiz-adv-x="1120" d="M117 979q52 45 133 45q60 0 86 -32.5t26 -100.5v-522q0 -106 27 -151.5t100 -45.5q61 0 131 33.5t125 91.5v715q58 8 107 8q44 0 106 -8v-725q0 -142 58 -195q-9 -30 -31.5 -60.5t-48.5 -45.5q-128 23 -172 147q-158 -151 -342 -151q-136 0 -203 92.5t-67 242.5v478 q0 123 -35 184zM393 1188l295 325q46 -15 89.5 -55t60.5 -84l-351 -272q-29 7 -55.5 31.5t-38.5 54.5z" />
<glyph unicode="&#xfb;" horiz-adv-x="1120" d="M117 979q52 45 133 45q60 0 86 -32.5t26 -100.5v-522q0 -106 27 -151.5t100 -45.5q61 0 131 33.5t125 91.5v715q58 8 107 8q44 0 106 -8v-725q0 -142 58 -195q-9 -30 -31.5 -60.5t-48.5 -45.5q-128 23 -172 147q-158 -151 -342 -151q-136 0 -203 92.5t-67 242.5v478 q0 123 -35 184zM250 1196l217 272q34 12 86.5 12t91.5 -10l201 -258q-14 -33 -44 -58.5t-59 -35.5l-190 187l-205 -197q-62 24 -98 88z" />
<glyph unicode="&#xfc;" horiz-adv-x="1120" d="M117 979q52 45 133 45q60 0 86 -32.5t26 -100.5v-522q0 -106 27 -151.5t100 -45.5q61 0 131 33.5t125 91.5v715q58 8 107 8q44 0 106 -8v-725q0 -142 58 -195q-9 -30 -31.5 -60.5t-48.5 -45.5q-128 23 -172 147q-158 -151 -342 -151q-136 0 -203 92.5t-67 242.5v478 q0 123 -35 184zM244 1253q0 49 16 82q41 25 98 25q58 0 99 -25q16 -40 16 -82t-16 -79q-41 -25 -99 -25q-62 0 -98 25q-16 33 -16 79zM625 1253q0 42 16 82q41 25 98 25q58 0 99 -25q16 -33 16 -82q0 -48 -16 -79q-36 -25 -99 -25q-57 0 -98 25q-16 40 -16 79z" />
<glyph unicode="&#xfd;" horiz-adv-x="958" d="M10 -414q-3 37 11 82t36 70q74 -27 152 -27q97 0 152.5 63.5t93.5 190.5l6 25q-66 2 -103 25.5t-55 84.5l-270 895q76 31 129 31q41 0 66.5 -20.5t39.5 -73.5l140 -471q22 -71 75 -301q5 -15 19 -15l225 867q36 8 90 8q62 0 111 -14l6 -13l-270 -960q-37 -127 -72 -208 t-87.5 -146.5t-125 -95t-172.5 -29.5q-46 0 -105 10t-92 22zM324 1188l295 325q46 -15 89 -55t60 -84l-350 -272q-29 7 -55.5 31.5t-38.5 54.5z" />
<glyph unicode="&#xfe;" horiz-adv-x="1081" d="M160 -428v1921l12 12h78q66 0 90.5 -31t24.5 -104v-457q118 115 274 115q165 0 258.5 -139t93.5 -365q0 -110 -22.5 -202t-60.5 -154t-88.5 -104.5t-105.5 -62t-112 -19.5q-119 0 -237 67v-354q0 -73 -24.5 -104t-90.5 -31h-78zM365 225q112 -73 204 -73q91 0 149 92.5 t58 271.5q0 170 -52.5 253t-133.5 83q-59 0 -119.5 -33.5t-105.5 -99.5v-494z" />
<glyph unicode="&#xff;" horiz-adv-x="958" d="M10 -414q-3 37 11 82t36 70q74 -27 152 -27q97 0 152.5 63.5t93.5 190.5l6 25q-66 2 -103 25.5t-55 84.5l-270 895q76 31 129 31q41 0 66.5 -20.5t39.5 -73.5l140 -471q22 -71 75 -301q5 -15 19 -15l225 867q36 8 90 8q62 0 111 -14l6 -13l-270 -960q-37 -127 -72 -208 t-87.5 -146.5t-125 -95t-172.5 -29.5q-46 0 -105 10t-92 22zM172 1253q0 49 16 82q41 25 99 25q57 0 98 -25q16 -40 16 -82t-16 -79q-41 -25 -98 -25q-63 0 -99 25q-16 33 -16 79zM553 1253q0 42 16 82q41 25 99 25q57 0 98 -25q16 -33 16 -82q0 -48 -16 -79 q-36 -25 -98 -25q-58 0 -99 25q-16 40 -16 79z" />
<glyph unicode="&#x152;" horiz-adv-x="1835" d="M100 700q0 182 53 343.5t166 259.5q142 122 357 122q60 0 258 -26h772q6 -33 6 -86q0 -55 -16 -99h-486q-9 0 -34.5 -0.5t-50 -0.5t-46.5 1q0 -26 1 -66t1 -67v-286q25 0 70 1t59 1h385q11 -40 11 -90q0 -51 -11 -91h-385q-82 0 -129 2v-335q0 -18 -1 -50.5t-1 -52.5 q82 4 138 4h530q0 -55 -6 -82q-18 -104 -139 -104h-664q-195 -25 -262 -25q-214 0 -357 123q-113 98 -166 259.5t-53 344.5zM328 700q0 -81 8.5 -153.5t32 -148t61 -129t100.5 -88t146 -34.5q91 0 194 27v1051q-117 26 -194 26q-83 0 -146 -34t-100.5 -87.5t-61 -129 t-32 -147.5t-8.5 -153z" />
<glyph unicode="&#x153;" horiz-adv-x="1697" d="M90 506q0 274 146 420q112 112 296 112q226 0 336 -176q107 176 326 176q129 0 222 -59t138 -157t45 -222q0 -82 -14 -162h-598q3 -67 16 -118t39.5 -91.5t72 -62t108.5 -21.5q133 0 282 78q25 -23 43 -61t25 -72q-74 -54 -176 -85.5t-207 -31.5q-228 0 -326 166 q-105 -166 -332 -166q-183 0 -296 113q-146 142 -146 420zM309 506q0 -77 10.5 -139t34.5 -116.5t69.5 -85t108.5 -30.5t109 30.5t70.5 84.5t35.5 117t11 139q0 75 -11 138t-35.5 117.5t-70.5 85t-109 30.5t-108.5 -30.5t-69.5 -85t-34.5 -117t-10.5 -138.5zM987 592h408v24 q0 118 -48.5 191.5t-152.5 73.5q-95 0 -147 -75t-60 -214z" />
<glyph unicode="&#x178;" horiz-adv-x="1021" d="M12 1374q68 39 138 39q43 0 69 -21.5t47 -72.5l162 -393q38 -93 86 -256h10q29 104 90 260l187 469q39 10 92 10q56 0 106 -16l11 -15l-389 -929v-449q-47 -8 -111 -8q-68 0 -109 8v453zM184 1618q0 42 19 82q39 24 98 24q61 0 100 -24q21 -33 21 -82q0 -53 -21 -86 q-36 -25 -100 -25q-62 0 -98 25q-19 40 -19 86zM614 1618q0 49 21 82q39 24 100 24q56 0 99 -24q18 -38 18 -82q0 -48 -18 -86q-39 -25 -99 -25q-64 0 -100 25q-21 33 -21 86z" />
<glyph unicode="&#x2c6;" horiz-adv-x="815" d="M109 1196l217 272q34 12 86.5 12t91.5 -10l201 -258q-14 -33 -44 -58.5t-59 -35.5l-190 187l-205 -197q-62 24 -98 88z" />
<glyph unicode="&#x2dc;" horiz-adv-x="815" d="M45 1229l18 41q31 69 85 109t120 40q55 0 117 -30l113 -58q32 -18 65 -18q40 0 80 53l23 29q31 0 61.5 -19t42.5 -47l-18 -41q-32 -71 -86.5 -110t-118.5 -39q-51 0 -117 30l-113 56q-32 18 -65 18q-42 0 -80 -51l-22 -29q-32 0 -62.5 18.5t-42.5 47.5z" />
<glyph unicode="&#x2000;" horiz-adv-x="923" />
<glyph unicode="&#x2001;" horiz-adv-x="1847" />
<glyph unicode="&#x2002;" horiz-adv-x="923" />
<glyph unicode="&#x2003;" horiz-adv-x="1847" />
<glyph unicode="&#x2004;" horiz-adv-x="615" />
<glyph unicode="&#x2005;" horiz-adv-x="461" />
<glyph unicode="&#x2006;" horiz-adv-x="307" />
<glyph unicode="&#x2007;" horiz-adv-x="307" />
<glyph unicode="&#x2008;" horiz-adv-x="230" />
<glyph unicode="&#x2009;" horiz-adv-x="369" />
<glyph unicode="&#x200a;" horiz-adv-x="102" />
<glyph unicode="&#x2010;" horiz-adv-x="716" d="M94 545q0 56 10 92h508q11 -40 11 -92q0 -50 -11 -90h-508q-10 36 -10 90z" />
<glyph unicode="&#x2011;" horiz-adv-x="716" d="M94 545q0 56 10 92h508q11 -40 11 -92q0 -50 -11 -90h-508q-10 36 -10 90z" />
<glyph unicode="&#x2012;" horiz-adv-x="716" d="M94 545q0 56 10 92h508q11 -40 11 -92q0 -50 -11 -90h-508q-10 36 -10 90z" />
<glyph unicode="&#x2013;" horiz-adv-x="1087" d="M125 541q0 49 8 88h821q9 -43 9 -88q0 -44 -9 -84h-821q-8 36 -8 84z" />
<glyph unicode="&#x2014;" horiz-adv-x="1636" d="M154 541q0 49 8 88h1311q10 -36 10 -88q0 -50 -10 -84h-1311q-8 36 -8 84z" />
<glyph unicode="&#x2018;" horiz-adv-x="466" d="M86 1196q0 126 70 223t202 146q28 -13 43.5 -43t12.5 -62q-58 -26 -99.5 -71.5t-44.5 -102.5q63 -5 86 -22q21 -32 21 -99q0 -27 -6 -59t-15 -45q-19 -11 -56 -19t-69 -8t-67.5 7.5t-52.5 19.5q-25 58 -25 135z" />
<glyph unicode="&#x2019;" horiz-adv-x="466" d="M53 1135q58 28 99.5 73.5t44.5 100.5q-69 10 -88 24q-19 34 -19 99q0 66 19 104q20 10 58.5 18.5t68.5 8.5t66.5 -8t53.5 -19q23 -53 23 -137q0 -126 -69 -223.5t-201 -145.5q-28 13 -43.5 43.5t-12.5 61.5z" />
<glyph unicode="&#x201a;" horiz-adv-x="468" d="M61 -193q57 26 99 72.5t45 102.5q-71 10 -86 24q-21 32 -21 98q0 26 6 58t15 45q18 11 56 20t69 9t67.5 -8.5t53.5 -20.5q22 -48 22 -135q0 -126 -69 -223.5t-201 -145.5q-28 13 -43.5 43.5t-12.5 60.5z" />
<glyph unicode="&#x201c;" horiz-adv-x="864" d="M84 1196q0 126 70 223t202 146q28 -13 43.5 -43t12.5 -62q-58 -26 -99.5 -71.5t-44.5 -102.5q63 -5 86 -22q21 -32 21 -99q0 -27 -6 -59t-15 -45q-19 -11 -56 -19t-69 -8t-67.5 7.5t-52.5 19.5q-25 58 -25 135zM481 1196q0 125 70 222.5t203 146.5q28 -13 43 -43t12 -62 q-58 -26 -99 -71.5t-44 -102.5q63 -5 86 -22q20 -30 20 -99q0 -74 -20 -104q-19 -11 -56 -19t-69 -8t-68 7.5t-53 19.5q-25 58 -25 135z" />
<glyph unicode="&#x201d;" horiz-adv-x="864" d="M57 1135q58 28 99.5 73.5t44.5 100.5q-69 10 -88 24q-19 34 -19 99q0 66 19 104q20 10 58.5 18.5t68.5 8.5t66.5 -8t53.5 -19q23 -53 23 -137q0 -126 -69 -223.5t-201 -145.5q-28 13 -43.5 43.5t-12.5 61.5zM455 1135q58 28 99 73t44 101q-69 10 -88 24q-18 32 -18 99 q0 68 18 104q20 10 58.5 18.5t68.5 8.5q31 0 67.5 -8t53.5 -19q22 -51 22 -137q0 -126 -69 -223.5t-201 -145.5q-28 13 -43 43.5t-12 61.5z" />
<glyph unicode="&#x201e;" horiz-adv-x="866" d="M61 -193q57 26 99 72.5t45 102.5q-71 10 -86 24q-21 32 -21 98q0 26 6 58t15 45q18 11 56 20t69 9t67.5 -8.5t53.5 -20.5q22 -48 22 -135q0 -126 -69 -223.5t-201 -145.5q-28 13 -43.5 43.5t-12.5 60.5zM459 -193q57 26 98.5 72.5t44.5 102.5q-71 10 -86 24 q-20 30 -20 98q0 73 20 103q18 11 56 20t69 9t67.5 -8.5t53.5 -20.5q22 -48 22 -135q0 -126 -69 -223.5t-201 -145.5q-28 13 -43 43t-12 61z" />
<glyph unicode="&#x2022;" horiz-adv-x="915" d="M225 557q0 38 8.5 92.5t22.5 81.5q35 22 93 35.5t114 13.5q51 0 111.5 -14t91.5 -35q14 -27 22 -81t8 -93t-8 -93.5t-22 -82.5q-28 -21 -89 -34t-114 -13q-57 0 -114.5 13t-92.5 34q-14 28 -22.5 83t-8.5 93z" />
<glyph unicode="&#x202f;" horiz-adv-x="369" />
<glyph unicode="&#x2039;" horiz-adv-x="679" d="M68 522.5q0 39.5 12 67.5l395 377q36 -10 71.5 -43.5t47.5 -67.5l-285 -330l295 -340q-12 -34 -48 -67t-73 -43l-403 379q-12 28 -12 67.5z" />
<glyph unicode="&#x203a;" horiz-adv-x="679" d="M74 856q12 33 48.5 66.5t72.5 44.5l405 -379q10 -28 10 -67.5t-10 -65.5l-397 -379q-35 11 -70 44t-47 68l283 330z" />
<glyph unicode="&#x205f;" horiz-adv-x="461" />
<glyph unicode="&#x20ac;" horiz-adv-x="1159" d="M43 506q0 35 8 74h148q-2 27 -2 84q0 50 2 77h-148q-8 36 -8 72q0 35 8 74h162q16 103 49 184.5t87.5 146.5t138 100.5t190.5 35.5q113 0 226.5 -43.5t209.5 -122.5q-9 -36 -36.5 -74t-61.5 -59q-72 55 -154.5 87t-154.5 32q-226 0 -279 -287h422q8 -39 8 -74 q0 -36 -8 -72h-438v-79q0 -55 2 -82h436q8 -39 8 -74q0 -36 -8 -72h-420q53 -280 277 -280q72 0 154.5 31.5t154.5 86.5q36 -23 62.5 -59.5t35.5 -73.5q-95 -80 -208.5 -123t-227.5 -43q-107 0 -189.5 34.5t-137 99t-88 145t-50.5 182.5h-162q-8 36 -8 72z" />
<glyph unicode="&#x25fc;" horiz-adv-x="1024" d="M0 0v1024h1024v-1024h-1024z" />
</font>
</defs>
</svg>
